osu file format v14

[General]
AudioFilename: audio.mp3
AudioLeadIn: 0
PreviewTime: 65423
Countdown: 0
SampleSet: Soft
StackLeniency: 0.3
Mode: 0
LetterboxInBreaks: 0
WidescreenStoryboard: 0

[Editor]
DistanceSpacing: 1.5
BeatDivisor: 8
GridSize: 32
TimelineZoom: 1.7

[Metadata]
Title:Innocent Desire
TitleUnicode:Innocent Desire
Artist:Duca
ArtistUnicode:Duca
Creator:Dored
Version:Rescue
Source:神待ちサナちゃん
Tags:Kami machi Sana chan Frill Opening Short Version Japanese Eroge Visual Novel Galgame Necho Reincarnation Rage Quit SuperDalouBot Akitoshi Corinn -Laura- Asuka_- Garden 白矢たつき Shiraya Tatsuki 竹下智博 Takeshita Tomohiro
BeatmapID:2233802
BeatmapSetID:1066929

[Difficulty]
HPDrainRate:6
CircleSize:4.1
OverallDifficulty:8.7
ApproachRate:9.3
SliderMultiplier:3.4
SliderTickRate:1

[Events]
//Background and Video events
0,0,"Top.jpg",0,0
//Break Periods
//Storyboard Layer 0 (Background)
//Storyboard Layer 1 (Fail)
//Storyboard Layer 2 (Pass)
//Storyboard Layer 3 (Foreground)
//Storyboard Layer 4 (Overlay)
//Storyboard Sound Samples

[TimingPoints]
-1077,591.133004926108,4,2,1,40,1,0
991,-200,4,2,1,40,0,0
1213,-200,4,2,1,30,0,0
1287,-142.857142857143,4,2,1,40,0,0
5056,-142.857142857143,4,2,1,5,0,0
5129,-142.857142857143,4,2,1,40,0,0
5647,-142.857142857143,4,2,1,5,0,0
5721,-142.857142857143,4,2,1,40,0,0
8381,-333.333333333333,4,2,1,35,0,0
9120,-333.333333333333,4,2,1,20,0,0
9267,-333.333333333333,4,2,1,30,0,0
10450,-333.333333333333,4,2,1,10,0,0
11780,-333.333333333333,4,2,1,55,0,0
11927,591.133004926108,4,2,1,70,1,0
11927,-111.111111111111,4,2,1,70,0,0
19242,-111.111111111111,4,2,1,5,0,0
19316,-111.111111111111,4,2,1,70,0,0
28700,-111.111111111111,4,2,1,5,0,0
28774,-111.111111111111,4,2,1,70,0,0
30769,-111.111111111111,4,2,1,5,0,0
30843,-200,4,2,1,35,0,0
35572,-142.857142857143,4,2,1,45,0,0
39193,-142.857142857143,4,2,1,5,0,0
39266,-142.857142857143,4,2,1,45,0,0
45030,-125,4,2,1,55,0,0
54488,295.566502463054,4,2,1,65,1,0
54488,-222.222222222222,4,2,1,65,0,0
56778,-222.222222222222,4,2,1,5,0,0
56852,-222.222222222222,4,2,1,65,0,0
63946,591.133004926108,4,2,1,50,1,0
63946,-200,4,2,1,50,0,0
65571,-142.857142857143,4,2,1,65,0,0
66310,-100,4,2,1,80,0,1
68305,-100,4,2,1,5,0,1
68379,-100,4,2,1,80,0,1
73034,-100,4,2,1,5,0,1
73108,-100,4,2,1,80,0,1
82492,-100,4,2,1,5,0,1
82566,-100,4,2,1,80,0,1
85226,-142.857142857143,4,2,1,45,0,0

[Colours]
Combo1 : 255,205,155
Combo2 : 251,191,255
Combo3 : 157,223,255
Combo4 : 187,255,187

[HitObjects]
96,320,991,6,0,L|32:331,1,63.75
150,248,1287,6,0,L|267:268,1,118.999996368408,2|0,0:0|0:0,0:0:0:0:
344,316,1730,2,0,L|354:374,1,59.4999981842042,2|0,0:0|0:0,0:0:0:0:
392,239,2026,1,0,0:0:0:0:
392,239,2174,2,0,L|381:180,1,59.4999981842042,2|0,0:0|0:0,0:0:0:0:
473,71,2469,6,0,P|423:102|367:89,1,118.999996368408,2|2,0:0|0:0,0:0:0:0:
283,54,2913,1,0,0:0:0:0:
236,135,3060,2,0,L|294:145,1,59.4999981842042,2|0,0:0|0:0,0:0:0:0:
189,53,3356,2,0,L|131:63,1,59.4999981842042,2|0,0:0|0:0,0:0:0:0:
74,220,3652,6,0,P|42:170|55:114,1,118.999996368408,2|0,0:0|0:0,0:0:0:0:
155,177,4095,2,0,L|165:235,1,59.4999981842042,2|0,0:0|0:0,0:0:0:0:
229,349,4390,2,0,L|239:291,1,59.4999981842042,2|0,0:0|0:0,0:0:0:0:
252,198,4686,1,0,0:0:0:0:
144,323,4834,6,0,P|100:314|56:307,1,89.2499972763062,2|0,0:0|0:0,0:0:0:0:
170,360,5129,2,0,P|199:354|228:349,1,59.4999981842042,2|0,0:0|0:0,0:0:0:0:
400,332,5425,2,0,P|356:340|312:347,1,89.2499972763062,2|0,0:0|0:0,0:0:0:0:
426,369,5721,2,0,P|455:374|484:379,1,59.4999981842042,2|0,0:0|0:0,0:0:0:0:
326,256,6016,6,0,L|336:197,1,59.4999981842042,2|0,0:0|0:0,0:0:0:0:
362,51,6312,1,0,0:0:0:0:
362,51,6459,2,0,L|352:110,2,59.4999981842042,2|0|0,0:0|0:0|0:0,0:0:0:0:
268,139,6903,1,2,0:0:0:0:
420,168,7051,1,0,0:0:0:0:
268,139,7198,6,0,L|209:128,1,59.4999981842042,2|0,0:0|0:0,0:0:0:0:
63,101,7494,1,0,0:0:0:0:
63,101,7642,2,0,L|122:112,2,59.4999981842042,2|0|0,0:0|0:0|0:0,0:0:0:0:
180,45,8085,1,2,0:0:0:0:
151,195,8233,1,0,0:0:0:0:
151,195,8381,6,0,P|139:257|128:320,1,127.499996109009
60,279,9267,2,0,P|152:244|207:320,1,203.999993774414
206,317,11780,1,0,3:0:0:0:
208,328,11854,1,0,3:0:0:0:
210,340,11927,6,0,P|247:332|285:326,1,76.4999976654053,14|0,3:2|0:0,0:0:0:0:
343,160,12222,2,0,P|331:196|322:233,1,76.4999976654053,10|0,0:0|0:0,0:0:0:0:
502,368,12518,2,0,P|456:309|382:312,1,152.999995330811,10|2,0:0|0:0,0:0:0:0:
278,107,12961,6,0,P|351:128|425:146,1,152.999995330811,10|2,0:0|1:2,0:0:0:0:
322,233,13404,1,0,3:0:0:0:
416,60,13552,1,0,3:0:0:0:
250,100,13700,2,0,P|244:62|235:24,1,76.4999976654053,10|0,0:0|0:0,0:0:0:0:
157,192,13995,1,8,0:0:0:0:
322,233,14143,2,0,L|284:227,1,38.2499988327027,8|0,0:0|3:0,0:0:0:0:
114,110,14291,6,0,P|122:147|128:184,1,76.4999976654053,10|0,0:0|0:0,0:0:0:0:
115,349,14587,2,0,P|77:358|41:370,1,76.4999976654053,10|0,0:0|0:0,0:0:0:0:
204,273,14882,2,0,P|250:332|324:329,1,152.999995330811,10|0,0:0|0:0,0:0:0:0:
445,133,15326,6,0,P|424:206|406:280,1,152.999995330811,10|2,0:0|1:2,0:0:0:0:
322,329,15769,1,2,3:2:0:0:
501,279,15917,1,2,3:2:0:0:
340,155,16064,1,10,0:0:0:0:
502,43,16212,1,2,1:2:0:0:
405,280,16360,1,2,1:2:0:0:
215,106,16508,1,2,3:2:0:0:
206,98,16582,1,0,3:0:0:0:
197,90,16656,6,0,P|234:84|272:75,1,76.4999976654053,14|0,3:2|0:0,0:0:0:0:
443,185,16951,2,0,P|407:173|370:164,1,76.4999976654053,10|0,0:0|0:0,0:0:0:0:
180,8,17247,2,0,P|121:54|124:128,1,152.999995330811,10|2,0:0|0:0,0:0:0:0:
284,256,17690,6,0,P|271:219|263:182,1,76.4999976654053,10|0,0:0|0:0,0:0:0:0:
147,311,17986,2,0,P|72:329|0:350,1,152.999995330811,2|2,1:2|0:0,0:0:0:0:
242,352,18429,1,8,0:0:0:0:
84,206,18577,2,0,P|121:214|159:220,1,76.4999976654053,2|0,0:0|3:0,0:0:0:0:
263,182,18872,1,8,0:0:0:0:
57,62,19020,6,0,P|68:118|75:175,1,114.749996498108,10|0,0:0|0:0,0:0:0:0:
159,220,19316,2,0,P|121:214|84:206,1,76.4999976654053,8|2,0:0|1:2,0:0:0:0:
0,278,19611,1,8,0:0:0:0:
263,182,19759,1,2,1:2:0:0:
236,193,20055,6,0,P|309:170|383:151,1,152.999995330811,14|0,0:0|3:0,0:0:0:0:
474,0,20498,1,2,1:2:0:0:
304,68,20646,1,2,3:2:0:0:
491,130,20793,2,0,L|481:166,1,38.2499988327027,2|0,1:2|0:0,0:0:0:0:
440,312,20941,1,8,0:0:0:0:
421,286,21015,1,8,0:0:0:0:
397,269,21089,1,10,0:0:0:0:
367,262,21163,1,8,0:0:0:0:
336,264,21237,2,0,L|299:273,1,38.2499988327027,8|0,3:3|3:3,0:0:0:0:
117,329,21385,5,14,0:0:0:0:
236,193,21532,2,0,P|219:267|206:343,1,152.999995330811,8|2,0:0|0:0,0:0:0:0:
304,68,21976,2,0,P|312:105|318:143,1,76.4999976654053,8|2,0:0|0:0,0:0:0:0:
336,264,22271,1,0,1:0:0:0:
194,118,22419,6,0,P|120:116|75:174,1,152.999995330811,10|0,0:0|3:2,0:0:0:0:
304,68,22862,2,0,P|340:80|377:89,1,76.4999976654053,2|2,3:2|3:2,0:0:0:0:
206,0,23158,1,10,0:0:0:0:
292,188,23306,1,2,0:0:0:0:
206,0,23454,2,0,P|170:12|133:21,1,76.4999976654053,10|8,0:0|0:0,0:0:0:0:
5,161,23675,1,8,0:0:0:0:
5,161,23749,6,0,P|80:173|154:190,1,152.999995330811,10|0,0:0|1:0,0:0:0:0:
224,257,24193,2,0,L|188:270,1,38.2499988327027,10|8,0:0|0:0,0:0:0:0:
120,339,24340,1,0,1:0:0:0:
292,188,24488,1,2,3:2:0:0:
280,166,24784,6,0,P|292:202|301:239,1,76.4999976654053,10|0,0:0|3:0,0:0:0:0:
415,366,25079,2,0,P|419:292|481:252,1,152.999995330811,10|0,0:0|0:0,0:0:0:0:
393,149,25523,2,0,P|430:139|466:127,1,76.4999976654053,10|0,0:0|0:0,0:0:0:0:
301,239,25818,1,2,1:2:0:0:
405,52,25966,1,0,3:0:0:0:
333,316,26114,6,0,P|259:312|219:250,1,152.999995330811,14|0,0:0|1:0,0:0:0:0:
278,62,26557,1,2,0:0:0:0:
204,151,26705,2,0,P|241:156|279:165,1,76.4999976654053,8|0,0:0|0:0,0:0:0:0:
122,90,27000,2,0,P|84:84|46:75,1,76.4999976654053,2|8,1:2|0:0,0:0:0:0:
219,250,27296,5,10,0:0:0:0:
22,158,27444,2,0,P|43:231|61:305,1,152.999995330811,10|2,0:0|0:0,0:0:0:0:
219,250,27887,2,0,P|182:242|144:236,1,76.4999976654053,8|0,3:2|3:0,0:0:0:0:
0,384,28183,1,0,1:0:0:0:
162,320,28330,1,8,0:0:0:0:
22,158,28478,6,0,P|78:150|135:139,1,114.749996498108,10|0,0:0|0:0,0:0:0:0:
167,120,28774,1,0,1:0:0:0:
294,264,28922,2,0,P|256:255|218:249,1,76.4999976654053,2|8,0:0|0:0,0:0:0:0:
393,149,29217,2,0,P|355:157|317:163,1,76.4999976654053,2|0,0:0|1:0,0:0:0:0:
500,347,29513,6,0,P|508:272|454:222,1,152.999995330811,14|0,0:0|3:0,0:0:0:0:
317,162,29956,1,0,1:0:0:0:
430,302,30104,1,8,0:0:0:0:
219,249,30252,1,10,0:0:0:0:
425,143,30399,1,8,2:3:0:0:
282,21,30547,2,0,P|297:75|309:132,1,114.749996498108,4|0,2:3|0:0,0:0:0:0:
317,162,30843,5,2,0:0:0:0:
340,183,31138,5,2,0:0:0:0:
219,249,31286,1,2,0:0:0:0:
245,266,31877,5,2,0:0:0:0:
194,99,32025,1,2,0:0:0:0:
225,96,32321,5,2,0:0:0:0:
42,192,32468,1,2,0:0:0:0:
20,168,33060,5,2,0:0:0:0:
193,232,33207,1,2,0:0:0:0:
208,205,33503,5,2,0:0:0:0:
62,275,33651,1,2,0:0:0:0:
40,251,33946,5,2,0:0:0:0:
154,337,34094,1,2,0:0:0:0:
373,179,34390,5,4,1:1:0:0:
373,179,34685,1,0,3:0:0:0:
381,210,34833,1,0,3:0:0:0:
472,251,34981,1,8,3:0:0:0:
321,290,35128,1,8,3:0:0:0:
433,100,35276,1,4,3:0:0:0:
433,100,35572,6,0,P|389:60|331:63,1,118.999996368408,4|0,1:0|0:0,0:0:0:0:
248,32,36015,1,0,1:0:0:0:
248,32,36163,2,0,L|237:90,1,59.4999981842042,2|0,3:3|0:0,0:0:0:0:
174,155,36459,1,0,1:0:0:0:
8,129,36606,6,0,P|52:89|110:92,1,118.999996368408,0|2,3:0|2:3,0:0:0:0:
151,244,37050,2,0,L|33:223,1,118.999996368408,0|2,1:0|2:3,0:0:0:0:
163,278,37641,2,0,L|221:288,1,59.4999981842042,0|0,3:0|0:0,0:0:0:0:
445,310,37936,6,0,P|418:258|435:203,1,118.999996368408,0|0,1:2|0:0,0:0:0:0:
512,130,38380,1,0,1:0:0:0:
512,130,38527,2,0,L|453:119,1,59.4999981842042,2|0,3:3|0:0,0:0:0:0:
368,13,38823,1,0,1:0:0:0:
255,122,38971,6,0,P|298:114|342:105,1,89.2499972763062,0|0,1:0|0:0,0:0:0:0:
374,99,39266,2,0,L|363:158,1,59.4999981842042,2|0,3:3|0:0,0:0:0:0:
278,206,39562,1,0,1:0:0:0:
153,37,39710,2,0,P|164:95|173:154,1,118.999996368408,2|0,3:3|1:0,0:0:0:0:
62,315,40301,6,0,P|104:275|162:277,1,118.999996368408,0|0,1:0|0:0,0:0:0:0:
242,368,40744,1,0,1:0:0:0:
242,368,40892,2,0,L|183:357,1,59.4999981842042,2|0,3:3|0:0,0:0:0:0:
351,291,41188,2,0,L|292:301,1,59.4999981842042,0|2,3:0|2:3,0:0:0:0:
440,384,41483,6,0,P|448:325|460:266,1,118.999996368408,0|0,1:0|0:0,0:0:0:0:
493,166,41926,1,0,1:0:0:0:
367,261,42074,1,2,3:3:0:0:
351,291,42370,5,0,3:0:0:0:
477,196,42518,1,0,3:0:0:0:
290,134,42665,6,0,P|231:145|172:153,1,118.999996368408,0|0,1:0|0:0,0:0:0:0:
110,236,43109,1,0,1:0:0:0:
110,236,43257,2,0,L|168:246,1,59.4999981842042,2|0,3:3|0:0,0:0:0:0:
257,225,43552,6,0,L|267:343,1,118.999996368408,0|0,1:0|0:0,0:0:0:0:
168,246,43995,1,2,3:3:0:0:
351,291,44143,2,0,L|409:280,1,59.4999981842042,0|0,3:0|1:0,0:0:0:0:
267,343,44439,1,2,3:3:0:0:
384,195,44587,1,0,3:0:0:0:
371,376,44734,1,0,3:0:0:0:
257,225,44882,1,0,3:0:0:0:
463,218,45030,6,0,P|455:152|401:113,1,136,0|0,1:0|0:0,0:0:0:0:
451,30,45473,1,0,1:0:0:0:
306,118,45621,1,2,3:3:0:0:
325,146,45917,6,0,L|189:134,1,136,0|0,1:0|0:0,0:0:0:0:
131,209,46360,1,2,3:3:0:0:
178,66,46508,2,0,L|189:132,1,68,0|0,3:0|1:0,0:0:0:0:
42,210,46803,2,0,P|32:144|73:92,1,136,2|0,3:3|0:0,0:0:0:0:
131,209,47247,1,0,0:0:0:0:
6,332,47394,6,0,P|71:313|137:296,1,136,0|0,1:0|0:0,0:0:0:0:
274,257,47838,1,0,1:0:0:0:
274,257,47986,2,0,L|207:245,1,68,2|0,3:3|0:0,0:0:0:0:
73,93,48281,6,0,P|121:137|187:133,1,136,0|0,1:0|0:0,0:0:0:0:
292,101,48725,2,0,L|281:167,1,68,2|0,3:3|0:0,0:0:0:0:
207,245,49020,1,0,1:0:0:0:
373,217,49168,1,2,3:3:0:0:
352,243,49463,5,0,3:0:0:0:
186,271,49611,1,0,3:0:0:0:
295,384,49759,6,0,P|309:319|272:264,1,136,4|0,1:1|0:0,0:0:0:0:
280,168,50202,1,0,1:0:0:0:
423,331,50350,1,2,3:3:0:0:
397,350,50646,6,0,P|383:283|372:216,1,136,0|0,1:0|0:0,0:0:0:0:
426,112,51089,2,0,L|521:103,1,68,2|0,3:3|0:0,0:0:0:0:
340,33,51385,1,0,1:0:0:0:
286,137,51532,2,0,P|219:123|152:112,1,136,2|0,3:3|0:0,0:0:0:0:
33,193,51976,1,0,0:0:0:0:
93,55,52124,6,0,P|112:120|129:186,1,136,0|0,1:0|0:0,0:0:0:0:
208,240,52567,1,0,1:0:0:0:
33,193,52715,2,0,P|27:226|20:259,1,68,2|0,3:3|0:0,0:0:0:0:
203,359,53010,6,0,P|155:313|89:316,1,136,0|0,1:0|0:0,0:0:0:0:
220,213,53454,2,0,L|286:224,1,68,2|0,3:3|0:0,0:0:0:0:
152,112,53749,1,0,1:0:0:0:
326,99,53897,2,0,P|332:66|339:33,1,68,2|0,3:3|1:0,0:0:0:0:
232,186,54193,1,8,3:3:0:0:
427,142,54340,1,0,3:0:0:0:
438,140,54414,1,0,3:0:0:0:
450,138,54488,6,0,P|457:175|463:213,1,76.4999976654053,4|0,1:2|0:0,0:0:0:0:
350,355,54783,2,0,P|355:317|363:279,1,76.4999976654053,0|0,1:0|0:0,0:0:0:0:
232,186,55079,2,0,P|239:223|245:261,1,76.4999976654053,0|0,1:0|0:0,0:0:0:0:
47,359,55374,1,0,1:0:0:0:
158,242,55522,1,0,3:0:0:0:
273,369,55670,6,0,P|235:361|197:355,1,76.4999976654053,0|0,1:0|0:0,0:0:0:0:
57,260,55965,2,0,P|94:254|132:246,1,76.4999976654053,0|0,1:0|0:0,0:0:0:0:
300,165,56261,2,0,P|262:157|224:151,1,76.4999976654053,0|0,1:0|0:0,0:0:0:0:
108,31,56556,2,0,P|98:87|88:143,1,114.749996498108,0|0,1:0|0:0,0:0:0:0:
116,167,56852,6,0,P|148:147|185:147,1,76.4999976654053,0|0,1:0|0:0,0:0:0:0:
109,310,57148,2,0,P|75:292|57:260,1,76.4999976654053,0|0,1:0|0:0,0:0:0:0:
236,244,57443,2,0,P|237:281|218:313,1,76.4999976654053,0|0,1:0|0:0,0:0:0:0:
116,167,57739,5,0,1:0:0:0:
329,199,57887,2,0,P|378:144|362:71,1,152.999995330811,8|0,0:0|0:0,0:0:0:0:
256,6,58330,1,0,1:0:0:0:
418,154,58478,2,0,P|455:161|493:168,1,76.4999976654053,8|0,0:0|3:0,0:0:0:0:
360,276,58773,1,8,0:0:0:0:
298,122,58921,1,4,3:0:0:0:
452,60,59069,1,4,3:0:0:0:
165,83,59217,5,6,3:2:0:0:
199,72,59512,2,0,P|190:109|185:147,1,76.4999976654053,0|0,1:0|0:0,0:0:0:0:
56,259,59808,2,0,P|51:221|42:183,1,76.4999976654053,0|0,1:0|3:0,0:0:0:0:
180,180,60103,1,0,3:0:0:0:
22,96,60251,1,0,3:0:0:0:
22,96,60325,1,0,3:0:0:0:
22,96,60399,5,4,3:2:0:0:
0,325,60547,2,0,P|72:302|147:284,1,152.999995330811,2|0,3:2|0:0,0:0:0:0:
180,180,60990,1,8,0:0:0:0:
42,183,61138,1,8,3:3:0:0:
171,305,61286,1,8,0:0:0:0:
249,86,61433,1,4,3:3:0:0:
8,33,61581,6,0,P|27:106|41:181,1,152.999995330811,14|0,0:0|0:0,0:0:0:0:
249,86,62024,1,0,3:0:0:0:
142,205,62172,2,0,P|143:167|147:129,1,76.4999976654053,8|0,0:0|0:0,0:0:0:0:
73,303,62468,5,2,1:2:0:0:
255,231,62616,2,0,P|262:268|268:306,1,76.4999976654053,8|0,0:0|0:0,0:0:0:0:
69,151,62911,2,0,P|85:79|153:49,1,152.999995330811,10|0,0:0|0:0,0:0:0:0:
322,106,63354,2,0,P|284:96|247:85,1,76.4999976654053,10|0,0:0|0:0,0:0:0:0:
383,195,63650,1,0,3:0:0:0:
368,8,63798,1,0,3:0:0:0:
255,231,63946,5,2,0:0:0:0:
186,215,64389,1,2,0:0:0:0:
147,128,64832,1,2,0:0:0:0:
262,377,65128,5,2,0:0:0:0:
415,355,65571,5,0,3:0:0:0:
262,377,65719,2,0,L|379:360,1,118.999996368408,4|0,3:3|0:0,0:0:0:0:
172,271,66310,6,0,P|121:206|146:127,1,170,14|0,0:0|3:0,0:0:0:0:
348,92,66753,1,0,1:0:0:0:
266,2,66901,2,0,P|249:85|236:169,1,170,10|0,0:0|1:0,0:0:0:0:
360,278,67345,6,0,P|318:269|276:263,1,85,8|0,0:0|3:0,0:0:0:0:
172,271,67640,1,8,0:0:0:0:
408,182,67788,1,0,1:0:0:0:
439,171,68083,2,0,P|476:220|469:282,1,127.5,10|0,0:0|0:0,0:0:0:0:
456,316,68379,1,0,3:0:0:0:
276,263,68527,1,8,0:0:0:0:
490,328,68675,6,0,P|405:340|321:357,1,170,14|0,0:0|3:0,0:0:0:0:
188,348,69118,1,0,1:0:0:0:
261,179,69266,2,0,P|270:221|276:263,1,85,8|0,0:0|0:0,0:0:0:0:
370,199,69561,1,0,1:0:0:0:
171,133,69709,6,0,P|213:142|255:148,1,85,10|0,0:0|0:0,0:0:0:0:
446,70,70005,2,0,P|365:86|305:30,1,170,10|0,0:0|0:0,0:0:0:0:
202,263,70448,1,10,0:0:0:0:
370,199,70596,1,0,3:0:0:0:
305,30,70744,1,2,1:2:0:0:
137,94,70891,1,4,3:0:0:0:
318,283,71039,6,0,P|378:227|458:243,1,170,14|0,0:0|3:0,0:0:0:0:
254,147,71482,1,0,1:0:0:0:
251,357,71630,2,0,P|209:348|167:342,1,85,10|0,0:0|0:0,0:0:0:0:
129,210,71926,1,0,3:0:0:0:
298,254,72074,1,0,3:0:0:0:
168,88,72221,5,10,0:0:0:0:
367,53,72369,2,0,P|283:69|198:82,1,170,10|0,0:0|0:0,0:0:0:0:
17,239,72812,2,0,P|65:202|127:209,1,127.5,4|0,1:1|0:0,0:0:0:0:
154,232,73108,1,0,3:0:0:0:
71,62,73256,1,8,0:0:0:0:
283,37,73404,6,0,P|266:120|253:204,1,170,4|0,1:1|0:0,0:0:0:0:
167,342,73847,1,0,0:0:0:0:
346,314,73995,2,0,P|303:307|262:299,1,85,4|0,1:1|0:0,0:0:0:0:
154,232,74290,1,0,3:0:0:0:
350,176,74438,1,0,3:0:0:0:
277,382,74586,6,0,P|270:339|262:298,1,85,4|0,1:0|0:0,0:0:0:0:
364,92,74881,2,0,P|355:133|349:175,1,85,0|0,1:0|0:0,0:0:0:0:
233,118,75177,1,8,3:2:0:0:
360,209,75325,1,8,3:0:0:0:
154,232,75473,1,4,3:0:0:0:
352,58,75620,1,4,3:0:0:0:
97,161,75768,6,0,P|60:234|99:306,1,170,14|0,0:0|0:0,0:0:0:0:
252,204,76212,1,0,0:0:0:0:
80,51,76359,2,0,P|163:68|247:81,1,170,10|0,0:0|3:0,0:0:0:0:
430,4,76803,1,8,0:0:0:0:
359,142,76950,6,0,P|356:99|351:57,1,85,2|8,1:2|0:0,0:0:0:0:
252,204,77246,1,10,0:0:0:0:
478,140,77394,1,0,3:0:0:0:
301,300,77542,1,10,1:2:0:0:
470,308,77689,1,4,3:0:0:0:
359,142,77837,1,8,3:0:0:0:
175,188,77985,1,4,3:0:0:0:
430,4,78133,6,0,P|490:58|478:140,1,170,14|0,0:0|3:0,0:0:0:0:
279,61,78576,1,0,1:0:0:0:
175,188,78724,2,0,P|216:175|257:165,1,85,8|0,0:0|0:0,0:0:0:0:
55,222,79019,1,0,1:0:0:0:
183,359,79167,6,0,P|226:289|194:214,1,170,14|0,0:0|3:0,0:0:0:0:
116,70,79611,2,0,P|107:111|101:153,1,85,0|0,1:0|0:0,0:0:0:0:
41,323,79906,2,0,P|34:281|26:239,1,85,10|0,0:0|0:0,0:0:0:0:
194,214,80202,1,0,3:0:0:0:
27,115,80349,1,0,3:0:0:0:
229,49,80497,6,0,P|312:66|396:79,1,170,14|0,0:0|3:0,0:0:0:0:
175,188,80941,1,0,3:0:0:0:
311,235,81088,2,0,P|317:193|325:151,1,85,8|0,0:0|0:0,0:0:0:0:
480,40,81384,1,0,3:0:0:0:
410,184,81532,1,0,3:0:0:0:
229,49,81679,6,0,P|187:58|145:64,1,85,14|0,0:0|3:0,0:0:0:0:
0,211,81975,1,0,1:0:0:0:
192,148,82123,1,0,3:0:0:0:
52,36,82271,2,0,P|68:96|84:158,1,127.5,8|0,0:0|0:0,0:0:0:0:
95,189,82566,1,0,3:0:0:0:
229,49,82714,1,8,0:0:0:0:
318,219,82862,6,0,P|236:216|191:147,1,170,14|0,0:0|3:0,0:0:0:0:
228,322,83305,1,0,3:0:0:0:
65,279,83453,2,0,P|106:271|148:265,1,85,8|0,0:0|0:0,0:0:0:0:
281,134,83748,1,0,3:0:0:0:
368,358,83896,6,0,P|306:303|226:322,1,170,14|0,0:0|3:0,0:0:0:0:
301,136,84340,2,0,P|341:144|383:151,1,85,0|0,1:0|0:0,0:0:0:0:
474,164,84635,1,10,3:2:0:0:
317,271,84783,1,8,3:0:0:0:
210,114,84931,1,4,3:0:0:0:
367,7,85079,6,0,L|359:48,1,42.5,2|0,3:2|0:0,0:0:0:0:
322,240,85226,1,2,0:0:0:0:
347,260,85522,5,2,0:0:0:0:
188,205,85670,1,2,0:0:0:0:
157,194,85965,5,2,0:0:0:0:
126,183,86261,6,0,L|156:178,1,29.7499990921021,2|0,0:0|0:0,0:0:0:0:
341,144,86409,1,2,0:0:0:0:
316,124,86704,5,2,0:0:0:0:
241,275,86852,1,2,0:0:0:0:
226,304,87147,5,2,0:0:0:0:
211,333,87443,6,0,L|206:303,1,29.7499990921021,2|0,0:0|0:0,0:0:0:0:
169,113,87591,1,2,0:0:0:0:
347,260,87886,5,2,0:0:0:0:
444,196,88034,1,2,0:0:0:0:
211,333,88330,5,2,0:0:0:0:
114,269,88478,1,2,0:0:0:0:
256,4,88773,5,2,0:0:0:0:
