osu file format v14

[General]
AudioFilename: audio.mp3
AudioLeadIn: 0
PreviewTime: 65423
Countdown: 0
SampleSet: Soft
StackLeniency: 0.7
Mode: 0
LetterboxInBreaks: 0
WidescreenStoryboard: 1

[Editor]
DistanceSpacing: 1.6
BeatDivisor: 4
GridSize: 16
TimelineZoom: 1.7

[Metadata]
Title:Innocent Desire
TitleUnicode:Innocent Desire
Artist:Duca
ArtistUnicode:Duca
Creator:Dored
Version:Asuka_-'s Hard
Source:神待ちサナちゃん
Tags:Kami machi Sana chan Frill Opening Short Version Japanese Eroge Visual Novel Galgame Necho Reincarnation Rage Quit SuperDalouBot Akitoshi Corinn -Laura- Asuka_- Garden 白矢たつき Shiraya Tatsuki 竹下智博 Takeshita Tomohiro
BeatmapID:2233804
BeatmapSetID:1066929

[Difficulty]
HPDrainRate:5
CircleSize:4
OverallDifficulty:6
ApproachRate:8
SliderMultiplier:2
SliderTickRate:1

[Events]
//Background and Video events
0,0,"Hard.jpg",0,0
//Break Periods
2,8581,10708
//Storyboard Layer 0 (Background)
//Storyboard Layer 1 (Fail)
//Storyboard Layer 2 (Pass)
//Storyboard Layer 3 (Foreground)
//Storyboard Layer 4 (Overlay)
//Storyboard Sound Samples

[TimingPoints]
-1077,591.133004926108,4,2,1,40,1,0
991,-166.666666666667,4,2,1,40,0,0
6016,-125,4,2,1,40,0,0
11927,591.133004926108,4,2,1,70,1,0
30843,-200,4,2,1,35,0,0
35572,-125,4,2,1,45,0,0
45030,-125,4,2,1,55,0,0
54488,295.566502463054,4,2,1,65,1,0
54488,-200,4,2,1,65,0,0
63946,591.133004926108,4,2,1,50,1,0
65719,-58.8235294117647,4,2,1,65,0,0
66310,-100,4,2,1,80,0,1
85226,-100,4,2,1,45,0,0

[Colours]
Combo1 : 255,205,155
Combo2 : 251,191,255
Combo3 : 157,223,255
Combo4 : 187,255,187

[HitObjects]
90,37,1287,6,0,P|63:77|72:141,1,89.9999972534181,2|2,0:0|0:0,0:0:0:0:
146,195,2026,2,0,L|164:92,1,89.9999972534181,0|2,0:0|0:0,0:0:0:0:
256,47,2765,1,2,0:0:0:0:
351,106,3060,1,2,0:0:0:0:
258,162,3356,1,2,0:0:0:0:
161,106,3652,6,0,L|146:195,1,89.9999972534181,2|2,0:0|0:0,0:0:0:0:
212,282,4390,1,2,0:0:0:0:
130,353,4686,2,0,L|28:336,1,89.9999972534181,0|2,0:0|0:0,0:0:0:0:
212,282,5425,2,0,L|253:290,3,29.9999990844727,2|0|2|0,0:0|0:0|0:0|0:0,0:0:0:0:
276,300,6016,6,0,L|296:202,1,80,2|0,0:0|0:0,0:0:0:0:
319,316,6459,2,0,L|339:218,1,80,2|0,0:0|0:0,0:0:0:0:
359,330,6903,2,0,L|379:232,1,80,2|2,0:0|0:0,0:0:0:0:
401,344,7346,2,0,L|421:246,1,80,0|2,0:0|0:0,0:0:0:0:
440,352,7789,2,0,L|452:286,3,40,0|0|2|0,0:0|0:0|0:0|0:0,0:0:0:0:
483,364,8381,5,0,0:0:0:0:
21,69,11780,5,0,3:0:0:0:
21,69,11927,6,0,P|55:61|86:41,1,50,14|0,3:2|0:0,0:0:0:0:
162,32,12222,2,0,L|153:99,1,50,10|0,0:0|0:0,0:0:0:0:
87,144,12518,2,0,L|100:250,1,100,10|2,0:0|0:0,0:0:0:0:
188,228,12961,2,0,L|165:345,2,100,10|2|0,0:0|1:2|3:0,0:0:0:0:
99,243,13700,1,10,0:0:0:0:
242,378,13995,1,8,0:0:0:0:
436,247,14291,6,0,P|401:254|377:271,1,50,10|0,0:0|0:0,0:0:0:0:
309,308,14587,2,0,L|297:237,1,50,10|0,0:0|0:0,0:0:0:0:
346,185,14882,2,0,L|361:72,1,100,10|0,0:0|0:0,0:0:0:0:
437,11,15326,2,0,L|449:127,1,100,10|2,0:0|1:2,0:0:0:0:
359,85,15769,1,2,3:2:0:0:
359,85,15917,2,0,L|299:75,1,50,2|10,3:2|0:0,0:0:0:0:
250,142,16212,2,0,P|223:98|237:41,1,100,2|2,1:2|3:2,0:0:0:0:
132,99,16656,6,0,L|77:91,1,50,14|0,3:2|0:0,0:0:0:0:
35,193,16951,2,0,L|100:183,1,50,10|0,0:0|0:0,0:0:0:0:
188,282,17247,2,0,L|173:169,1,100,10|2,0:0|0:0,0:0:0:0:
91,331,17690,2,0,L|100:272,1,50,10|0,0:0|0:0,0:0:0:0:
176,375,17986,2,0,P|221:370|260:329,2,100,2|2|2,1:2|0:0|0:0,0:0:0:0:
95,336,18725,1,0,3:0:0:0:
95,336,18872,1,8,0:0:0:0:
8,374,19020,6,0,L|-1:274,1,100,10|8,0:0|0:0,0:0:0:0:
41,188,19463,1,2,1:2:0:0:
7,110,19611,1,8,0:0:0:0:
7,110,19759,2,0,L|-1:39,1,50,2|0,1:2|0:0,0:0:0:0:
41,188,20055,6,0,P|95:193|139:148,1,100,14|0,0:0|3:0,0:0:0:0:
146,78,20498,2,0,L|196:86,1,50,2|2,1:2|3:2,0:0:0:0:
220,169,20793,1,2,1:2:0:0:
169,246,20941,2,0,L|177:279,4,25,8|8|10|8|8,0:0|0:0|0:0|0:0|3:3,0:0:0:0:
152,355,21385,6,0,P|202:356|252:311,1,100,14|0,0:0|0:0,0:0:0:0:
285,205,21828,2,0,L|299:271,1,50,2|8,0:0|0:0,0:0:0:0:
372,297,22124,2,0,L|387:233,1,50,2|0,0:0|1:0,0:0:0:0:
460,176,22419,2,0,L|473:282,1,100,10|0,0:0|3:2,0:0:0:0:
491,360,22862,2,0,P|465:362|429:346,1,50,2|2,3:2|3:2,0:0:0:0:
372,300,23158,1,10,0:0:0:0:
376,303,23306,2,0,P|317:294|284:324,1,100,2|8,0:0|0:0,0:0:0:0:
204,358,23749,6,0,L|216:240,1,100,10|0,0:0|1:0,0:0:0:0:
285,205,24193,2,0,L|333:214,2,25,10|8|0,0:0|0:0|1:0,0:0:0:0:
249,126,24488,2,0,L|217:130,2,25,2|0|0,3:2|0:0|0:0,0:0:0:0:
276,44,24784,2,0,L|349:55,1,50,10|0,0:0|3:0,0:0:0:0:
397,0,25079,2,0,P|415:39|398:101,1,100,10|0,0:0|0:0,0:0:0:0:
332,136,25523,1,10,0:0:0:0:
191,33,25818,1,2,1:2:0:0:
36,126,26114,6,0,L|50:234,1,100,14|0,0:0|1:0,0:0:0:0:
29,311,26557,2,0,P|83:308|124:266,1,100,2|0,0:0|0:0,0:0:0:0:
128,195,27000,2,0,P|156:203|186:228,1,50,2|8,1:2|0:0,0:0:0:0:
238,298,27296,2,0,L|262:184,1,100,10|0,0:0|0:0,0:0:0:0:
202,127,27739,2,0,L|188:9,1,100,2|0,0:0|3:0,0:0:0:0:
281,72,28183,1,0,1:0:0:0:
477,18,28478,6,0,L|464:120,1,100,10|0,0:0|1:0,0:0:0:0:
507,193,28922,2,0,P|479:206|456:205,1,50,2|8,0:0|0:0,0:0:0:0:
339,175,29217,2,0,P|369:162|399:163,1,50,2|0,0:0|1:0,0:0:0:0:
442,304,29513,2,0,L|463:191,1,100,14|0,0:0|3:0,0:0:0:0:
365,276,29956,1,0,1:0:0:0:
365,276,30104,1,8,0:0:0:0:
286,310,30252,2,0,L|269:188,1,100,10|4,0:0|2:3,0:0:0:0:
94,51,30843,6,0,L|83:110,1,50,2|2,0:0|0:0,0:0:0:0:
93,110,31286,1,2,0:0:0:0:
210,236,31877,1,2,0:0:0:0:
210,236,32025,6,0,L|201:174,1,50,2|2,0:0|0:0,0:0:0:0:
212,175,32468,1,2,0:0:0:0:
324,55,33060,1,2,0:0:0:0:
324,55,33207,6,0,L|312:115,1,50,2|2,0:0|0:0,0:0:0:0:
333,107,33651,2,0,L|322:173,1,50,2|2,0:0|0:0,0:0:0:0:
341,164,34094,1,2,0:0:0:0:
426,271,34390,1,4,1:1:0:0:
310,374,34685,6,0,L|306:343,1,25,0|0,3:0|3:0,0:0:0:0:
291,336,34981,2,0,L|284:292,3,25,8|8|4|0,3:0|3:0|3:0|0:0,0:0:0:0:
277,291,35572,5,4,1:0:0:0:
108,347,35867,2,0,P|100:316|102:291,1,40,0|0,0:0|1:0,0:0:0:0:
41,255,36163,2,0,P|73:230|118:230,1,80,2|0,3:3|1:0,0:0:0:0:
193,199,36606,2,0,L|180:281,1,80,0|2,3:0|2:3,0:0:0:0:
111,228,37050,1,0,1:0:0:0:
268,166,37345,1,2,2:3:0:0:
117,78,37641,1,0,3:0:0:0:
268,166,37936,6,0,L|283:71,1,80,0|0,1:2|0:0,0:0:0:0:
345,158,38380,2,0,L|359:65,1,80,0|0,1:0|0:0,0:0:0:0:
423,155,38823,2,0,L|442:23,1,120,0|2,1:0|3:3,0:0:0:0:
368,4,39414,1,0,0:0:0:0:
512,105,39710,1,2,3:3:0:0:
386,225,40005,1,0,1:0:0:0:
245,123,40301,5,0,1:0:0:0:
113,231,40596,2,0,L|105:192,1,40,0|0,0:0|1:0,0:0:0:0:
48,139,40892,2,0,P|86:115|134:123,1,80,2|0,3:3|3:0,0:0:0:0:
185,168,41335,1,2,2:3:0:0:
185,168,41483,2,0,L|198:70,1,80,0|0,1:0|0:0,0:0:0:0:
150,33,41926,1,0,1:0:0:0:
150,33,42074,2,0,P|199:34|236:10,1,80,2|0,3:3|3:0,0:0:0:0:
407,66,42665,6,0,L|314:52,1,80,0|0,1:0|0:0,0:0:0:0:
414,145,43109,2,0,L|323:132,1,80,0|0,1:0|0:0,0:0:0:0:
423,225,43552,2,0,L|293:206,1,120,0|2,1:0|3:3,0:0:0:0:
241,247,44143,2,0,P|231:228|229:199,1,40,0|0,3:0|1:0,0:0:0:0:
159,179,44439,2,0,P|172:158|193:143,1,40,2|0,3:3|3:0,0:0:0:0:
259,140,44734,1,0,3:0:0:0:
156,260,45030,6,0,L|65:246,1,80,0|0,1:0|0:0,0:0:0:0:
16,297,45473,1,0,1:0:0:0:
227,351,45917,2,0,L|360:332,1,120,0|2,1:0|3:3,0:0:0:0:
415,372,46508,1,0,3:0:0:0:
272,263,46803,1,2,3:3:0:0:
417,156,47099,2,0,L|409:211,1,40,0|0,0:0|0:0,0:0:0:0:
332,185,47394,6,0,L|345:90,1,80,0|0,1:0|0:0,0:0:0:0:
253,163,47838,2,0,L|266:77,1,80,0|0,1:0|0:0,0:0:0:0:
173,143,48281,2,0,L|193:20,1,120,0|2,1:0|3:3,0:0:0:0:
109,44,48872,2,0,P|87:37|62:18,1,40,0|0,0:0|1:0,0:0:0:0:
19,87,49168,1,2,3:3:0:0:
90,248,49463,1,0,3:0:0:0:
250,165,49759,6,0,P|272:202|269:254,1,80,4|0,1:1|0:0,0:0:0:0:
293,322,50202,2,0,L|205:312,1,80,0|0,1:0|0:0,0:0:0:0:
273,238,50646,2,0,L|405:252,1,120,0|2,1:0|3:3,0:0:0:0:
443,315,51237,1,0,0:0:0:0:
443,315,51385,2,0,P|469:276|466:231,1,80,0|0,1:0|0:0,0:0:0:0:
418,176,51828,1,0,0:0:0:0:
418,176,51976,1,0,0:0:0:0:
418,176,52124,6,0,L|432:88,1,80,0|0,1:0|0:0,0:0:0:0:
329,214,52567,2,0,L|343:120,1,80,0|0,1:0|0:0,0:0:0:0:
239,275,53010,2,0,L|256:146,1,120,0|2,1:0|3:3,0:0:0:0:
217,82,53601,2,0,P|199:93|181:120,1,40,0|0,0:0|1:0,0:0:0:0:
117,157,53897,2,0,P|93:151|68:135,1,40,2|0,3:3|1:0,0:0:0:0:
22,82,54193,1,8,3:3:0:0:
52,261,54488,6,0,L|38:360,2,100,4|0|0,1:2|1:0|1:0,0:0:0:0:
129,330,55226,1,0,0:0:0:0:
129,330,55374,2,0,P|159:323|179:302,1,50,0|0,1:0|3:0,0:0:0:0:
219,235,55670,2,0,P|269:236|312:284,1,100,0|0,1:0|1:0,0:0:0:0:
372,334,56113,1,0,0:0:0:0:
372,334,56261,2,0,L|397:230,1,100,0|0,1:0|1:0,0:0:0:0:
469,67,56852,6,0,L|492:177,2,100,0|0|0,1:0|1:0|1:0,0:0:0:0:
385,93,57591,1,0,0:0:0:0:
385,93,57739,1,0,1:0:0:0:
302,62,57887,2,0,P|273:95|274:160,1,100,8|0,0:0|0:0,0:0:0:0:
351,180,58330,1,0,1:0:0:0:
351,180,58478,2,0,P|384:137|378:78,1,100,8|8,0:0|0:0,0:0:0:0:
269,149,58921,2,0,L|210:140,1,50,4|4,3:0|3:0,0:0:0:0:
136,120,59217,5,6,3:2:0:0:
109,366,59512,2,0,L|120:311,1,50,0|0,1:0|0:0,0:0:0:0:
48,262,59808,2,0,P|101:226|138:228,1,100,0|0,1:0|3:0,0:0:0:0:
221,234,60251,2,0,L|205:302,1,50,0|4,3:0|3:2,0:0:0:0:
307,203,60547,2,0,L|315:265,1,50,2|0,3:2|1:0,0:0:0:0:
402,219,60842,2,0,L|380:337,1,100,0|8,0:0|3:3,0:0:0:0:
480,187,61286,1,8,0:0:0:0:
417,41,61581,6,0,P|378:69|328:60,1,100,14|0,0:0|0:0,0:0:0:0:
258,25,62024,1,0,3:0:0:0:
258,25,62172,2,0,P|214:5|157:26,1,100,8|2,0:0|1:2,0:0:0:0:
85,32,62616,1,8,0:0:0:0:
85,32,62763,6,0,L|105:235,1,200,0|10,0:0|0:0,0:0:0:0:
261,254,63650,1,0,3:0:0:0:
122,349,63946,5,2,0:0:0:0:
261,254,64389,1,2,0:0:0:0:
400,364,64832,1,2,0:0:0:0:
400,364,65128,1,2,0:0:0:0:
400,364,65719,6,0,B|355:304|279:317|279:317|223:354|223:354|154:334,1,255.000004863739,4|0,3:3|0:0,0:0:0:0:
72,327,66310,6,0,P|66:276|58:211,1,99.9999999999999,14|0,0:0|3:0,0:0:0:0:
51,128,66753,2,0,P|107:137|145:188,1,100,0|0,1:0|0:0,0:0:0:0:
150,255,67197,2,0,P|178:248|209:218,1,50,0|8,1:0|0:0,0:0:0:0:
254,166,67492,1,0,3:0:0:0:
330,215,67640,1,8,0:0:0:0:
409,153,67788,2,0,P|425:180|427:205,1,50,0|0,1:0|0:0,0:0:0:0:
340,315,68083,2,0,L|330:215,1,99.9999999999999,10|0,0:0|3:0,0:0:0:0:
442,305,68527,1,8,0:0:0:0:
340,315,68675,6,0,L|235:323,1,100,14|0,0:0|3:0,0:0:0:0:
158,382,69118,2,0,P|142:337|146:314,1,50,0|8,1:0|0:0,0:0:0:0:
175,245,69413,2,0,P|185:209|181:176,1,50,0|0,0:0|1:0,0:0:0:0:
122,98,69709,2,0,P|173:102|213:65,1,100,10|10,0:0|0:0,0:0:0:0:
318,131,70152,2,0,L|298:34,2,100,0|10|2,0:0|0:0|1:2,0:0:0:0:
396,50,70891,1,4,3:0:0:0:
491,49,71039,6,0,L|476:108,1,50,14|0,0:0|0:0,0:0:0:0:
483,211,71335,1,0,3:0:0:0:
483,211,71482,2,0,P|440:172|388:182,1,100,0|0,1:0|0:0,0:0:0:0:
312,218,71926,1,0,3:0:0:0:
229,166,72074,1,0,3:0:0:0:
137,209,72221,6,0,L|16:197,1,100,10|0,0:0|0:0,0:0:0:0:
113,303,72665,1,0,0:0:0:0:
113,303,72812,2,0,L|228:311,1,100,4|0,1:1|3:0,0:0:0:0:
48,377,73256,1,8,0:0:0:0:
48,377,73404,6,0,P|17:340|25:274,1,100,4|0,1:1|0:0,0:0:0:0:
37,199,73847,2,0,L|24:76,1,100,0|0,0:0|0:0,0:0:0:0:
133,172,74290,2,0,L|126:107,1,50,0|0,3:0|3:0,0:0:0:0:
93,23,74586,5,4,1:0:0:0:
97,27,74734,1,0,0:0:0:0:
127,122,74881,2,0,P|157:109|179:81,1,50,0|0,1:0|0:0,0:0:0:0:
202,1,75177,2,0,L|261:15,1,50,8|8,3:2|3:0,0:0:0:0:
309,97,75473,1,4,3:0:0:0:
389,42,75620,1,4,3:0:0:0:
462,117,75768,6,0,L|479:17,1,100,14|0,0:0|0:0,0:0:0:0:
507,203,76212,2,0,P|478:216|454:214,1,50,0|10,0:0|0:0,0:0:0:0:
374,166,76507,2,0,P|312:157|277:193,1,100,0|8,0:0|0:0,0:0:0:0:
184,176,76950,6,0,L|197:243,1,50,2|8,1:2|0:0,0:0:0:0:
286,291,77246,1,10,0:0:0:0:
286,291,77394,1,0,3:0:0:0:
210,358,77542,2,0,P|181:354|149:330,1,50,10|4,1:2|3:0,0:0:0:0:
286,291,77837,2,0,L|357:283,1,50,8|4,3:0|3:0,0:0:0:0:
435,331,78133,6,0,L|422:219,1,100,14|0,0:0|3:0,0:0:0:0:
504,168,78576,2,0,P|479:147|450:137,1,50,0|8,1:0|0:0,0:0:0:0:
362,106,78872,2,0,L|371:159,1,50,0|0,0:0|1:0,0:0:0:0:
364,3,79167,2,0,P|327:32|265:22,1,100,14|0,0:0|3:0,0:0:0:0:
195,111,79611,2,0,L|182:-2,2,100,0|10|0,1:0|0:0|3:0,0:0:0:0:
31,335,80497,6,0,P|88:304|135:320,1,100,14|0,0:0|3:0,0:0:0:0:
209,363,80941,1,0,3:0:0:0:
209,363,81088,2,0,L|222:243,1,100,8|0,0:0|3:0,0:0:0:0:
302,350,81532,1,0,3:0:0:0:
302,350,81679,6,0,L|309:286,2,50,14|0|0,0:0|3:0|1:0,0:0:0:0:
396,334,82123,1,0,3:0:0:0:
396,334,82271,2,0,L|503:323,1,100,8|0,0:0|3:0,0:0:0:0:
378,243,82714,1,8,0:0:0:0:
378,243,82862,6,0,L|367:172,1,50,14|0,0:0|0:0,0:0:0:0:
282,147,83157,1,0,3:0:0:0:
282,147,83305,2,0,L|272:210,1,50,0|8,3:0|0:0,0:0:0:0:
195,243,83601,1,0,0:0:0:0:
195,243,83748,2,0,L|178:174,1,50,0|14,3:0|0:0,0:0:0:0:
102,134,84044,6,0,L|89:243,2,100,0|0|10,0:0|1:0|3:2,0:0:0:0:
1,221,84783,1,8,3:0:0:0:
1,221,84931,2,0,L|17:336,1,100,4|2,3:0|0:0,0:0:0:0:
14,320,86409,5,2,0:0:0:0:
99,305,87591,5,2,0:0:0:0:
194,287,88773,5,2,0:0:0:0:
