osu file format v14

[General]
AudioFilename: audio.mp3
AudioLeadIn: 0
PreviewTime: 852
Countdown: 0
SampleSet: Soft
StackLeniency: 0.3
Mode: 0
LetterboxInBreaks: 0
WidescreenStoryboard: 1

[Editor]
Bookmarks: 59519,66316
DistanceSpacing: 1.3
BeatDivisor: 4
GridSize: 8
TimelineZoom: 1.5

[Metadata]
Title:Innocent Desire
TitleUnicode:Innocent Desire
Artist:Duca
ArtistUnicode:Duca
Creator:[ L u k a s ]
Version:Normal
Source:神待ちサナちゃん
Tags:kami machi sana chan opening frill visual novel eroge xenon- xen kowari garden dora- lukas xehn doraemonelf japanese video game
BeatmapID:2243448
BeatmapSetID:1071825

[Difficulty]
HPDrainRate:4
CircleSize:3.3
OverallDifficulty:5
ApproachRate:5.5
SliderMultiplier:1.2
SliderTickRate:1

[Events]
//Background and Video events
0,0,"normal.jpg",0,0
//Break Periods
2,8589,10663
2,30875,34456
//Storyboard Layer 0 (Background)
//Storyboard Layer 1 (Fail)
//Storyboard Layer 2 (Pass)
//Storyboard Layer 3 (Foreground)
//Storyboard Layer 4 (Overlay)
//Storyboard Sound Samples

[TimingPoints]
114,295.566502463054,4,2,1,55,1,0
114,-111.111111111111,4,2,1,55,0,0
11935,-111.111111111111,4,2,1,80,0,0
12231,-111.111111111111,4,2,2,80,0,0
16221,-111.111111111111,4,2,1,80,0,0
16664,-111.111111111111,4,2,2,80,0,0
21245,-111.111111111111,4,2,1,80,0,0
21393,-111.111111111111,4,2,2,80,0,0
24349,-111.111111111111,4,2,6,80,0,0
24644,-111.111111111111,4,2,2,80,0,0
25826,-111.111111111111,4,2,1,80,0,0
26122,-111.111111111111,4,2,2,70,0,0
26713,-111.111111111111,4,2,3,70,0,0
27008,-111.111111111111,4,2,2,70,0,0
27895,-111.111111111111,4,2,2,70,0,0
28191,-111.111111111111,4,2,2,70,0,0
29077,-111.111111111111,4,2,6,70,0,0
29373,-111.111111111111,4,2,2,70,0,0
30851,-111.111111111111,4,2,1,45,0,0
30998,-111.111111111111,4,2,2,45,0,0
31146,-111.111111111111,4,2,3,45,0,0
31737,-111.111111111111,4,2,4,45,0,0
31885,-111.111111111111,4,2,3,45,0,0
32033,-111.111111111111,4,2,5,45,0,0
32328,-111.111111111111,4,2,6,45,0,0
32476,-111.111111111111,4,2,5,45,0,0
32919,-111.111111111111,4,2,4,45,0,0
33067,-111.111111111111,4,2,3,45,0,0
33215,-111.111111111111,4,2,7,45,0,0
33511,-111.111111111111,4,2,1,45,0,0
33658,-111.111111111111,4,2,3,45,0,0
33954,-111.111111111111,4,2,8,45,0,0
34102,-111.111111111111,4,2,3,45,0,0
34397,-111.111111111111,4,2,4,65,0,0
35284,-111.111111111111,4,2,1,65,0,0
35579,-111.111111111111,4,2,1,60,0,0
36170,-111.111111111111,4,2,3,60,0,0
36466,-111.111111111111,4,2,1,60,0,0
36762,-111.111111111111,4,2,9,60,0,0
36909,-111.111111111111,4,2,3,60,0,0
37057,-111.111111111111,4,2,1,60,0,0
37353,-111.111111111111,4,2,3,60,0,0
37648,-111.111111111111,4,2,9,60,0,0
37944,-111.111111111111,4,2,1,60,0,0
38239,-111.111111111111,4,2,9,60,0,0
38387,-111.111111111111,4,2,1,60,0,0
38535,-111.111111111111,4,2,3,60,0,0
38830,-111.111111111111,4,2,1,60,0,0
39274,-111.111111111111,4,2,3,60,0,0
39422,-111.111111111111,4,2,9,60,0,0
39569,-111.111111111111,4,2,1,60,0,0
39717,-111.111111111111,4,2,3,60,0,0
40013,-111.111111111111,4,2,1,60,0,0
40604,-111.111111111111,4,2,9,60,0,0
40751,-111.111111111111,4,2,1,60,0,0
40899,-111.111111111111,4,2,3,60,0,0
41195,-111.111111111111,4,2,9,60,0,0
41343,-111.111111111111,4,2,3,60,0,0
41490,-111.111111111111,4,2,1,60,0,0
41638,-111.111111111111,4,2,3,60,0,0
41934,-111.111111111111,4,2,1,60,0,0
42081,-111.111111111111,4,2,3,60,0,0
42377,-111.111111111111,4,2,9,60,0,0
42673,-111.111111111111,4,2,1,60,0,0
42968,-111.111111111111,4,2,9,60,0,0
43116,-111.111111111111,4,2,1,60,0,0
43264,-111.111111111111,4,2,3,60,0,0
43559,-111.111111111111,4,2,9,60,0,0
43855,-111.111111111111,4,2,1,60,0,0
44003,-111.111111111111,4,2,3,60,0,0
44150,-111.111111111111,4,2,9,60,0,0
44298,-111.111111111111,4,2,1,60,0,0
44446,-111.111111111111,4,2,3,60,0,0
44741,-111.111111111111,4,2,9,60,0,0
45037,-111.111111111111,4,2,1,60,0,0
45333,-111.111111111111,4,2,9,60,0,0
45480,-111.111111111111,4,2,1,60,0,0
45628,-111.111111111111,4,2,3,60,0,0
45924,-111.111111111111,4,2,9,60,0,0
46367,-111.111111111111,4,2,3,60,0,0
46515,-111.111111111111,4,2,9,60,0,0
46662,-111.111111111111,4,2,1,60,0,0
46810,-111.111111111111,4,2,3,60,0,0
47106,-111.111111111111,4,2,9,60,0,0
47401,-111.111111111111,4,2,1,60,0,0
47697,-111.111111111111,4,2,9,60,0,0
47845,-111.111111111111,4,2,1,60,0,0
47992,-111.111111111111,4,2,3,60,0,0
48288,-111.111111111111,4,2,1,60,0,0
48731,-111.111111111111,4,2,3,60,0,0
48879,-111.111111111111,4,2,9,60,0,0
49027,-111.111111111111,4,2,1,60,0,0
49175,-111.111111111111,4,2,3,60,0,0
49470,-111.111111111111,4,2,9,60,0,0
49766,-111.111111111111,4,2,5,65,0,0
50061,-111.111111111111,4,2,9,65,0,0
50209,-111.111111111111,4,2,1,65,0,0
50357,-111.111111111111,4,2,3,65,0,0
50652,-111.111111111111,4,2,1,65,0,0
50948,-111.111111111111,4,2,9,65,0,0
51096,-111.111111111111,4,2,3,65,0,0
51391,-111.111111111111,4,2,1,65,0,0
51539,-111.111111111111,4,2,3,65,0,0
51835,-111.111111111111,4,2,9,65,0,0
52130,-111.111111111111,4,2,1,65,0,0
52426,-111.111111111111,4,2,9,65,0,0
52573,-111.111111111111,4,2,1,65,0,0
52721,-111.111111111111,4,2,3,65,0,0
53017,-111.111111111111,4,2,1,65,0,0
53312,-111.111111111111,4,2,9,65,0,0
53460,-111.111111111111,4,2,3,65,0,0
53756,-111.111111111111,4,2,1,65,0,0
53903,-111.111111111111,4,2,3,65,0,0
54199,-111.111111111111,4,2,1,65,0,0
54495,-111.111111111111,4,2,2,75,0,0
54642,-111.111111111111,4,2,9,75,0,0
54790,-111.111111111111,4,2,1,75,0,0
54938,-111.111111111111,4,2,9,75,0,0
55086,-111.111111111111,4,2,1,75,0,0
55233,-111.111111111111,4,2,9,75,0,0
55381,-111.111111111111,4,2,2,75,0,0
55529,-111.111111111111,4,2,10,75,0,0
55677,-111.111111111111,4,2,1,75,0,0
55824,-111.111111111111,4,2,9,75,0,0
55972,-111.111111111111,4,2,1,75,0,0
56120,-111.111111111111,4,2,9,75,0,0
56268,-111.111111111111,4,2,1,75,0,0
56416,-111.111111111111,4,2,9,75,0,0
56563,-111.111111111111,4,2,6,75,0,0
56711,-111.111111111111,4,2,9,75,0,0
56859,-111.111111111111,4,2,2,75,0,0
57007,-111.111111111111,4,2,9,75,0,0
57154,-111.111111111111,4,2,1,75,0,0
57302,-111.111111111111,4,2,9,75,0,0
57450,-111.111111111111,4,2,1,75,0,0
57598,-111.111111111111,4,2,9,75,0,0
57746,-111.111111111111,4,2,2,75,0,0
57893,-111.111111111111,4,2,10,75,0,0
58041,-111.111111111111,4,2,1,75,0,0
58189,-111.111111111111,4,2,10,75,0,0
58337,-111.111111111111,4,2,2,75,0,0
58484,-111.111111111111,4,2,9,75,0,0
58632,-111.111111111111,4,2,1,75,0,0
58780,-111.111111111111,4,2,9,75,0,0
58928,-111.111111111111,4,2,2,75,0,0
59371,-111.111111111111,4,2,9,75,0,0
59519,-111.111111111111,4,2,2,75,0,0
59667,-111.111111111111,4,2,9,75,0,0
59814,-111.111111111111,4,2,2,75,0,0
60406,-111.111111111111,4,2,4,75,0,0
60553,-111.111111111111,4,2,10,75,0,0
60701,-111.111111111111,4,2,1,75,0,0
60849,-111.111111111111,4,2,10,75,0,0
60997,-111.111111111111,4,2,3,75,0,0
61292,-111.111111111111,4,2,2,75,0,0
61588,-111.111111111111,4,2,2,70,0,0
61883,-111.111111111111,4,2,10,70,0,0
62031,-111.111111111111,4,2,2,70,0,0
63657,-111.111111111111,4,2,1,70,0,0
64395,-111.111111111111,4,2,8,70,0,0
64839,-111.111111111111,4,2,7,75,0,0
65134,-111.111111111111,4,2,11,80,0,0
65725,-111.111111111111,4,2,1,75,0,0
66316,-111.111111111111,4,2,8,85,0,0
66908,-111.111111111111,4,2,4,85,0,0
70750,-111.111111111111,4,2,3,85,0,0
71045,-111.111111111111,4,2,12,85,0,0
71636,-111.111111111111,4,2,4,85,0,0
75626,-111.111111111111,4,2,1,85,0,0
75774,-111.111111111111,4,2,12,85,0,0
76365,-111.111111111111,4,2,4,85,0,0
77843,-111.111111111111,4,2,3,85,0,0
78138,-111.111111111111,4,2,12,85,0,0
78730,-111.111111111111,4,2,4,85,0,0
80503,-111.111111111111,4,2,12,85,0,0
81094,-111.111111111111,4,2,4,85,0,0
82867,-111.111111111111,4,2,12,85,0,0
83458,-111.111111111111,4,2,4,85,0,0
84641,-111.111111111111,4,2,6,85,0,0
84788,-111.111111111111,4,2,1,85,0,0
85232,-111.111111111111,4,2,1,60,0,0
90705,-111.111111111111,4,2,99,5,0,0

[Colours]
Combo1 : 243,56,84
Combo2 : 255,128,192
Combo3 : 45,139,255

[HitObjects]
28,358,1000,5,0,0:0:0:0:
68,269,1296,2,0,P|150:260|190:302,1,107.999996704102,2|0,0:2|0:0,0:0:0:0:
211,293,1739,2,0,P|185:240|199:183,2,107.999996704102
254,314,2478,1,2,0:2:0:0:
344,278,2774,2,0,P|357:252|345:208,1,53.9999983520508
346,179,3069,2,0,P|432:205|474:183,1,107.999996704102
503,122,3660,6,0,P|445:51|341:49,1,161.999995056153,2|0,0:2|0:0,0:0:0:0:
299,93,4399,1,0,0:0:0:0:
214,44,4695,2,0,L|31:31,1,161.999995056153,2|0,0:2|0:0,0:0:0:0:
19,123,5434,2,0,B|10:191|10:191|35:250,1,107.999996704102,2|0,0:2|0:0,0:0:0:0:
94,296,6025,6,0,L|226:284,1,107.999996704102,2|0,0:2|0:0,0:0:0:0:
241,314,6468,2,0,L|373:326,1,107.999996704102,2|0,0:2|0:0,0:0:0:0:
445,333,7059,1,0,0:0:0:0:
445,333,7207,2,0,P|426:298|437:213,1,107.999996704102,2|0,0:0|0:0,0:0:0:0:
463,197,7650,1,2,0:2:0:0:
463,197,7798,2,0,L|465:137,1,53.9999983520508,2|0,0:2|0:0,0:0:0:0:
470,94,8094,2,0,L|385:97,1,53.9999983520508,2|2,0:2|0:2,0:0:0:0:
367,96,8389,1,0,0:0:0:0:
306,377,11788,5,0,1:0:0:0:
306,377,11936,2,0,L|301:231,1,107.999996704102,4|2,3:2|1:2,0:0:0:0:
334,177,12527,2,0,P|275:175|229:212,1,107.999996704102,2|0,1:2|0:0,0:0:0:0:
217,246,12971,2,0,L|158:235,1,53.9999983520508,2|0,1:2|3:0,0:0:0:0:
116,227,13266,1,2,1:2:0:0:
81,85,13710,2,0,P|139:83|185:120,1,107.999996704102,2|0,1:2|3:0,0:0:0:0:
211,146,14153,1,0,1:0:0:0:
259,143,14301,5,0,3:0:0:0:
308,59,14596,1,2,1:2:0:0:
397,97,14892,2,0,P|403:155|378:209,1,107.999996704102,2|0,1:2|0:0,0:0:0:0:
348,232,15335,1,2,1:2:0:0:
392,318,15631,2,0,L|461:309,2,53.9999983520508,2|2|2,3:2|3:2|3:2,0:0:0:0:
357,351,16074,2,0,L|297:358,1,53.9999983520508,2|10,1:2|0:3,0:0:0:0:
256,342,16370,2,0,L|196:349,1,53.9999983520508,10|6,0:3|0:3,0:0:0:0:
154,358,16665,5,4,3:2:0:0:
116,267,16961,1,2,1:2:0:0:
83,175,17256,2,0,P|197:144|210:153,1,107.999996704102,2|0,1:2|0:0,0:0:0:0:
212,167,17700,2,0,L|213:47,1,107.999996704102,2|2,1:2|1:2,0:0:0:0:
214,10,18143,2,0,L|149:16,1,53.9999983520508,2|2,3:2|0:2,0:0:0:0:
111,19,18439,1,2,1:2:0:0:
18,47,18734,2,0,L|7:123,1,53.9999983520508,0|0,3:0|1:0,0:0:0:0:
2,148,19030,5,2,3:2:0:0:
96,126,19325,1,0,1:0:0:0:
154,204,19621,1,0,1:0:0:0:
154,204,19769,2,0,L|144:272,1,53.9999983520508,2|0,3:2|0:0,0:0:0:0:
138,305,20064,2,0,L|261:294,1,107.999996704102,6|2,1:2|3:2,0:0:0:0:
294,295,20508,1,2,3:2:0:0:
384,260,20803,1,2,3:2:0:0:
384,260,20951,2,0,L|396:195,2,53.9999983520508,2|2|10,1:2|1:2|1:3,0:0:0:0:
410,301,21394,5,6,3:2:0:0:
489,244,21690,1,0,3:0:0:0:
467,149,21985,2,0,P|418:115|359:126,1,107.999996704102,0|0,1:0|3:0,0:0:0:0:
332,147,22429,2,0,L|322:62,1,53.9999983520508,2|0,1:2|3:0,0:0:0:0:
319,45,22724,1,0,1:0:0:0:
319,45,22872,2,0,L|259:53,1,53.9999983520508,2|0,3:2|0:0,0:0:0:0:
217,60,23168,1,2,1:2:0:0:
120,69,23463,2,0,L|132:143,1,53.9999983520508,0|0,3:0|1:0,0:0:0:0:
90,153,23759,6,0,P|135:213|143:266,1,107.999996704102,2|2,3:2|3:2,0:0:0:0:
172,282,24202,1,0,1:0:0:0:
172,282,24350,2,0,L|242:265,1,53.9999983520508,0|2,3:0|0:2,0:0:0:0:
300,208,24793,2,0,L|366:215,1,53.9999983520508,2|0,1:2|0:0,0:0:0:0:
402,215,25089,2,0,P|384:268|401:349,1,107.999996704102,2|0,3:2|0:0,0:0:0:0:
406,364,25532,2,0,P|357:330|298:320,1,107.999996704102,2|10,1:2|0:3,0:0:0:0:
224,365,26123,6,0,B|221:307|221:307|180:257,1,107.999996704102,6|0,3:2|3:0,0:0:0:0:
157,231,26567,1,2,0:2:0:0:
157,231,26714,1,0,3:0:0:0:
68,190,27010,1,0,3:0:0:0:
68,190,27158,2,0,L|67:128,1,53.9999983520508,0|2,1:0|3:2,0:0:0:0:
111,116,27453,2,0,L|120:55,1,53.9999983520508,0|0,1:0|3:0,0:0:0:0:
131,14,27749,1,2,0:2:0:0:
131,14,27897,1,0,1:0:0:0:
217,58,28192,2,0,L|292:45,1,53.9999983520508,0|0,3:0|1:0,0:0:0:0:
303,12,28488,6,0,L|438:22,1,107.999996704102,2|0,3:2|3:0,0:0:0:0:
458,29,28931,1,2,0:2:0:0:
458,29,29079,2,0,L|469:97,1,53.9999983520508,0|2,3:0|0:2,0:0:0:0:
481,178,29522,2,0,P|407:157|355:175,1,107.999996704102,6|2,1:2|0:2,0:0:0:0:
334,184,29966,2,0,P|335:235|347:256,1,53.9999983520508,2|2,3:2|1:2,0:0:0:0:
356,280,30261,1,2,3:2:0:0:
356,280,30409,2,0,P|361:306|357:332,1,53.9999983520508,2|2,3:2|1:2,0:0:0:0:
488,361,35581,6,0,L|468:217,1,107.999996704102,0|0,3:0|0:0,0:0:0:0:
459,206,36025,2,0,P|411:246|340:239,1,107.999996704102,0|0,3:0|0:0,0:0:0:0:
332,215,36468,1,0,3:0:0:0:
213,299,36912,1,2,1:2:0:0:
213,299,37059,2,0,L|198:177,2,107.999996704102,0|0|8,3:0|1:0|0:2,0:0:0:0:
304,331,37946,6,0,B|196:308|236:378|136:367,1,161.999995056153,2|2,3:2|3:2,0:0:0:0:
104,361,38537,1,0,1:0:0:0:
35,291,38833,2,0,P|78:199|62:168,1,107.999996704102,2|0,3:2|0:0,0:0:0:0:
58,156,39276,2,0,P|36:128|63:43,1,107.999996704102,0|0,1:0|3:0,0:0:0:0:
77,23,39719,1,0,1:0:0:0:
173,32,40015,1,0,3:0:0:0:
267,54,40311,6,0,L|283:172,1,107.999996704102,0|10,3:0|0:2,0:0:0:0:
293,208,40754,1,0,3:0:0:0:
293,208,40902,1,2,1:2:0:0:
369,267,41197,2,0,L|384:203,1,53.9999983520508,8|2,0:2|1:2,0:0:0:0:
416,179,41493,2,0,L|401:57,1,107.999996704102,0|2,3:0|0:2,0:0:0:0:
330,6,42084,1,0,1:0:0:0:
259,73,42380,2,0,L|196:65,1,53.9999983520508,8|0,0:2|0:0,0:0:0:0:
157,61,42675,6,0,B|181:118|160:173|160:173|90:168,1,161.999995056153,2|2,3:2|3:2,0:0:0:0:
64,163,43266,1,0,1:0:0:0:
4,240,43562,2,0,P|96:283|127:267,1,107.999996704102,10|0,3:2|3:0,0:0:0:0:
136,260,44005,2,0,P|114:313|141:365,1,107.999996704102,0|0,1:0|3:0,0:0:0:0:
179,367,44448,1,0,1:0:0:0:
275,358,44744,1,10,0:2:0:0:
372,358,45040,6,0,L|378:152,1,161.999995056153,2|2,3:2|3:2,0:0:0:0:
384,148,45631,1,0,1:0:0:0:
312,82,45926,2,0,P|229:105|179:88,1,107.999996704102,10|0,3:2|0:0,0:0:0:0:
163,83,46370,2,0,P|133:83|104:90,1,53.9999983520508,0|8,1:0|0:2,0:0:0:0:
43,159,46813,1,0,1:0:0:0:
47,256,47109,1,8,0:2:0:0:
105,333,47404,6,0,L|311:339,1,161.999995056153,2|2,3:2|3:2,0:0:0:0:
314,346,47995,1,0,1:0:0:0:
399,298,48291,2,0,P|406:239|383:184,1,107.999996704102,2|0,3:2|0:0,0:0:0:0:
377,147,48734,2,0,P|347:147|318:154,1,53.9999983520508,0|8,1:0|0:2,0:0:0:0:
285,182,49030,2,0,P|258:187|231:187,1,53.9999983520508,0|0,3:0|1:2,0:0:0:0:
168,113,49473,1,10,0:2:0:0:
77,149,49769,6,0,L|72:310,1,161.999995056153,6|2,3:2|3:2,0:0:0:0:
70,359,50360,1,0,1:0:0:0:
166,367,50655,2,0,P|216:350|269:357,1,107.999996704102,2|8,3:2|0:2,0:0:0:0:
317,370,51099,2,0,P|379:376|395:372,1,53.9999983520508,0|0,1:0|0:0,0:0:0:0:
415,361,51394,1,2,3:2:0:0:
415,361,51542,1,0,1:0:0:0:
466,278,51838,2,0,L|474:224,1,53.9999983520508,10|0,0:2|0:0,0:0:0:0:
476,176,52133,6,0,L|369:194,1,107.999996704102,2|8,3:2|0:2,0:0:0:0:
330,224,52577,2,0,L|222:221,1,107.999996704102,2|0,3:2|0:0,0:0:0:0:
173,218,53020,1,2,3:2:0:0:
28,234,53463,1,0,1:0:0:0:
28,234,53611,2,0,L|20:305,1,53.9999983520508,0|0,0:0|3:0,0:0:0:0:
48,328,53907,1,0,1:0:0:0:
135,370,54202,1,10,0:3:0:0:
209,307,54498,6,0,P|299:304|402:324,2,161.999995056153,6|8|2,3:2|0:2|3:2,0:0:0:0:
112,316,55680,2,0,P|118:256|113:196,1,107.999996704102,0|0,3:0|3:0,0:0:0:0:
67,196,56123,2,0,P|64:106|69:74,1,107.999996704102,8|8,0:2|0:2,0:0:0:0:
99,52,56567,1,2,3:2:0:0:
186,9,56862,6,0,L|293:23,2,107.999996704102,2|0|0,3:2|3:0|3:0,0:0:0:0:
102,59,57749,1,2,3:2:0:0:
102,59,57897,2,0,L|105:193,1,107.999996704102,10|10,1:2|0:2,0:0:0:0:
110,215,58340,1,2,3:2:0:0:
110,215,58488,2,0,L|169:206,2,53.9999983520508,8|0|8,1:2|3:0|1:2,0:0:0:0:
61,215,58931,1,4,3:3:0:0:
18,302,59227,6,0,B|57:293|57:293|123:309,1,107.999996704102,4|2,3:2|3:2,0:0:0:0:
218,329,59818,2,0,L|219:406,2,53.9999983520508,2|14|0,3:2|0:3|3:0,0:0:0:0:
218,280,60261,1,14,1:3:0:0:
218,280,60409,1,4,3:2:0:0:
311,253,60705,1,0,3:0:0:0:
351,164,61000,2,0,L|277:153,1,53.9999983520508,0|8,3:0|0:3,0:0:0:0:
265,118,61296,2,0,L|191:129,1,53.9999983520508,6|12,3:3|0:3,0:0:0:0:
163,117,61591,6,0,P|130:187|136:244,1,107.999996704102,6|10,3:2|0:2,0:0:0:0:
177,301,62182,2,0,P|254:294|300:260,1,107.999996704102,0|2,1:0|3:2,0:0:0:0:
316,246,62626,2,0,P|316:207|307:185,1,53.9999983520508,0|0,1:0|3:0,0:0:0:0:
296,146,62921,2,0,P|286:117|288:87,1,53.9999983520508,0|2,1:0|3:2,0:0:0:0:
236,10,63365,2,0,P|184:39|124:41,1,107.999996704102,2|10,1:2|0:3,0:0:0:0:
39,47,63956,6,0,L|62:230,2,161.999995056153,0|8|8,3:0|0:2|0:2,0:0:0:0:
125,3,65138,1,10,0:2:0:0:
235,162,65729,2,0,L|216:280,1,107.999996704102,4|0,3:3|0:0,0:0:0:0:
272,348,66320,6,0,P|353:311|408:320,1,107.999996704102,6|2,3:2|3:2,0:0:0:0:
417,323,66764,1,2,3:2:0:0:
417,323,66912,2,0,L|401:197,1,107.999996704102,0|2,1:0|3:2,0:0:0:0:
396,167,67355,2,0,P|430:179|456:178,1,53.9999983520508,0|0,1:0|3:0,0:0:0:0:
491,159,67650,1,0,1:0:0:0:
448,71,67946,1,0,0:0:0:0:
448,71,68094,2,0,L|325:54,1,107.999996704102,0|0,1:0|3:0,0:0:0:0:
292,48,68537,1,0,1:0:0:0:
292,48,68685,6,0,P|324:96|318:155,1,107.999996704102,2|2,3:2|3:2,0:0:0:0:
302,188,69128,1,2,3:2:0:0:
302,188,69276,2,0,L|223:175,1,53.9999983520508,0|2,1:0|0:2,0:0:0:0:
164,129,69719,2,0,L|85:142,1,53.9999983520508,2|0,1:2|3:0,0:0:0:0:
65,156,70015,1,0,1:0:0:0:
65,156,70163,2,0,L|81:213,1,53.9999983520508,2|0,3:2|0:0,0:0:0:0:
95,254,70458,1,2,1:2:0:0:
192,262,70754,2,0,B|183:338,1,53.9999983520508,6|4,2:3|2:3,2:0:0:0:
193,363,71049,6,0,P|217:335|295:340,1,107.999996704102,6|2,3:2|3:2,0:0:0:0:
323,361,71493,1,2,3:2:0:0:
323,361,71641,1,0,1:0:0:0:
419,349,71936,1,2,3:2:0:0:
419,349,72084,2,0,L|424:271,1,53.9999983520508,2|2,1:2|3:2,0:0:0:0:
458,261,72380,2,0,L|463:183,1,53.9999983520508,2|0,1:2|3:0,0:0:0:0:
464,109,72823,2,0,P|408:131|348:132,1,107.999996704102,0|0,1:0|3:0,0:0:0:0:
287,69,73414,5,2,3:2:0:0:
204,120,73710,2,0,L|220:181,1,53.9999983520508,2|2,3:2|0:2,0:0:0:0:
236,217,74005,2,0,P|161:212|117:224,1,107.999996704102,0|2,1:0|3:2,0:0:0:0:
88,246,74448,1,0,1:0:0:0:
88,246,74596,1,0,0:0:0:0:
93,343,74892,1,0,1:0:0:0:
185,370,75187,2,0,P|214:366|242:354,1,53.9999983520508,0|0,3:0|1:0,0:0:0:0:
273,324,75483,2,0,P|298:314|324:310,1,53.9999983520508,0|0,3:0|1:0,0:0:0:0:
370,329,75779,6,0,L|352:188,1,107.999996704102,6|2,3:2|3:2,0:0:0:0:
333,127,76370,2,0,B|285:142|285:142|227:138,1,107.999996704102,0|0,1:0|3:0,0:0:0:0:
179,130,76813,2,0,L|181:76,1,53.9999983520508,2|2,1:2|3:2,0:0:0:0:
186,27,77109,1,0,1:0:0:0:
186,27,77256,2,0,L|265:31,1,53.9999983520508,2|2,3:2|0:2,0:0:0:0:
286,45,77552,2,0,L|392:25,1,107.999996704102,0|4,1:0|0:3,0:0:0:0:
484,55,78143,1,6,3:2:0:0:
510,148,78439,2,0,L|500:201,1,53.9999983520508,2|2,3:2|3:2,0:0:0:0:
488,248,78734,2,0,L|370:267,1,107.999996704102,0|0,1:0|3:0,0:0:0:0:
332,267,79178,6,0,P|355:232|341:153,1,107.999996704102,2|0,1:2|1:0,0:0:0:0:
322,128,79621,2,0,P|295:130|274:147,1,53.9999983520508,2|0,3:2|0:0,0:0:0:0:
242,183,79916,1,2,1:2:0:0:
147,159,80212,1,2,3:2:0:0:
70,218,80508,2,0,P|84:275|57:327,1,107.999996704102,6|2,3:2|3:2,0:0:0:0:
43,361,80951,1,2,3:2:0:0:
43,361,81099,2,0,L|186:349,1,107.999996704102,0|0,1:0|3:0,0:0:0:0:
199,349,81542,1,2,1:2:0:0:
199,349,81690,6,0,L|206:289,2,53.9999983520508,2|0|2,3:2|1:0|3:2,0:0:0:0:
294,369,82281,1,0,1:0:0:0:
439,358,82724,1,2,1:2:0:0:
439,358,82872,2,0,P|416:299|432:237,1,107.999996704102,6|2,3:2|3:2,0:0:0:0:
456,220,83315,1,2,3:2:0:0:
456,220,83463,2,0,L|456:147,1,53.9999983520508,0|2,1:0|0:2,0:0:0:0:
459,117,83759,1,2,3:2:0:0:
459,117,83907,1,0,1:0:0:0:
409,33,84202,6,0,L|290:52,1,107.999996704102,0|0,1:0|0:0,0:0:0:0:
255,65,84646,2,0,L|263:142,1,53.9999983520508,4|8,1:2|0:3,0:0:0:0:
265,167,84941,1,4,0:3:0:0:
175,205,85237,6,0,B|75:217|125:279|36:289,2,161.999995056153,2|0|0,0:2|0:0|0:0,0:0:0:0:
260,252,86419,2,0,P|367:253|408:319,2,161.999995056153,2|0|0,0:2|0:0|0:0,0:0:0:0:
227,343,87601,2,0,L|196:183,2,161.999995056153,2|0|0,0:2|0:0|0:0,0:0:0:0:
256,192,88783,12,0,90705,0:0:0:0:
