osu file format v14

[General]
AudioFilename: audio.mp3
AudioLeadIn: 0
PreviewTime: 852
Countdown: 0
SampleSet: Soft
StackLeniency: 0.2
Mode: 0
LetterboxInBreaks: 0
WidescreenStoryboard: 1

[Editor]
Bookmarks: 66316
DistanceSpacing: 1.3
BeatDivisor: 4
GridSize: 32
TimelineZoom: 1.5

[Metadata]
Title:Innocent Desire
TitleUnicode:Innocent Desire
Artist:Duca
ArtistUnicode:Duca
Creator:[ L u k a s ]
Version:Kowari's Hard
Source:神待ちサナちゃん
Tags:kami machi sana chan opening frill visual novel eroge xenon- xen kowari garden dora- lukas xehn doraemonelf japanese video game
BeatmapID:2243447
BeatmapSetID:1071825

[Difficulty]
HPDrainRate:4.5
CircleSize:4
OverallDifficulty:6.5
ApproachRate:8
SliderMultiplier:1.4
SliderTickRate:1

[Events]
//Background and Video events
0,0,"kowari.jpg",0,0
//Break Periods
2,8442,11038
//Storyboard Layer 0 (Background)
//Storyboard Layer 1 (Fail)
//Storyboard Layer 2 (Pass)
//Storyboard Layer 3 (Foreground)
//Storyboard Layer 4 (Overlay)
//Storyboard Sound Samples

[TimingPoints]
114,295.566502463054,4,2,1,55,1,0
1000,-142.857142857143,4,2,1,55,0,0
1296,-142.857142857143,4,2,1,55,0,0
11788,-100,4,2,1,55,0,0
11935,-100,4,2,1,80,0,0
12157,-100,4,2,1,80,0,0
12231,-100,4,2,2,80,0,0
16221,-100,4,2,1,80,0,0
16664,-100,4,2,2,80,0,0
21245,-100,4,2,1,80,0,0
21393,-100,4,2,2,80,0,0
24349,-100,4,2,6,80,0,0
24644,-100,4,2,2,80,0,0
25826,-100,4,2,1,80,0,0
26122,-100,4,2,2,70,0,0
26713,-100,4,2,3,70,0,0
27008,-100,4,2,2,70,0,0
27895,-100,4,2,2,70,0,0
28191,-100,4,2,2,70,0,0
29077,-100,4,2,6,70,0,0
29373,-100,4,2,2,70,0,0
30851,-200,4,2,1,45,0,0
30998,-200,4,2,2,45,0,0
31146,-200,4,2,3,45,0,0
31737,-200,4,2,4,45,0,0
31885,-200,4,2,3,45,0,0
32033,-200,4,2,5,45,0,0
32328,-200,4,2,6,45,0,0
32476,-200,4,2,5,45,0,0
32919,-200,4,2,4,45,0,0
33067,-200,4,2,3,45,0,0
33215,-200,4,2,7,45,0,0
33511,-200,4,2,1,45,0,0
33658,-200,4,2,3,45,0,0
33954,-200,4,2,8,45,0,0
34102,-200,4,2,3,45,0,0
34397,-200,4,2,4,65,0,0
35284,-200,4,2,1,65,0,0
35579,-125,4,2,1,60,0,0
36170,-125,4,2,3,60,0,0
36466,-125,4,2,1,60,0,0
36762,-125,4,2,9,60,0,0
36909,-125,4,2,3,60,0,0
37057,-125,4,2,1,60,0,0
37353,-125,4,2,3,60,0,0
37648,-125,4,2,9,60,0,0
37944,-125,4,2,1,60,0,0
38239,-125,4,2,9,60,0,0
38387,-125,4,2,1,60,0,0
38535,-125,4,2,3,60,0,0
38830,-125,4,2,1,60,0,0
39274,-125,4,2,3,60,0,0
39422,-125,4,2,9,60,0,0
39569,-125,4,2,1,60,0,0
39717,-125,4,2,3,60,0,0
40013,-125,4,2,1,60,0,0
40604,-125,4,2,9,60,0,0
40751,-125,4,2,1,60,0,0
40899,-125,4,2,3,60,0,0
41195,-125,4,2,9,60,0,0
41343,-125,4,2,3,60,0,0
41490,-125,4,2,1,60,0,0
41638,-125,4,2,3,60,0,0
41934,-125,4,2,1,60,0,0
42081,-125,4,2,3,60,0,0
42377,-125,4,2,9,60,0,0
42673,-125,4,2,1,60,0,0
42968,-125,4,2,9,60,0,0
43116,-125,4,2,1,60,0,0
43264,-125,4,2,3,60,0,0
43559,-125,4,2,9,60,0,0
43855,-125,4,2,1,60,0,0
44003,-125,4,2,3,60,0,0
44150,-125,4,2,9,60,0,0
44298,-125,4,2,1,60,0,0
44446,-125,4,2,3,60,0,0
44741,-125,4,2,9,60,0,0
45037,-125,4,2,1,60,0,0
45333,-125,4,2,9,60,0,0
45480,-125,4,2,1,60,0,0
45628,-125,4,2,3,60,0,0
45924,-125,4,2,9,60,0,0
46367,-125,4,2,3,60,0,0
46515,-125,4,2,9,60,0,0
46662,-125,4,2,1,60,0,0
46810,-125,4,2,3,60,0,0
47106,-125,4,2,9,60,0,0
47401,-125,4,2,1,60,0,0
47697,-125,4,2,9,60,0,0
47845,-125,4,2,1,60,0,0
47992,-125,4,2,3,60,0,0
48288,-125,4,2,1,60,0,0
48731,-125,4,2,3,60,0,0
48879,-125,4,2,9,60,0,0
49027,-125,4,2,1,60,0,0
49175,-125,4,2,3,60,0,0
49470,-125,4,2,9,60,0,0
49766,-125,4,2,5,65,0,0
50061,-125,4,2,9,65,0,0
50209,-125,4,2,1,65,0,0
50357,-125,4,2,3,65,0,0
50652,-125,4,2,1,65,0,0
50948,-125,4,2,9,65,0,0
51096,-125,4,2,3,65,0,0
51391,-125,4,2,1,65,0,0
51539,-125,4,2,3,65,0,0
51835,-125,4,2,9,65,0,0
52130,-125,4,2,1,65,0,0
52426,-125,4,2,9,65,0,0
52573,-125,4,2,1,65,0,0
52721,-125,4,2,3,65,0,0
53017,-125,4,2,1,65,0,0
53312,-125,4,2,9,65,0,0
53460,-125,4,2,3,65,0,0
53756,-125,4,2,1,65,0,0
53903,-125,4,2,3,65,0,0
54199,-125,4,2,1,65,0,0
54495,-100,4,2,2,75,0,0
54642,-100,4,2,9,75,0,0
54790,-100,4,2,1,75,0,0
54938,-100,4,2,9,75,0,0
55086,-100,4,2,1,75,0,0
55233,-100,4,2,9,75,0,0
55381,-100,4,2,2,75,0,0
55529,-100,4,2,10,75,0,0
55677,-100,4,2,1,75,0,0
55824,-100,4,2,9,75,0,0
55972,-100,4,2,1,75,0,0
56120,-100,4,2,9,75,0,0
56268,-100,4,2,1,75,0,0
56416,-100,4,2,9,75,0,0
56563,-100,4,2,6,75,0,0
56711,-100,4,2,9,75,0,0
56859,-100,4,2,2,75,0,0
57007,-100,4,2,9,75,0,0
57154,-100,4,2,1,75,0,0
57302,-100,4,2,9,75,0,0
57450,-100,4,2,1,75,0,0
57598,-100,4,2,9,75,0,0
57746,-100,4,2,2,75,0,0
57893,-100,4,2,10,75,0,0
58041,-100,4,2,1,75,0,0
58189,-100,4,2,10,75,0,0
58337,-100,4,2,2,75,0,0
58484,-100,4,2,9,75,0,0
58632,-100,4,2,1,75,0,0
58780,-100,4,2,9,75,0,0
58928,-100,4,2,2,75,0,0
59371,-100,4,2,9,75,0,0
59519,-100,4,2,2,75,0,0
59667,-100,4,2,9,75,0,0
59814,-100,4,2,2,75,0,0
60406,-100,4,2,4,75,0,0
60553,-100,4,2,10,75,0,0
60701,-100,4,2,1,75,0,0
60849,-100,4,2,10,75,0,0
60997,-100,4,2,3,75,0,0
61292,-100,4,2,2,75,0,0
61588,-100,4,2,2,70,0,0
61883,-100,4,2,10,70,0,0
62031,-100,4,2,2,70,0,0
63657,-100,4,2,1,70,0,0
64395,-100,4,2,8,70,0,0
64839,-100,4,2,7,75,0,0
65134,-100,4,2,11,80,0,0
65725,-200,4,2,1,75,0,0
66316,-100,4,2,8,85,0,0
66908,-100,4,2,4,85,0,0
70750,-100,4,2,3,85,0,0
71045,-100,4,2,12,85,0,0
71636,-100,4,2,4,85,0,0
75626,-100,4,2,1,85,0,0
75774,-100,4,2,12,85,0,0
76365,-100,4,2,4,85,0,0
77843,-100,4,2,3,85,0,0
78138,-100,4,2,12,85,0,0
78730,-100,4,2,4,85,0,0
80503,-100,4,2,12,85,0,0
81094,-100,4,2,4,85,0,0
82867,-100,4,2,12,85,0,0
83458,-100,4,2,4,85,0,0
84641,-100,4,2,6,85,0,0
84788,-100,4,2,1,85,0,0
85232,-200,4,2,1,60,0,0

[Colours]
Combo1 : 243,56,84
Combo2 : 255,197,138
Combo3 : 255,92,64

[HitObjects]
15,345,1000,6,0,L|79:338,1,48.9999985046387,0|0,0:0|0:0,0:0:0:0:
128,286,1296,6,0,P|116:244|156:196,1,97.9999970092774,2|0,0:2|0:0,0:0:0:0:
216,166,1739,2,0,P|298:185|328:192,2,97.9999970092774,0|0|0,0:0|0:0|0:0,0:0:0:0:
179,93,2478,2,0,B|141:111|141:111|82:86,1,97.9999970092774,2|0,0:2|0:0,0:0:0:0:
21,45,2921,2,0,P|3:69|21:145,1,97.9999970092774,0|0,0:0|0:0,0:0:0:0:
77,178,3365,2,0,L|70:229,1,48.9999985046387,0|0,0:0|0:0,0:0:0:0:
125,290,3660,6,0,B|167:287|167:287|182:277|182:277|231:273,1,97.9999970092774,2|0,0:2|0:0,0:0:0:0:
270,212,4104,2,0,P|299:242|367:237,2,97.9999970092774,0|0|0,0:0|0:0|0:0,0:0:0:0:
248,132,4843,6,0,P|221:114|197:111,2,48.9999985046387,2|0|0,0:2|0:0|0:0,0:0:0:0:
309,80,5286,1,0,0:0:0:0:
309,80,5434,2,0,P|351:79|370:78,1,48.9999985046387,2|0,0:2|0:0,0:0:0:0:
419,130,5729,2,0,P|461:131|480:132,1,48.9999985046387,0|0,0:0|0:0,0:0:0:0:
497,203,6025,6,0,P|482:227|461:237,2,48.9999985046387,2|0|0,0:2|0:0|0:0,0:0:0:0:
486,314,6468,2,0,P|458:320|436:312,2,48.9999985046387,2|0|0,0:2|0:0|0:0,0:0:0:0:
399,378,6912,2,0,P|374:362|365:341,2,48.9999985046387,2|0|0,0:2|0:0|0:0,0:0:0:0:
291,361,7355,2,0,P|284:333|292:311,2,48.9999985046387,2|0|0,0:2|0:0|0:0,0:0:0:0:
236,252,7798,6,0,P|193:259|176:261,1,48.9999985046387,2|0,0:2|0:0,0:0:0:0:
99,269,8094,1,2,0:2:0:0:
99,269,8242,1,2,0:2:0:0:
51,347,11788,5,0,1:0:0:0:
54,340,11862,1,0,1:0:0:0:
59,333,11936,2,0,P|100:338|136:346,1,70,4|0,3:2|3:0,0:0:0:0:
186,282,12232,2,0,P|227:308|265:302,1,70,2|0,1:2|3:0,0:0:0:0:
320,350,12527,2,0,P|329:283|340:203,1,140,2|0,1:2|0:0,0:0:0:0:
293,140,12971,1,2,1:2:0:0:
338,211,13118,6,0,P|381:224|413:213,1,70,0|2,3:0|1:2,0:0:0:0:
453,149,13414,1,0,3:0:0:0:
453,149,13562,1,0,0:0:0:0:
444,65,13710,2,0,P|401:37|314:75,1,140,2|0,1:2|3:0,0:0:0:0:
293,140,14153,1,0,1:0:0:0:
271,221,14301,6,0,B|227:189|227:189|134:209,1,140,0|2,3:0|1:2,0:0:0:0:
79,262,14744,1,0,3:0:0:0:
15,206,14892,1,2,1:2:0:0:
15,206,15040,2,0,P|26:150|31:119,1,70,0|0,3:0|0:0,0:0:0:0:
31,53,15335,6,0,P|93:77|162:37,1,140,2|2,1:2|3:2,0:0:0:0:
212,108,15779,2,0,P|275:118|301:121,1,70,2|2,3:2|3:2,0:0:0:0:
360,89,16074,5,2,1:2:0:0:
342,171,16222,1,10,0:3:0:0:
323,253,16370,1,10,0:3:0:0:
301,333,16517,2,0,L|287:369,1,35,6|0,0:3|0:0,0:0:0:0:
292,366,16665,6,0,P|251:345|210:352,1,70,4|0,3:2|3:0,0:0:0:0:
184,273,16961,2,0,P|125:277|94:278,1,70,2|0,1:2|3:0,0:0:0:0:
47,226,17256,1,2,1:2:0:0:
100,161,17404,2,0,P|166:154|192:113,1,105,0|0,3:0|0:0,0:0:0:0:
179,84,17700,6,0,B|234:98|234:98|256:120|256:120|314:131,1,140,2|2,1:2|1:2,0:0:0:0:
382,92,18143,2,0,P|377:54|374:18,1,70,2|2,3:2|0:2,0:0:0:0:
462,148,18439,2,0,P|421:171|417:272,1,140,2|0,1:2|3:0,0:0:0:0:
478,301,18882,1,0,1:0:0:0:
418,360,19030,6,0,B|367:335|367:335|270:368,1,140,2|0,3:2|1:0,0:0:0:0:
219,313,19473,1,0,3:0:0:0:
230,229,19621,1,0,1:0:0:0:
311,207,19769,1,2,3:2:0:0:
311,207,20064,6,0,P|308:138|306:54,1,140,6|2,1:2|3:2,0:0:0:0:
243,10,20508,2,0,P|214:35|166:33,1,70,2|2,3:2|0:2,0:0:0:0:
105,6,20803,1,2,3:2:0:0:
73,81,20951,1,2,1:2:0:0:
70,92,21025,1,0,1:0:0:0:
68,102,21099,2,0,L|18:96,3,35,2|0|10|4,1:2|1:0|1:3|0:3,0:0:0:0:
102,137,21394,5,6,3:2:0:0:
140,211,21542,2,0,P|134:253|130:286,1,70,0|0,1:0|3:0,0:0:0:0:
178,349,21838,1,2,0:2:0:0:
178,349,21985,2,0,P|229:315|255:316,1,70,0|2,1:0|0:2,0:0:0:0:
296,255,22281,1,0,3:0:0:0:
358,321,22429,2,0,P|392:326|426:333,1,70,2|0,1:2|3:2,0:0:0:0:
477,260,22724,6,0,B|510:215|510:215|487:125,1,140,0|0,1:0|0:0,0:0:0:0:
447,60,23168,2,0,P|407:89|370:88,1,70,2|2,1:2|0:2,0:0:0:0:
326,149,23463,2,0,P|268:139|237:133,1,70,0|0,3:0|1:0,0:0:0:0:
245,133,23685,1,0,1:0:0:0:
234,128,23759,6,0,P|195:153|212:248,1,140,2|2,3:2|3:2,0:0:0:0:
128,283,24202,2,0,P|117:339|112:371,1,70,0|0,1:0|3:0,0:0:0:0:
32,334,24498,2,0,P|43:278|48:246,1,70,2|0,0:2|3:0,0:0:0:0:
15,185,24793,6,0,P|27:139|20:115,1,70,2|0,1:2|0:0,0:0:0:0:
116,45,25089,2,0,P|104:91|111:115,1,70,2|0,3:2|3:0,0:0:0:0:
185,149,25384,1,0,0:0:0:0:
249,95,25532,2,0,P|346:106|412:113,1,140,2|10,1:2|0:3,0:0:0:0:
388,110,26123,6,0,B|375:166|375:166|390:194|390:194|372:257,1,140,6|0,3:2|3:0,0:0:0:0:
344,320,26567,1,2,0:2:0:0:
418,359,26714,2,0,P|452:337|498:336,2,70,0|0|0,3:0|0:0|3:0,0:0:0:0:
344,320,27158,6,0,P|292:284|206:309,1,140,0|0,1:0|1:0,0:0:0:0:
164,361,27601,2,0,P|110:354|72:351,1,70,0|2,3:0|0:2,0:0:0:0:
44,284,27897,2,0,B|21:236|21:236|58:143,1,140,0|0,1:0|3:0,0:0:0:0:
20,78,28340,1,0,1:0:0:0:
53,155,28488,6,0,P|101:189|175:155,1,140,2|0,3:2|3:0,0:0:0:0:
196,80,28931,1,2,0:2:0:0:
147,12,29079,2,0,P|110:16|68:19,2,70,0|2|0,3:0|0:2|3:0,0:0:0:0:
196,80,29522,6,0,P|326:70|353:68,1,140,6|2,1:2|0:2,0:0:0:0:
384,137,29966,2,0,P|420:117|457:118,1,70,2|2,3:2|1:2,0:0:0:0:
492,188,30261,5,2,3:2:0:0:
474,269,30409,1,2,1:2:0:0:
459,351,30557,1,2,3:2:0:0:
311,324,30852,6,0,L|269:333,2,35,10|0|8,0:0|0:0|0:0,0:0:0:0:
385,303,31296,1,10,0:0:0:0:
390,166,31739,6,0,L|342:157,1,35,8|8,0:0|0:0,0:0:0:0:
292,203,32035,2,0,P|251:208|221:233,1,70,10|8,0:0|0:0,0:0:0:0:
189,292,32478,1,10,0:0:0:0:
26,367,32921,6,0,L|34:318,1,35,8|8,0:0|0:0,0:0:0:0:
87,276,33217,2,0,P|66:241|59:209,1,70,10|8,0:0|0:0,0:0:0:0:
120,162,33660,1,10,0:0:0:0:
0,112,33956,1,8,0:0:0:0:
0,112,34104,1,10,0:0:0:0:
77,34,34399,6,0,P|73:72|70:110,1,70,4|0,3:2|0:0,0:0:0:0:
70,103,34843,1,0,0:0:0:0:
132,163,34990,5,0,1:0:0:0:
206,144,35138,1,8,0:3:0:0:
280,118,35286,2,0,P|306:136|338:137,1,52.5,4|0,0:3|0:0,0:0:0:0:
353,117,35581,6,0,L|336:251,1,112,0|0,3:0|0:0,0:0:0:0:
390,293,36025,1,0,3:0:0:0:
390,293,36173,2,0,P|426:276|455:275,1,56,2|0,1:2|0:0,0:0:0:0:
333,355,36468,2,0,P|288:321|223:330,1,112,0|8,3:0|0:2,0:0:0:0:
184,376,36912,1,2,1:2:0:0:
184,376,37059,1,0,3:0:0:0:
77,276,37355,6,0,P|104:271|132:265,1,56,0|0,1:0|0:0,0:0:0:0:
186,217,37650,1,8,0:2:0:0:
186,217,37946,2,0,P|165:128|157:86,1,112,2|8,3:2|0:2,0:0:0:0:
94,77,38389,1,2,3:2:0:0:
94,77,38537,2,0,B|83:105|83:105|90:130,1,56,0|0,1:0|0:0,0:0:0:0:
165,112,38833,5,2,3:2:0:0:
165,112,38980,2,0,B|214:103|214:103|231:110|231:110|282:100,1,112,0|0,3:0|1:0,0:0:0:0:
412,146,39572,1,0,3:0:0:0:
412,146,39719,2,0,P|359:155|343:159,1,56,0|0,1:0|0:0,0:0:0:0:
334,225,40015,2,0,P|371:268|358:328,1,112,0|0,3:0|3:0,0:0:0:0:
225,364,40606,6,0,P|230:332|234:305,1,56,10|0,0:2|3:0,0:0:0:0:
190,249,40902,2,0,P|130:257|66:265,1,112,2|8,1:2|0:2,0:0:0:0:
19,220,41345,5,2,1:2:0:0:
19,220,41493,2,0,P|50:182|32:114,1,112,0|2,3:0|0:2,0:0:0:0:
47,50,41936,1,0,3:0:0:0:
47,50,42084,1,0,1:0:0:0:
178,113,42380,6,0,P|209:107|246:100,1,56,8|0,0:2|0:0,0:0:0:0:
290,57,42675,2,0,B|316:92|316:92|291:167,1,112,2|8,3:2|0:2,0:0:0:0:
314,234,43118,1,2,3:2:0:0:
314,234,43266,2,0,P|368:262|379:260,1,56,0|0,1:0|0:0,0:0:0:0:
430,243,43562,6,0,P|386:262|363:336,1,112,10|0,3:2|3:0,0:0:0:0:
407,374,44005,2,0,P|435:371|472:367,2,56,0|8|0,1:0|0:2|3:0,0:0:0:0:
360,318,44448,2,0,P|327:321|290:323,1,56,0|0,1:0|0:0,0:0:0:0:
246,366,44744,2,0,P|211:351|181:355,1,56,10|0,0:2|0:0,0:0:0:0:
138,303,45040,6,0,P|150:209|154:173,1,112,2|8,3:2|0:2,0:0:0:0:
103,137,45483,2,0,P|65:128|31:120,1,56,2|0,3:2|1:0,0:0:0:0:
48,124,45926,6,0,B|132:106|132:106|170:63|123:17,1,168,10|0,3:2|1:0,0:0:0:0:
230,68,46517,2,0,P|280:61|299:58,1,56,8|2,0:2|3:2,0:0:0:0:
344,102,46813,1,0,1:0:0:0:
331,173,46961,1,0,0:0:0:0:
318,244,47109,2,0,P|355:252|396:261,1,56,8|0,0:2|0:0,0:0:0:0:
439,284,47404,6,0,P|408:242|441:181,1,112,2|8,3:2|0:2,0:0:0:0:
384,130,47847,2,0,P|424:115|456:127,1,56,2|0,3:2|1:0,0:0:0:0:
435,117,48291,6,0,B|403:76|358:79|358:79|334:114|274:122,1,168,2|0,3:2|1:0,0:0:0:0:
231,78,48882,1,8,0:2:0:0:
231,78,49030,1,0,3:0:0:0:
167,120,49178,2,0,P|174:185|180:239,1,112,0|10,1:0|0:2,0:0:0:0:
90,347,49769,6,0,B|136:344|136:344|164:353|164:353|223:346,1,112,6|8,3:2|0:2,0:0:0:0:
272,341,50212,1,2,3:2:0:0:
344,331,50360,1,0,1:0:0:0:
344,331,50655,6,0,B|336:278|370:229|370:229|339:261|294:246,1,168,2|0,3:2|1:0,0:0:0:0:
256,208,51247,2,0,P|245:168|251:143,1,56,0|2,0:0|3:2,0:0:0:0:
299,103,51542,1,0,1:0:0:0:
278,33,51690,1,0,0:0:0:0:
205,39,51838,1,10,0:2:0:0:
205,39,52133,6,0,B|139:49|175:78|92:81,1,112,2|8,3:2|0:2,0:0:0:0:
33,100,52577,1,2,3:2:0:0:
9,169,52724,1,0,1:0:0:0:
9,169,53020,6,0,B|-14:239|31:278|31:278|51:238|17:211,1,168,2|0,3:2|1:0,0:0:0:0:
83,177,53611,2,0,P|133:183|165:186,1,56,0|0,0:0|3:0,0:0:0:0:
198,224,53907,5,0,1:0:0:0:
270,216,54054,1,0,3:0:0:0:
342,206,54202,1,10,0:3:0:0:
414,196,54350,5,6,0:3:0:0:
419,208,54424,1,6,2:3:0:0:
423,219,54498,2,0,P|397:289|330:287,1,140,6|0,3:2|3:0,0:0:0:0:
249,302,54941,2,0,P|247:342|248:376,2,70,8|0|8,0:2|3:0|0:2,0:0:0:0:
185,236,55384,1,2,3:2:0:0:
108,285,55532,1,10,0:2:0:0:
39,224,55680,6,0,B|8:182|8:182|59:73,1,140,0|0,3:0|3:0,0:0:0:0:
102,31,56123,1,8,0:2:0:0:
156,103,56271,2,0,P|209:100|239:98,1,70,0|8,3:0|0:2,0:0:0:0:
288,32,56567,2,0,P|318:57|355:59,1,70,2|8,3:2|1:2,0:0:0:0:
434,30,56862,6,0,P|426:125|421:190,1,140,2|0,3:2|3:0,0:0:0:0:
359,234,57306,2,0,P|419:206|479:238,1,140,8|8,0:2|0:2,0:0:0:0:
415,303,57749,1,2,3:2:0:0:
358,373,57897,6,0,B|304:365|304:365|286:350|286:350|212:339,1,140,10|10,1:2|0:2,0:0:0:0:
167,269,58340,1,2,3:2:0:0:
92,319,58488,2,0,B|69:269|69:269|109:182,1,140,8|8,1:2|1:2,0:0:0:0:
151,113,58931,1,4,3:3:0:0:
87,48,59079,5,12,0:3:0:0:
77,43,59153,1,0,3:0:0:0:
65,38,59227,2,0,P|21:68|34:158,1,140,4|2,3:2|3:2,0:0:0:0:
104,191,59670,1,8,0:2:0:0:
189,220,59818,2,0,B|269:209|228:169|322:171,1,140,2|0,3:2|3:0,0:0:0:0:
394,218,60261,5,14,1:3:0:0:
406,213,60335,1,2,1:2:0:0:
419,209,60409,2,0,B|393:162|393:162|432:71,1,140,4|0,3:2|3:0,0:0:0:0:
375,7,60852,2,0,P|339:12|305:17,1,70,10|0,0:2|3:0,0:0:0:0:
226,61,61148,5,8,0:3:0:0:
240,151,61296,1,6,3:3:0:0:
253,241,61444,2,0,L|257:289,1,35,12|0,0:3|0:0,0:0:0:0:
258,275,61591,6,0,P|192:232|130:252,1,140,6|10,3:2|0:2,0:0:0:0:
75,313,62035,1,2,3:2:0:0:
138,248,62182,2,0,P|132:168|128:106,1,140,0|2,1:0|3:2,0:0:0:0:
68,39,62626,1,0,1:0:0:0:
68,39,62921,1,0,1:0:0:0:
128,108,63069,2,0,P|172:118|215:95,1,70,2|0,3:2|3:0,0:0:0:0:
246,34,63365,6,0,P|307:43|337:48,1,70,2|0,1:2|1:0,0:0:0:0:
386,102,63660,2,0,P|447:111|477:116,1,70,10|4,0:3|0:3,0:0:0:0:
498,192,63956,5,0,3:0:0:0:
368,236,64399,5,8,0:2:0:0:
237,275,64843,5,8,0:2:0:0:
233,291,65138,1,10,0:2:0:0:
79,315,65729,6,0,B|83:296|81:267|81:267|89:301|116:344,1,122.5,4|0,3:3|0:0,0:0:0:0:
126,353,66320,6,0,B|179:350|179:350|204:332|204:332|271:326,1,140,6|2,3:2|3:2,0:0:0:0:
331,269,66764,1,2,3:2:0:0:
388,339,66912,2,0,P|443:331|472:327,1,70,0|2,1:0|0:2,0:0:0:0:
499,248,67207,2,0,P|478:211|478:176,1,70,2|0,3:2|1:0,0:0:0:0:
496,94,67503,5,0,3:0:0:0:
406,81,67650,1,0,1:0:0:0:
332,27,67798,2,0,B|299:73|299:73|332:161,1,140,0|0,3:0|1:0,0:0:0:0:
173,246,68389,1,0,3:0:0:0:
173,246,68537,1,0,1:0:0:0:
220,167,68685,6,0,P|199:122|108:123,1,140,2|2,3:2|3:2,0:0:0:0:
38,68,69128,2,0,P|30:118|26:146,1,70,2|0,3:2|1:0,0:0:0:0:
82,210,69424,2,0,P|54:246|51:280,1,70,2|0,0:2|3:0,0:0:0:0:
115,333,69719,6,0,B|200:313|200:313|255:345,1,140,2|0,1:2|1:0,0:0:0:0:
328,301,70163,2,0,P|399:291|420:288,1,70,2|0,3:2|0:0,0:0:0:0:
434,208,70458,2,0,P|404:162|320:167,1,140,2|6,1:2|0:3,0:0:0:0:
267,233,70902,1,4,0:3:0:0:
193,179,71049,6,0,P|205:88|212:18,1,140,6|2,3:2|3:2,0:0:0:0:
294,3,71493,1,2,3:2:0:0:
344,78,71641,2,0,B|428:68|428:68|457:94|444:129,1,140,0|2,1:0|3:2,0:0:0:0:
388,187,72084,1,2,1:2:0:0:
453,249,72232,5,2,3:2:0:0:
440,339,72380,1,0,1:0:0:0:
354,370,72527,2,0,P|319:329|246:338,1,105,2|0,3:2|0:0,0:0:0:0:
233,352,72823,2,0,B|261:266|261:266|231:206,1,140,0|0,1:0|3:0,0:0:0:0:
162,271,73266,1,2,1:2:0:0:
132,184,73414,5,2,3:2:0:0:
132,184,73562,2,0,P|69:135|0:152,1,140,0|2,3:0|0:2,0:0:0:0:
3,234,74005,2,0,P|13:315|20:380,1,140,0|2,1:0|3:2,0:0:0:0:
95,323,74448,1,0,1:0:0:0:
174,368,74596,5,0,0:0:0:0:
174,368,74744,1,0,3:0:0:0:
174,368,74892,2,0,P|234:355|263:348,1,70,0|0,1:0|3:0,0:0:0:0:
312,268,75187,5,0,3:0:0:0:
307,258,75335,5,0,1:0:0:0:
297,258,75483,5,10,0:3:0:0:
293,267,75631,5,4,0:3:0:0:
301,274,75779,6,0,B|304:217|283:177|283:177|316:193|337:193,1,140,6|2,3:2|3:2,0:0:0:0:
403,151,76222,2,0,P|421:113|414:76,1,70,2|0,3:2|1:0,0:0:0:0:
356,18,76517,2,0,P|317:24|280:29,1,70,2|0,0:2|3:0,0:0:0:0:
198,6,76813,1,2,1:2:0:0:
134,71,76961,5,2,3:2:0:0:
134,71,77109,1,0,1:0:0:0:
134,71,77256,2,0,P|155:108|157:148,1,70,2|2,3:2|0:2,0:0:0:0:
93,226,77552,5,0,1:0:0:0:
87,233,77700,5,8,0:3:0:0:
88,242,77847,5,4,0:3:0:0:
96,246,77995,5,6,0:3:0:0:
102,240,78143,6,0,B|133:248|163:215|163:215|206:229|220:273,1,140,6|2,3:2|3:2,0:0:0:0:
198,349,78586,2,0,P|254:342|283:337,1,70,2|0,3:2|1:0,0:0:0:0:
316,262,78882,2,0,P|352:288|400:291,1,70,2|0,0:2|3:0,0:0:0:0:
452,242,79178,1,2,1:2:0:0:
404,164,79325,5,0,3:0:0:0:
404,164,79473,1,0,1:0:0:0:
404,164,79621,2,0,P|408:129|412:84,1,70,2|0,3:2|0:0,0:0:0:0:
344,31,79916,6,0,P|323:69|330:108,1,70,2|0,1:2|0:0,0:0:0:0:
213,151,80212,2,0,P|234:113|227:74,1,70,2|0,3:2|1:0,0:0:0:0:
163,26,80508,6,0,P|95:35|19:44,1,140,6|2,3:2|3:2,0:0:0:0:
16,134,80951,1,2,3:2:0:0:
97,175,81099,2,0,P|139:209|112:293,1,140,0|0,1:0|3:0,0:0:0:0:
49,340,81542,1,2,1:2:0:0:
132,376,81690,6,0,L|208:366,1,70,2|0,3:2|1:0,0:0:0:0:
258,295,81985,2,0,P|233:246|235:220,1,70,2|2,3:2|0:2,0:0:0:0:
292,163,82281,2,0,B|378:194|378:194|439:171,1,140,0|0,1:0|3:0,0:0:0:0:
494,120,82724,1,2,1:2:0:0:
423,176,82872,6,0,P|412:251|403:333,1,140,6|2,3:2|3:2,0:0:0:0:
333,372,83315,2,0,P|302:338|261:326,1,70,2|0,3:2|1:0,0:0:0:0:
239,247,83611,2,0,P|204:252|170:257,1,70,2|2,0:2|3:2,0:0:0:0:
88,214,83907,6,0,P|73:165|130:98,1,140,0|0,1:0|1:0,0:0:0:0:
173,23,84350,1,0,3:0:0:0:
173,23,84498,1,0,0:0:0:0:
234,90,84646,2,0,B|291:88|291:88|316:102|316:102|389:97,1,140,4|4,1:2|0:3,0:0:0:0:
512,86,85237,6,0,P|505:129|501:164,1,70,2|0,0:2|0:0,0:0:0:0:
445,226,85680,2,0,P|396:217|378:194,2,70,0|0|0,0:0|0:0|0:0,0:0:0:0:
314,307,86419,6,0,P|308:270|300:230,1,70,2|0,0:2|0:0,0:0:0:0:
228,184,86862,2,0,P|186:192|166:227,2,70,0|0|0,0:0|0:0|0:0,0:0:0:0:
300,128,87601,6,0,P|301:80|306:11,2,105,2|0|0,0:2|0:0|0:0,0:0:0:0:
372,183,88783,1,2,0:2:0:0:
