osu file format v14

[General]
AudioFilename: audio.mp3
AudioLeadIn: 0
PreviewTime: 852
Countdown: 0
SampleSet: Soft
StackLeniency: 0.7
Mode: 0
LetterboxInBreaks: 0
WidescreenStoryboard: 0

[Editor]
Bookmarks: 66316
DistanceSpacing: 2.3
BeatDivisor: 4
GridSize: 4
TimelineZoom: 1.8

[Metadata]
Title:Innocent Desire
TitleUnicode:Innocent Desire
Artist:Duca
ArtistUnicode:Duca
Creator:[ L u k a s ]
Version:Garden's Extra
Source:神待ちサナちゃん
Tags:kami machi sana chan opening frill visual novel eroge xenon- xen kowari garden dora- lukas xehn doraemonelf japanese video game
BeatmapID:2243445
BeatmapSetID:1071825

[Difficulty]
HPDrainRate:6
CircleSize:4
OverallDifficulty:8
ApproachRate:9.3
SliderMultiplier:1.6
SliderTickRate:1

[Events]
//Background and Video events
0,0,"garden.jpg",0,0
//Break Periods
2,8442,11234
2,30904,33845
//Storyboard Layer 0 (Background)
//Storyboard Layer 1 (Fail)
//Storyboard Layer 2 (Pass)
//Storyboard Layer 3 (Foreground)
//Storyboard Layer 4 (Overlay)
//Storyboard Sound Samples

[TimingPoints]
114,295.566502463054,4,2,1,55,1,0
1000,-133.333333333333,4,2,1,55,0,0
1221,-133.333333333333,4,2,99,5,0,0
1296,-111.111111111111,4,2,1,55,0,0
11935,-100,4,2,1,80,0,0
12231,-100,4,2,2,80,0,0
16221,-100,4,2,1,80,0,0
16664,-100,4,2,2,80,0,0
21245,-100,4,2,1,80,0,0
21393,-100,4,2,2,80,0,0
24348,-100,4,2,6,80,0,0
24643,-100,4,2,2,80,0,0
25826,-100,4,2,1,80,0,0
26122,-100,4,2,2,70,0,0
26343,-100,4,2,99,5,0,0
26417,-100,4,2,2,70,0,0
26713,-100,4,2,3,70,0,0
26934,-100,4,2,99,5,0,0
27008,-100,4,2,2,70,0,0
27821,-100,4,2,99,5,0,0
27895,-100,4,2,2,70,0,0
28191,-100,4,2,2,70,0,0
29077,-100,4,2,6,70,0,0
29373,-100,4,2,2,70,0,0
34397,-100,4,2,4,65,0,0
35284,-100,4,2,1,65,0,0
35579,-111.111111111111,4,2,1,60,0,0
36170,-111.111111111111,4,2,3,60,0,0
36466,-111.111111111111,4,2,1,60,0,0
36761,-111.111111111111,4,2,9,60,0,0
36909,-111.111111111111,4,2,3,60,0,0
37056,-111.111111111111,4,2,1,60,0,0
37353,-111.111111111111,4,2,3,60,0,0
37648,-111.111111111111,4,2,9,60,0,0
37944,-111.111111111111,4,2,1,60,0,0
38239,-111.111111111111,4,2,9,60,0,0
38387,-111.111111111111,4,2,1,60,0,0
38534,-111.111111111111,4,2,3,60,0,0
38830,-111.111111111111,4,2,1,60,0,0
39273,-111.111111111111,4,2,3,60,0,0
39569,-111.111111111111,4,2,1,60,0,0
39717,-111.111111111111,4,2,3,60,0,0
39938,-111.111111111111,4,2,99,5,0,0
40013,-111.111111111111,4,2,1,60,0,0
40603,-111.111111111111,4,2,9,60,0,0
40751,-111.111111111111,4,2,1,60,0,0
40898,-111.111111111111,4,2,3,60,0,0
41195,-111.111111111111,4,2,9,60,0,0
41490,-111.111111111111,4,2,1,60,0,0
41638,-111.111111111111,4,2,3,60,0,0
41934,-111.111111111111,4,2,1,60,0,0
42081,-111.111111111111,4,2,3,60,0,0
42377,-111.111111111111,4,2,9,60,0,0
42673,-111.111111111111,4,2,1,60,0,0
42968,-111.111111111111,4,2,9,60,0,0
43116,-111.111111111111,4,2,1,60,0,0
43263,-111.111111111111,4,2,3,60,0,0
43559,-111.111111111111,4,2,9,60,0,0
43854,-111.111111111111,4,2,1,60,0,0
44003,-111.111111111111,4,2,3,60,0,0
44150,-111.111111111111,4,2,9,60,0,0
44298,-111.111111111111,4,2,1,60,0,0
44446,-111.111111111111,4,2,3,60,0,0
44741,-111.111111111111,4,2,9,60,0,0
45037,-111.111111111111,4,2,1,60,0,0
45332,-111.111111111111,4,2,9,60,0,0
45480,-111.111111111111,4,2,1,60,0,0
45627,-111.111111111111,4,2,3,60,0,0
45924,-111.111111111111,4,2,9,60,0,0
46367,-111.111111111111,4,2,3,60,0,0
46514,-111.111111111111,4,2,9,60,0,0
46662,-111.111111111111,4,2,1,60,0,0
46809,-111.111111111111,4,2,3,60,0,0
47106,-111.111111111111,4,2,9,60,0,0
47401,-111.111111111111,4,2,1,60,0,0
47696,-111.111111111111,4,2,9,60,0,0
47845,-111.111111111111,4,2,1,60,0,0
48731,-111.111111111111,4,2,3,60,0,0
48878,-111.111111111111,4,2,9,60,0,0
49027,-111.111111111111,4,2,1,60,0,0
49175,-111.111111111111,4,2,3,60,0,0
49470,-111.111111111111,4,2,9,60,0,0
49766,-111.111111111111,4,2,5,65,0,0
50061,-111.111111111111,4,2,9,65,0,0
50209,-111.111111111111,4,2,1,65,0,0
50356,-111.111111111111,4,2,3,65,0,0
50652,-111.111111111111,4,2,1,65,0,0
50947,-111.111111111111,4,2,9,65,0,0
51096,-111.111111111111,4,2,3,65,0,0
51391,-111.111111111111,4,2,1,65,0,0
51538,-111.111111111111,4,2,3,65,0,0
51835,-111.111111111111,4,2,9,65,0,0
52130,-111.111111111111,4,2,1,65,0,0
52425,-111.111111111111,4,2,9,65,0,0
52573,-111.111111111111,4,2,1,65,0,0
53312,-111.111111111111,4,2,9,65,0,0
53460,-111.111111111111,4,2,3,65,0,0
53756,-111.111111111111,4,2,1,65,0,0
53903,-111.111111111111,4,2,3,65,0,0
54199,-111.111111111111,4,2,1,65,0,0
54495,-100,4,2,2,75,0,0
54938,-100,4,2,9,75,0,0
55086,-100,4,2,1,75,0,0
55233,-100,4,2,9,75,0,0
55381,-100,4,2,2,75,0,0
55528,-100,4,2,10,75,0,0
55677,-100,4,2,1,75,0,0
56120,-100,4,2,9,75,0,0
56268,-100,4,2,1,75,0,0
56415,-100,4,2,9,75,0,0
56563,-100,4,2,6,75,0,0
56710,-100,4,2,9,75,0,0
56859,-100,4,2,2,75,0,0
57598,-100,4,2,9,75,0,0
57745,-100,4,2,2,75,0,0
57893,-100,4,2,10,75,0,0
58337,-100,4,2,2,75,0,0
58484,-100,4,2,9,75,0,0
58928,-100,4,2,2,75,0,0
59667,-100,4,2,9,75,0,0
59814,-100,4,2,2,75,0,0
60406,-100,4,2,4,75,0,0
60553,-100,4,2,10,75,0,0
60701,-100,4,2,1,75,0,0
60848,-100,4,2,10,75,0,0
60997,-100,4,2,3,75,0,0
61292,-100,4,2,2,75,0,0
61588,-100,4,2,2,70,0,0
61883,-100,4,2,10,70,0,0
62031,-100,4,2,2,70,0,0
63361,-66.6666666666667,4,2,2,70,0,0
63656,-66.6666666666667,4,2,1,70,0,0
63952,-100,4,2,1,70,0,0
64395,-100,4,2,8,70,0,0
64839,-100,4,2,7,75,0,0
65134,-100,4,2,11,80,0,0
65725,-100,4,2,1,75,0,0
66316,-66.6666666666667,4,2,8,85,0,0
66908,-66.6666666666667,4,2,4,85,0,0
68090,-83.3333333333333,4,2,4,85,0,0
68681,-66.6666666666667,4,2,4,85,0,0
69272,-52.6315789473684,4,2,4,85,0,0
69715,-83.3333333333333,4,2,4,85,0,0
70011,-66.6666666666667,4,2,4,85,0,0
70750,-66.6666666666667,4,2,3,85,0,0
71045,-66.6666666666667,4,2,12,85,0,0
71489,-83.3333333333333,4,2,12,85,0,0
71636,-83.3333333333333,4,2,4,85,0,0
72227,-66.6666666666667,4,2,4,85,0,0
72671,-83.3333333333333,4,2,4,85,0,0
73410,-66.6666666666667,4,2,4,85,0,0
74444,-83.3333333333333,4,2,4,85,0,0
74887,-111.111111111111,4,2,4,85,0,0
75626,-111.111111111111,4,2,1,85,0,0
75774,-66.6666666666667,4,2,12,85,0,0
76365,-66.6666666666667,4,2,4,85,0,0
77252,-83.3333333333333,4,2,4,85,0,0
77843,-83.3333333333333,4,2,3,85,0,0
78138,-66.6666666666667,4,2,12,85,0,0
78730,-83.3333333333333,4,2,4,85,0,0
79321,-66.6666666666667,4,2,4,85,0,0
79912,-100,4,2,4,85,0,0
80503,-66.6666666666667,4,2,12,85,0,0
80946,-83.3333333333333,4,2,12,85,0,0
81093,-83.3333333333333,4,2,4,85,0,0
81685,-66.6666666666667,4,2,4,85,0,0
82128,-83.3333333333333,4,2,4,85,0,0
82867,-66.6666666666667,4,2,12,85,0,0
83311,-83.3333333333333,4,2,12,85,0,0
83458,-83.3333333333333,4,2,4,85,0,0
83902,-50,4,2,4,85,0,0
84345,-66.6666666666667,4,2,4,85,0,0
84418,-66.6666666666667,4,2,99,5,0,0
84493,-66.6666666666667,4,2,4,85,0,0
84566,-66.6666666666667,4,2,99,5,0,0
84641,-1000,4,2,6,85,0,0
84936,-1000,4,2,1,85,0,0
85232,-1000,4,2,1,60,0,0
86266,-100,4,2,1,60,0,0
86339,-100,4,2,99,5,0,0
86414,-100,4,2,1,60,0,0
87521,-100,4,2,99,5,0,0
87596,-100,4,2,1,60,0,0
88778,-151.515151515152,4,2,1,60,0,0
88857,-151.515151515152,4,2,99,5,0,0

[Colours]
Combo1 : 243,56,84
Combo2 : 255,128,192
Combo3 : 45,139,255

[HitObjects]
59,318,1000,6,0,L|69:228,1,90.0000034332277,0|0,2:0|2:0,2:0:0:0:
41,244,1296,6,0,B|128:233|92:295|176:281,1,143.999995605469,2|0,2:0|2:0,2:0:0:0:
348,322,1739,2,0,P|333:266|252:276,1,143.999995605469,2|0,2:0|2:0,2:0:0:0:
157,368,2182,2,0,P|198:364|229:349,1,71.9999978027344,2|0,2:0|2:0,2:0:0:0:
263,124,2478,6,0,L|257:275,1,143.999995605469,2|0,2:0|2:0,2:0:0:0:
257,267,2921,1,0,2:0:0:0:
348,322,3069,2,0,L|350:245,1,71.9999978027344,2|0,2:0|2:0,2:0:0:0:
173,146,3365,2,0,L|168:221,1,71.9999978027344,2|0,2:0|2:0,2:0:0:0:
415,190,3660,6,0,P|351:162|285:187,1,143.999995605469,2|0,2:0|2:0,2:0:0:0:
112,77,4104,2,0,P|176:104|242:80,1,143.999995605469,2|0,2:0|2:0,2:0:0:0:
345,0,4547,2,0,L|339:71,1,71.9999978027344,2|0,2:0|2:0,2:0:0:0:
460,313,4843,5,2,2:0:0:0:
481,235,4990,1,0,2:0:0:0:
415,190,5138,1,0,2:0:0:0:
395,267,5286,1,0,2:0:0:0:
470,240,5434,5,2,2:0:0:0:
431,230,5581,1,0,2:0:0:0:
408,263,5729,1,0,2:0:0:0:
447,273,5877,1,0,2:0:0:0:
268,336,6025,5,2,2:0:0:0:
285,325,6173,2,0,L|378:344,1,71.9999978027344
182,221,6468,5,2,2:0:0:0:
199,210,6616,2,0,L|292:229,1,71.9999978027344
87,369,6912,5,2,2:0:0:0:
104,358,7059,2,0,L|197:377,1,71.9999978027344
0,241,7355,5,2,2:0:0:0:
82,187,7503,2,0,L|97:277,1,71.9999978027344
258,108,7798,5,2,2:0:0:0:
176,54,7946,2,0,L|161:144,1,71.9999978027344
0,0,8242,5,2,2:0:0:0:
445,221,11788,5,0,1:0:0:0:
445,221,11862,1,0,1:0:0:0:
445,221,11936,2,0,L|452:116,1,80,4|0,3:2|3:0,2:0:0:0:
352,48,12232,2,0,L|346:127,1,80,2|0,1:2|3:0,2:0:0:0:
493,300,12527,2,0,B|478:266|459:248|459:248|349:283,1,160,2|0,1:2|2:0,2:0:0:0:
228,344,12971,6,0,B|323:318|293:397|390:368,1,160,2|2,1:2|1:2,2:0:0:0:
252,178,13414,2,0,P|231:212|242:257,1,80,0|0,3:0|2:0,2:0:0:0:
141,384,13710,2,0,P|137:306|114:216,1,160,2|0,1:2|3:0,2:0:0:0:
221,111,14153,5,0,1:0:0:0:
221,111,14227,1,0,1:0:0:0:
221,111,14301,2,0,P|249:139|249:186,1,80,0|0,3:0|2:0,2:0:0:0:
15,147,14596,2,0,L|98:130,1,80,2|0,1:2|3:0,2:0:0:0:
276,41,14892,2,0,B|230:79|230:79|173:69|140:36,1,160,2|0,1:2|2:0,2:0:0:0:
251,177,15335,6,0,P|328:155|406:142,1,160,2|2,1:2|3:2,2:0:0:0:
502,13,15779,2,0,P|510:51|496:88,1,80,2|2,3:2|3:2,2:0:0:0:
332,197,16074,1,2,1:2:0:0:
407,44,16222,1,10,2:3:0:0:
323,216,16370,1,10,2:3:0:0:
504,163,16517,5,6,1:3:0:0:
504,163,16591,1,0,1:0:0:0:
504,163,16665,2,0,P|510:117|488:78,1,80,4|0,3:2|3:0,2:0:0:0:
388,292,16961,2,0,B|338:320|338:320|236:304,1,160,2|2,1:2|1:2,2:0:0:0:
236,304,17552,5,0,2:0:0:0:
323,216,17700,2,0,L|316:378,2,160,2|2|2,1:2|1:2|2:0,2:0:0:0:
406,368,18439,1,2,1:2:0:0:
161,320,18586,2,0,P|194:300|234:303,1,80,2|0,2:0|3:0,2:0:0:0:
397,228,18882,5,0,1:0:0:0:
397,228,18956,1,0,1:0:0:0:
397,228,19030,2,0,P|355:233|313:204,1,80,2|0,3:2|2:0,2:0:0:0:
144,0,19325,1,0,1:0:0:0:
204,180,19473,1,0,3:0:0:0:
84,119,19621,1,0,1:0:0:0:
257,63,19769,1,2,3:2:0:0:
257,63,20064,6,0,B|247:124|247:124|216:152|216:152|204:212,1,160,6|2,1:2|3:2,2:0:0:0:
401,229,20508,2,0,L|322:215,1,80,2|2,3:2|2:0,2:0:0:0:
122,271,20803,1,2,3:2:0:0:
191,355,20951,5,2,1:2:0:0:
191,355,21025,1,0,1:0:0:0:
191,355,21099,1,2,1:2:0:0:
216,323,21173,1,0,1:0:0:0:
226,284,21247,1,10,1:3:0:0:
224,243,21320,1,4,2:3:0:0:
204,207,21394,1,6,3:2:0:0:
330,302,21542,6,0,B|394:324|394:324|452:317|489:268,1,160,0|2,1:0|2:0,2:0:0:0:
502,11,21985,2,0,P|470:22|416:36,1,80,0|2,1:0|2:0,2:0:0:0:
436,125,22281,2,0,P|476:112|512:101,1,80,0|2,3:0|1:2,2:0:0:0:
149,60,22577,5,0,3:0:0:0:
212,150,22724,2,0,B|246:114|256:59|256:59|234:6,1,160,0|0,1:0|2:0,2:0:0:0:
512,101,23168,2,0,P|474:112|436:125,1,80,2|2,1:2|2:0,2:0:0:0:
425,33,23463,2,0,P|464:23|502:11,1,80,0|0,3:0|1:0,2:0:0:0:
501,11,23685,5,0,1:0:0:0:
501,11,23759,1,2,3:2:0:0:
174,246,24054,1,2,3:2:0:0:
44,346,24202,2,0,L|49:295,2,40,0|0|0,1:0|1:0|3:0,2:0:0:0:
174,246,24498,2,0,L|179:165,1,80,2|0,2:0|3:0,2:0:0:0:
22,223,24793,6,0,B|108:199|92:278|195:240,1,160,6|2,1:2|3:2,2:0:0:0:
250,112,25237,2,0,P|217:80|178:76,1,80,0|0,3:0|2:0,2:0:0:0:
174,246,25532,1,2,1:2:0:0:
250,112,25680,1,0,1:0:0:0:
109,135,25828,2,0,P|138:161|177:166,1,80,10|4,2:3|2:3,2:0:0:0:
442,39,26123,6,0,L|314:54,1,120,6|0,3:2|2:0,2:0:0:0:
331,132,26419,2,0,L|322:52,1,80,0|2,3:0|2:0,2:0:0:0:
512,194,26714,6,0,L|392:207,1,120,0|0,3:0|2:0,2:0:0:0:
503,114,27010,2,0,L|511:193,1,80,0|0,3:0|1:0,2:0:0:0:
352,309,27306,5,2,3:2:0:0:
512,194,27453,1,0,1:0:0:0:
352,309,27601,2,0,L|467:291,1,120,0|0,3:0|2:0,2:0:0:0:
477,371,27897,2,0,L|468:291,1,80,0|0,1:0|2:0,2:0:0:0:
352,309,28192,1,0,3:0:0:0:
512,194,28340,1,0,1:0:0:0:
361,42,28488,6,0,P|340:117|380:185,1,160,2|0,3:2|3:0,2:0:0:0:
379,184,28931,1,2,2:0:0:0:
328,383,29079,2,0,P|348:344|348:285,1,80,0|2,3:0|2:0,2:0:0:0:
261,226,29375,1,0,3:0:0:0:
102,240,29522,6,0,L|292:224,1,160,6|2,1:2|2:0,2:0:0:0:
379,184,29966,1,2,3:2:0:0:
247,347,30113,1,2,1:2:0:0:
379,184,30261,2,0,P|382:146|353:85,1,80,2|2,3:2|1:2,2:0:0:0:
247,347,30557,2,0,L|168:354,1,80,2|2,3:2|2:0,2:0:0:0:
0,193,34399,5,4,3:2:0:0:
9,197,34695,5,0,2:0:0:0:
24,200,34843,1,0,2:0:0:0:
54,195,34990,5,0,1:0:0:0:
111,143,35138,1,8,2:3:0:0:
92,40,35286,1,4,2:3:0:0:
92,40,35581,6,0,P|157:63|251:45,1,143.999995605469,0|0,3:0|2:0,2:0:0:0:
339,11,36025,2,0,L|331:100,1,71.9999978027344,0|2,3:0|1:2,2:0:0:0:
349,0,36468,6,0,L|337:164,1,143.999995605469,0|8,3:0|2:0,2:0:0:0:
433,218,36912,2,0,P|474:208|498:180,1,71.9999978027344,2|0,1:2|3:0,2:0:0:0:
512,195,37355,6,0,P|426:236|363:224,1,143.999995605469,0|8,1:0|2:0,2:0:0:0:
237,367,37798,1,0,2:0:0:0:
237,367,37872,1,0,2:0:0:0:
237,367,37946,2,0,P|298:330|369:330,1,143.999995605469,2|8,3:2|2:0,2:0:0:0:
455,242,38389,2,0,L|471:313,1,71.9999978027344,2|0,3:2|1:0,2:0:0:0:
444,232,38833,5,2,3:2:0:0:
369,330,38980,2,0,P|307:366|236:366,2,143.999995605469,0|0|0,3:0|1:0|3:0,2:0:0:0:
348,118,39719,2,0,L|332:225,1,107.999996704102,0|0,1:0|2:0,2:0:0:0:
310,234,40015,2,0,P|281:218|236:215,1,71.9999978027344,0|0,3:0|2:0,2:0:0:0:
31,298,40311,6,0,L|174:285,1,143.999995605469,0|10,3:0|2:0,2:0:0:0:
133,110,40754,2,0,L|137:187,1,71.9999978027344,0|2,3:0|1:2,2:0:0:0:
148,189,41197,6,0,L|139:32,1,143.999995605469,8|0,2:0|3:0,2:0:0:0:
313,206,41641,2,0,L|242:214,1,71.9999978027344,0|2,1:0|2:0,2:0:0:0:
251,198,41936,2,0,L|323:190,1,71.9999978027344,0|0,3:0|1:0,2:0:0:0:
330,175,42380,5,8,2:0:0:0:
338,161,42527,1,0,2:0:0:0:
345,146,42675,2,0,P|418:181|502:156,1,143.999995605469,2|8,3:2|2:0,2:0:0:0:
366,53,43118,2,0,L|271:66,1,71.9999978027344,2|0,3:2|1:0,2:0:0:0:
281,54,43562,6,0,P|212:86|137:75,1,143.999995605469,10|0,3:2|3:0,2:0:0:0:
0,24,44005,2,0,L|92:12,1,71.9999978027344,0|8,1:0|2:0,2:0:0:0:
117,173,44301,1,0,3:0:0:0:
117,173,44448,2,0,L|36:183,1,71.9999978027344,0|0,1:0|2:0,2:0:0:0:
146,78,44744,1,10,2:0:0:0:
9,286,45040,6,0,L|167:264,1,143.999995605469,2|8,3:2|2:0,2:0:0:0:
276,249,45483,2,0,P|278:285|261:325,1,71.9999978027344,2|0,3:2|1:0,2:0:0:0:
250,322,45926,6,0,P|266:264|205:177,1,143.999995605469,10|0,3:2|2:0,2:0:0:0:
45,182,46370,2,0,L|117:173,1,71.9999978027344,0|8,1:0|2:0,2:0:0:0:
128,159,46665,2,0,L|49:169,1,71.9999978027344,2|0,3:2|1:0,2:0:0:0:
71,155,47109,5,8,2:0:0:0:
62,145,47256,1,0,2:0:0:0:
54,135,47404,2,0,P|132:135|193:81,1,143.999995605469,2|8,3:2|2:0,2:0:0:0:
333,22,47847,2,0,B|287:23|252:33|252:33|223:14|198:4,1,143.999995605469,2|0,3:2|2:0,2:0:0:0:
97,39,48291,1,2,3:2:0:0:
287,192,48586,5,0,2:0:0:0:
287,192,48734,2,0,P|294:156|301:121,1,71.9999978027344,0|8,1:0|2:0,2:0:0:0:
403,108,49030,1,0,3:0:0:0:
403,108,49178,2,0,P|394:143|387:178,1,71.9999978027344,0|0,1:0|2:0,2:0:0:0:
301,121,49473,1,10,2:0:0:0:
477,228,49769,6,0,P|407:219|351:261,1,143.999995605469,6|8,3:2|2:0,2:0:0:0:
277,384,50212,2,0,P|272:352|263:313,1,71.9999978027344,2|0,3:2|1:0,2:0:0:0:
250,323,50655,6,0,P|259:251|267:173,1,143.999995605469,2|8,3:2|2:0,2:0:0:0:
410,109,51099,2,0,L|328:102,1,71.9999978027344,0|0,1:0|2:0,2:0:0:0:
330,90,51394,2,0,L|401:96,1,71.9999978027344,2|0,3:2|1:0,2:0:0:0:
410,109,51838,5,10,2:0:0:0:
401,96,51985,1,0,2:0:0:0:
394,82,52133,2,0,L|251:97,1,143.999995605469,2|8,3:2|2:0,2:0:0:0:
70,84,52577,2,0,P|104:25|173:24,1,143.999995605469,2|0,3:2|2:0,2:0:0:0:
175,164,53020,2,0,P|164:250|157:326,1,143.999995605469,2|8,3:2|2:0,2:0:0:0:
250,363,53463,6,0,P|288:362|326:330,1,71.9999978027344,0|0,1:0|2:0,2:0:0:0:
59,259,53759,1,0,3:0:0:0:
59,259,53907,2,0,P|52:308|50:347,1,71.9999978027344,0|0,1:0|3:2,2:0:0:0:
175,164,54202,2,0,P|160:140|109:124,1,71.9999978027344,10|6,2:3|2:3,2:0:0:0:
83,112,54424,5,4,2:3:0:0:
83,112,54498,2,0,P|161:97|248:80,1,160,6|0,3:2|3:0,2:0:0:0:
450,161,54941,1,8,2:0:0:0:
345,17,55089,2,0,P|356:61|364:105,1,80,0|8,3:0|2:0,2:0:0:0:
456,227,55384,2,0,P|458:202|468:138,1,80,2|10,3:2|2:0,2:0:0:0:
374,320,55680,6,0,B|337:285|337:285|286:279|232:323,1,160,0|0,3:0|3:0,2:0:0:0:
124,177,56123,1,8,2:0:0:0:
42,302,56271,2,0,P|85:292|133:284,1,80,0|8,3:0|2:0,2:0:0:0:
297,117,56567,2,0,P|259:124|200:135,1,80,2|8,3:2|1:2,2:0:0:0:
202,384,56862,6,0,P|218:305|244:230,2,160,2|0|0,3:2|3:0|3:0,2:0:0:0:
120,285,57601,2,0,P|111:244|99:199,1,80,8|2,2:0|3:2,2:0:0:0:
0,37,57897,6,0,B|32:59|70:66|70:66|103:41|151:41,1,160,10|10,1:2|2:0,2:0:0:0:
148,41,58340,1,2,3:2:0:0:
218,132,58488,2,0,P|296:131|357:81,1,160,8|8,1:2|1:2,2:0:0:0:
506,252,58931,1,4,3:0:0:0:
303,174,59079,1,12,2:3:0:0:
432,14,59227,6,0,B|457:72|457:72|423:188,1,160,4|2,3:2|3:2,2:0:0:0:
313,253,59670,1,8,2:0:0:0:
313,253,59818,2,0,L|302:170,1,80,2|14,3:2|2:3,2:0:0:0:
102,381,60113,1,0,3:0:0:0:
199,237,60261,5,14,1:3:0:0:
199,237,60335,1,0,1:2:0:0:
199,237,60409,2,0,L|209:328,1,80,4|10,3:2|2:0,2:0:0:0:
302,173,60705,2,0,L|290:82,1,80,0|10,3:0|2:0,2:0:0:0:
97,195,61000,1,0,3:0:0:0:
407,207,61148,1,8,2:3:0:0:
199,237,61296,1,6,3:0:0:0:
302,173,61444,1,12,2:3:0:0:
198,121,61591,6,0,P|208:182|224:306,1,160,6|10,3:2|2:0,2:0:0:0:
221,279,62035,1,2,3:2:0:0:
139,46,62182,2,0,P|205:89|286:73,1,160,0|2,1:0|3:2,2:0:0:0:
281,75,62626,6,0,P|215:32|138:45,1,160,0|0,1:0|1:0,2:0:0:0:
29,213,63069,2,0,L|108:191,1,80,2|0,3:2|3:0,2:0:0:0:
139,45,63365,2,0,B|164:134|164:134|131:183|131:183|157:267,1,240.000009155274,2|10,1:2|2:3,2:0:0:0:
270,290,63808,5,4,2:3:0:0:
270,290,63882,1,0,2:0:0:0:
270,290,63956,2,0,L|348:269,1,80,0|0,3:0|2:0,2:0:0:0:
358,275,64399,1,8,2:0:0:0:
368,281,64843,1,8,2:0:0:0:
470,14,65138,5,10,2:0:0:0:
399,86,65729,2,0,P|434:124|469:14,1,240,4|0,3:0|2:0,2:0:0:0:
237,164,66320,6,0,B|376:125|327:230|458:215,1,240.000009155274,6|2,3:2|3:2,2:0:0:0:
288,260,66764,1,2,3:2:0:0:
344,340,66912,2,0,P|314:251|313:101,1,240.000009155274,0|2,1:0|3:2,2:0:0:0:
487,364,67355,5,0,1:0:0:0:
197,320,67503,1,0,3:0:0:0:
288,260,67650,2,0,P|177:294|40:308,1,240.000009155274,0|0,1:0|2:0,2:0:0:0:
312,106,68094,2,0,P|335:64|327:8,1,95.9999970703126,0|0,1:0|2:0,2:0:0:0:
288,260,68389,5,0,3:0:0:0:
186,175,68537,1,0,1:0:0:0:
186,175,68685,2,0,B|266:192|266:192|293:221|293:221|323:204|323:204|406:219,1,240.000009155274,2|2,3:2|3:2,2:0:0:0:
312,106,69128,1,2,3:2:0:0:
186,175,69276,2,0,B|269:155|288:260|288:260|336:164|410:222,1,303.999991882324,0|0,1:0|3:0,2:0:0:0:
311,349,69719,6,0,P|262:352|225:324,1,95.9999970703126,2|0,1:2|3:0,2:0:0:0:
173,28,70015,2,0,P|150:166|137:265,1,240.000009155274,0|0,1:0|2:0,2:0:0:0:
56,63,70458,5,2,1:2:0:0:
133,121,70606,1,8,2:3:0:0:
229,110,70754,1,6,2:3:0:0:
309,161,70902,1,4,2:3:0:0:
48,305,71049,6,0,B|189:244|126:394|297:324,1,240.000009155274,6|2,3:2|3:2,2:0:0:0:
457,273,71493,2,0,L|361:266,1,95.9999970703126,2|0,3:2|1:0,2:0:0:0:
361,266,71936,5,2,3:2:0:0:
483,122,72084,1,2,1:2:0:0:
431,34,72232,2,0,P|441:120|457:280,1,240.000009155274,2|2,3:2|3:2,2:0:0:0:
269,334,72675,2,0,P|248:290|264:230,1,95.9999970703126,2|0,2:0|1:0,2:0:0:0:
255,244,73118,5,0,3:0:0:0:
414,384,73266,1,2,1:2:0:0:
499,350,73414,2,0,B|447:374|447:374|244:328,1,240.000009155274,4|2,3:1|3:2,2:0:0:0:
13,294,73857,1,2,2:0:0:0:
65,384,74005,2,0,P|46:302|26:141,1,240.000009155274,4|2,1:0|3:2,2:0:0:0:
268,333,74448,2,0,P|312:308|339:269,1,95.9999970703126,0|0,1:0|2:0,2:0:0:0:
230,197,74744,1,0,3:0:0:0:
148,251,74892,2,0,P|128:215|140:171,1,71.9999978027344,0|0,1:0|3:0,2:0:0:0:
445,84,75187,5,0,3:0:0:0:
335,64,75335,1,0,1:0:0:0:
157,359,75483,1,10,2:3:0:0:
46,343,75631,1,4,2:3:0:0:
230,197,75779,6,0,B|331:178|331:178|423:211|423:211|462:203,1,240.000009155274,6|2,3:2|3:2,2:0:0:0:
335,64,76222,1,2,3:2:0:0:
317,275,76370,2,0,P|332:158|350:28,1,240.000009155274,0|0,1:0|3:0,2:0:0:0:
259,6,76813,1,2,1:2:0:0:
68,269,76961,5,2,3:2:0:0:
141,203,77109,1,0,1:0:0:0:
94,118,77256,2,0,L|-9:134,1,95.9999970703126,2|2,3:2|2:0,2:0:0:0:
122,356,77552,5,0,1:0:0:0:
291,226,77700,1,8,2:3:0:0:
185,47,77847,1,4,2:3:0:0:
10,181,77995,1,6,2:3:0:0:
422,263,78143,6,0,P|305:254|186:305,1,240.000009155274,6|2,3:2|3:2,2:0:0:0:
122,356,78586,1,2,3:2:0:0:
386,359,78734,2,0,P|346:332|325:290,1,95.9999970703126,0|2,1:0|2:0,2:0:0:0:
412,170,79030,2,0,P|407:217|421:262,1,95.9999970703126,0|2,3:0|1:2,2:0:0:0:
193,299,79325,6,0,P|249:209|231:64,1,240.000009155274,4|2,3:1|3:2,2:0:0:0:
239,79,79769,1,0,2:0:0:0:
139,199,79916,2,0,P|135:106|77:54,1,160,2|2,1:2|3:2,2:0:0:0:
91,60,80508,6,0,B|180:31|243:84|243:84|268:46|312:41,1,240.000009155274,6|2,3:2|3:2,2:0:0:0:
421,343,80951,2,0,P|394:329|374:255,1,95.9999970703126,2|0,3:2|1:0,2:0:0:0:
370,270,81394,5,0,3:0:0:0:
233,108,81542,1,2,1:2:0:0:
306,41,81690,2,0,B|259:103|259:103|289:271,1,240.000009155274,6|2,3:2|3:2,2:0:0:0:
11,151,82133,2,0,L|0:55,1,95.9999970703126,2|0,2:0|1:0,2:0:0:0:
0,55,82577,5,0,3:0:0:0:
199,289,82724,1,2,1:2:0:0:
287,262,82872,2,0,P|187:247|39:227,1,240.000009155274,6|2,3:2|3:2,2:0:0:0:
161,366,83315,2,0,P|196:336|199:289,1,95.9999970703126,2|0,3:2|1:0,2:0:0:0:
0,55,83611,1,2,2:0:0:0:
301,134,83759,1,2,3:2:0:0:
0,159,83907,6,0,B|106:126|106:126|197:166|197:166|301:134,1,320,0|0,1:0|1:0,2:0:0:0:
91,295,84350,6,0,L|97:235,1,60.0000022888184,0|0,3:0|2:0,2:0:0:0:
210,0,84498,2,0,L|202:77,1,60.0000022888184,8|0,2:3|2:0,2:0:0:0:
148,145,84646,6,0,L|132:137,1,16,4|4,1:2|2:3,2:0:0:0:
434,3,85237,5,2,2:0:0:0:
489,154,85532,1,0,2:0:0:0:
494,130,85680,1,0,2:0:0:0:
388,240,85976,1,0,2:0:0:0:
388,240,86271,6,0,L|450:230,1,40,0|0,2:0|2:0,2:0:0:0:
393,151,86419,1,2,2:0:0:0:
494,322,86714,1,0,2:0:0:0:
498,297,86862,1,0,2:0:0:0:
289,336,87158,1,0,2:0:0:0:
288,335,87453,6,0,L|291:295,1,40,0|0,2:0|2:0,2:0:0:0:
380,324,87601,1,2,2:0:0:0:
205,384,87897,1,0,2:0:0:0:
180,380,88045,1,0,2:0:0:0:
247,219,88340,1,0,2:0:0:0:
247,219,88808,6,0,B|249:151|357:143|313:48|216:29|206:119|206:119|146:45|75:98|73:219|164:206|233:175|242:237|254:277|247:313,1,624.799998093262,2|0,2:0|2:0,2:0:0:0:
