osu file format v14

[General]
AudioFilename: audio.mp3
AudioLeadIn: 0
PreviewTime: 70802
Countdown: 0
SampleSet: Soft
StackLeniency: 0.5
Mode: 0
LetterboxInBreaks: 0
WidescreenStoryboard: 0

[Editor]
Bookmarks: 155802,173135,199802
DistanceSpacing: 1
BeatDivisor: 4
GridSize: 32
TimelineZoom: 2.5

[Metadata]
Title:I'm in the side
TitleUnicode:I'm in the side
Artist:Duca
ArtistUnicode:Duca
Creator:Bellicose
Version:Shizuku's Expert
Source:
Tags:albero japanese rock mimari kuse KuBsNia_ZhoYL_ Shizuku-
BeatmapID:2363831
BeatmapSetID:1110601

[Difficulty]
HPDrainRate:6
CircleSize:4
OverallDifficulty:8.7
ApproachRate:9.2
SliderMultiplier:1.76
SliderTickRate:1

[Events]
//Background and Video events
0,0,"bg123.jpg",0,0
//Break Periods
2,34585,44065
2,104002,113398
2,194668,198898
//Storyboard Layer 0 (Background)
//Storyboard Layer 1 (Fail)
//Storyboard Layer 2 (Pass)
//Storyboard Layer 3 (Foreground)
//Storyboard Layer 4 (Overlay)
//Storyboard Sound Samples

[TimingPoints]
2469,333.333333333333,4,2,1,50,1,0
2469,-166.666666666667,4,2,1,50,0,0
12802,-166.666666666667,4,2,1,75,0,0
13135,-90.9090909090909,4,2,1,75,0,0
16968,-76.9230769230769,4,2,1,75,0,0
17302,-90.9090909090909,4,2,1,75,0,0
21135,-76.9230769230769,4,2,1,75,0,0
21468,-90.9090909090909,4,2,1,75,0,0
22802,-76.9230769230769,4,2,1,80,0,0
22968,-90.9090909090909,4,2,1,80,0,0
23802,-90.9090909090909,4,2,1,75,0,0
26468,-90.9090909090909,4,2,1,70,0,0
29968,-125,4,2,1,70,0,0
30302,-83.3333333333333,4,2,1,70,0,0
32635,-125,4,2,1,70,0,0
32968,-76.9230769230769,4,2,1,80,0,0
33302,-90.9090909090909,4,2,1,80,0,0
34468,-90.9090909090909,4,2,1,50,0,0
44802,-133.333333333333,4,2,1,50,0,0
45135,-100,4,2,2,55,0,0
54302,-83.3333333333333,4,2,1,55,0,0
54635,-100,4,2,1,55,0,0
55802,-133.333333333333,4,2,2,50,0,0
58468,-133.333333333333,4,2,1,50,0,0
58802,-133.333333333333,4,2,2,50,0,0
61135,-100,4,2,1,50,0,0
61302,-100,4,2,1,30,0,0
62468,-100,4,2,1,40,0,0
63802,-100,4,2,1,50,0,0
65135,-100,4,2,1,60,0,0
66468,-90.9090909090909,4,2,1,70,0,0
67635,-83.3333333333333,4,2,1,80,0,0
69135,-100,4,2,1,80,0,0
71468,-133.333333333333,4,2,1,50,0,0
71802,-90.9090909090909,4,2,1,80,0,1
80968,-76.9230769230769,4,2,1,80,0,1
81468,-71.4285714285714,4,2,1,80,0,1
81802,-90.9090909090909,4,2,1,80,0,1
82468,-90.9090909090909,4,2,1,80,0,1
83135,-90.9090909090909,4,2,1,80,0,1
86302,-76.9230769230769,4,2,1,80,0,1
86802,-90.9090909090909,4,2,1,80,0,1
90468,-76.9230769230769,4,2,1,80,0,1
90968,-90.9090909090909,4,2,1,80,0,1
91968,-90.9090909090909,4,2,1,85,0,1
92135,-76.9230769230769,4,2,1,85,0,1
92384,-76.9230769230769,4,2,1,80,0,1
92468,-76.9230769230769,4,2,1,85,0,1
93052,-76.9230769230769,4,2,1,80,0,1
93135,-90.9090909090909,4,2,1,80,0,0
95802,-90.9090909090909,4,2,1,75,0,0
99302,-125,4,2,1,75,0,0
99635,-83.3333333333333,4,2,1,75,0,0
100135,-90.9090909090909,4,2,1,75,0,0
101968,-125,4,2,1,75,0,0
102302,-76.9230769230769,4,2,1,80,0,0
102635,-90.9090909090909,4,2,1,80,0,0
103135,-66.6666666666667,4,2,1,80,0,0
103802,-90.9090909090909,4,2,1,50,0,0
114135,-133.333333333333,4,2,1,50,0,0
114468,-100,4,2,2,55,0,0
123635,-83.3333333333333,4,2,1,55,0,0
123968,-100,4,2,1,55,0,0
125135,-133.333333333333,4,2,2,50,0,0
127801,-133.333333333333,4,2,1,50,0,0
128135,-133.333333333333,4,2,2,50,0,0
130468,-100,4,2,1,50,0,0
130635,-100,4,2,1,30,0,0
131801,-100,4,2,1,40,0,0
133135,-100,4,2,1,50,0,0
134468,-100,4,2,1,60,0,0
135801,-90.9090909090909,4,2,1,70,0,0
136968,-83.3333333333333,4,2,1,80,0,0
138468,-100,4,2,1,80,0,0
139802,-90.9090909090909,4,2,1,60,0,0
140802,-90.9090909090909,4,2,1,70,0,0
141135,-90.9090909090909,4,2,1,80,0,1
150301,-76.9230769230769,4,2,1,80,0,1
150801,-71.4285714285714,4,2,1,80,0,1
151135,-90.9090909090909,4,2,1,80,0,1
151801,-90.9090909090909,4,2,1,80,0,1
152468,-90.9090909090909,4,2,1,80,0,1
155635,-76.9230769230769,4,2,1,80,0,1
156135,-90.9090909090909,4,2,1,80,0,1
159635,-76.9230769230769,4,2,1,80,0,1
160301,-90.9090909090909,4,2,1,80,0,1
161468,-76.9230769230769,4,2,1,85,0,1
161717,-76.9230769230769,4,2,1,80,0,1
161801,-76.9230769230769,4,2,1,85,0,1
162468,-83.3333333333333,4,2,1,80,0,0
165135,-83.3333333333333,4,2,1,75,0,0
178468,-76.9230769230769,4,2,1,75,0,0
178968,-83.3333333333333,4,2,1,75,0,0
179302,-133.333333333333,4,2,1,75,0,0
179635,-76.9230769230769,4,2,1,75,0,0
182302,-71.4285714285714,4,2,1,75,0,0
184135,-83.3333333333333,4,2,1,75,0,0
189135,-76.9230769230769,4,2,1,75,0,0
189635,-83.3333333333333,4,2,1,75,0,0
192968,-125,4,2,1,75,0,0
194468,-83.3333333333333,4,2,1,50,0,0
199385,-100,4,2,1,50,0,0
199802,-133.333333333333,4,2,1,50,0,0
199968,-100,4,2,1,30,0,0
201135,-100,4,2,1,40,0,0
202468,-100,4,2,1,50,0,0
203802,-100,4,2,1,60,0,0
205135,-90.9090909090909,4,2,1,70,0,0
206302,-83.3333333333333,4,2,1,80,0,0
207968,-100,4,2,1,80,0,0
208968,-83.3333333333333,4,2,1,80,0,0
210468,-100,4,2,1,85,0,0
211635,-83.3333333333333,4,2,1,85,0,0
212135,-83.3333333333333,4,2,1,65,0,0
212468,-83.3333333333333,4,2,1,70,0,0
212802,-83.3333333333333,4,2,1,75,0,0
213135,-90.9090909090909,4,2,1,80,0,1
213301,-90.9090909090909,4,2,1,75,0,1
213468,-90.9090909090909,4,2,1,80,0,1
214468,-90.9090909090909,4,2,1,75,0,1
214801,-90.9090909090909,4,2,1,80,0,1
215052,-90.9090909090909,4,2,1,75,0,1
215135,-90.9090909090909,4,2,1,80,0,1
216302,-90.9090909090909,4,2,1,75,0,1
216468,-90.9090909090909,4,2,1,80,0,1
217718,-90.9090909090909,4,2,1,75,0,1
217802,-90.9090909090909,4,2,1,80,0,1
222302,-76.9230769230769,4,2,1,80,0,1
222802,-71.4285714285714,4,2,1,80,0,1
223135,-90.9090909090909,4,2,1,80,0,1
223802,-90.9090909090909,4,2,1,80,0,1
224469,-90.9090909090909,4,2,1,80,0,1
227635,-76.9230769230769,4,2,1,80,0,1
228136,-90.9090909090909,4,2,1,80,0,1
231802,-76.9230769230769,4,2,1,80,0,1
232302,-90.9090909090909,4,2,1,80,0,1
233469,-76.9230769230769,4,2,1,85,0,1
234384,-76.9230769230769,4,2,1,80,0,1
234468,-90.9090909090909,4,2,1,80,0,0
235885,-90.9090909090909,4,2,1,75,0,0
235968,-90.9090909090909,4,2,1,80,0,0
236301,-90.9090909090909,4,2,1,75,0,0
236468,-90.9090909090909,4,2,1,80,0,0
237134,-90.9090909090909,4,2,1,75,0,0
238551,-90.9090909090909,4,2,1,70,0,0
238635,-90.9090909090909,4,2,1,75,0,0
240385,-90.9090909090909,4,2,1,70,0,0
240468,-90.9090909090909,4,2,1,75,0,0
240551,-90.9090909090909,4,2,1,70,0,0
240634,-125,4,2,1,75,0,0
240968,-83.3333333333333,4,2,1,75,0,0
241635,-83.3333333333333,4,2,1,70,0,0
241801,-83.3333333333333,4,2,1,75,0,0
243301,-125,4,2,1,75,0,0
243634,-76.9230769230769,4,2,1,80,0,0
243968,-90.9090909090909,4,2,1,80,0,0
250468,-100,4,2,1,5,0,0

[Colours]
Combo1 : 225,179,242
Combo2 : 184,221,235
Combo3 : 240,217,176
Combo4 : 239,187,177

[HitObjects]
124,341,2468,5,2,0:0:0:0:
123,341,2802,2,0,P|71:344|29:314,1,105.599996777344,2|0,0:0|0:0,0:0:0:0:
29,314,3468,2,0,L|80:304,1,52.7999983886719,2|0,0:0|0:0,0:0:0:0:
201,372,3802,2,0,B|232:334|232:334|220:278,1,105.599996777344,2|0,0:0|0:0,0:0:0:0:
137,198,4302,2,0,P|85:207|33:218,1,105.599996777344,2|2,0:0|0:0,0:0:0:0:
236,80,4968,5,0,0:0:0:0:
236,80,5135,2,0,B|213:146|213:146|240:211|240:211|219:278,1,211.199993554688,2|2,0:0|0:0,0:0:0:0:
453,173,6302,2,0,P|391:127|315:142,1,158.399995166016,2|0,0:0|0:0,0:0:0:0:
315,142,7135,2,0,L|331:91,2,52.7999983886719,2|2|2,0:0|0:0|0:0,0:0:0:0:
421,341,7802,6,0,P|376:313|325:321,1,105.599996777344,2|0,0:0|0:0,0:0:0:0:
244,381,8302,2,0,P|232:328|220:278,1,105.599996777344,2|2,0:0|0:0,0:0:0:0:
7,161,8968,2,0,B|60:219|60:219|136:198,1,158.399995166016,2|2,0:0|0:0,0:0:0:0:
92,109,9802,1,2,0:0:0:0:
32,306,10135,1,2,0:0:0:0:
282,227,10468,6,0,L|243:380,1,158.399995166016,2|2,0:0|0:0,0:0:0:0:
242,380,11302,1,2,0:0:0:0:
282,227,11468,1,2,0:0:0:0:
136,283,11635,1,2,0:0:0:0:
136,283,12802,6,0,B|167:310|167:310|203:300,1,79.1999975830079,4|0,0:3|0:0,0:0:0:0:
226,318,13135,6,0,P|216:270|207:223,1,96.8000029541017,6|0,1:2|0:0,0:0:0:0:
300,9,13468,2,0,B|353:33|353:33|384:66|370:130|315:145,1,193.600005908203,10|0,0:0|1:0,0:0:0:0:
123,92,13968,1,0,1:0:0:0:
226,318,14135,2,0,P|272:305|319:292,1,96.8000029541017,10|0,0:0|3:0,0:0:0:0:
456,44,14468,6,0,P|367:71|299:8,1,193.600005908203,2|8,1:2|0:0,0:0:0:0:
115,197,14968,1,0,3:0:0:0:
115,197,15052,1,0,3:0:0:0:
115,197,15135,1,0,1:0:0:0:
321,143,15302,1,0,1:0:0:0:
153,374,15468,2,0,P|94:334|25:350,1,145.200004431152,8|0,0:0|0:0,0:0:0:0:
28,360,15802,6,0,B|48:317|48:317|36:269,1,96.8000029541017,6|0,1:2|0:0,0:0:0:0:
178,117,16135,2,0,L|320:142,1,145.200004431152,8|0,0:0|0:0,0:0:0:0:
349,165,16468,2,0,P|379:129|373:82,1,96.8000029541017,2|0,1:2|1:0,0:0:0:0:
192,9,16802,1,8,0:0:0:0:
365,253,16968,6,0,B|325:264|296:235|296:235|240:236|203:283|228:342,1,228.799989526368,6|0,1:1|1:0,0:0:0:0:
349,165,17468,1,8,0:0:0:0:
36,269,17635,1,0,3:0:0:0:
32,265,17718,1,0,3:0:0:0:
36,269,17802,2,0,P|28:221|20:173,1,96.8000029541017,0|0,1:0|1:0,0:0:0:0:
6,121,18052,1,0,1:0:0:0:
10,125,18135,1,8,0:0:0:0:
221,170,18302,1,2,0:0:0:0:
133,1,18468,6,0,B|114:59|114:59|137:114|137:114|115:184,1,193.600005908203,6|8,1:2|0:0,0:0:0:0:
223,375,18968,2,0,P|251:338|247:291,1,96.8000029541017,0|0,3:0|1:0,0:0:0:0:
324,80,19302,2,0,P|352:117|348:164,1,96.8000029541017,0|8,1:0|0:0,0:0:0:0:
223,374,19635,6,0,P|295:315|388:331,1,193.600005908203,6|0,1:1|1:0,0:0:0:0:
221,170,20135,1,8,0:0:0:0:
444,117,20302,1,0,3:0:0:0:
447,120,20385,1,0,3:0:0:0:
451,124,20468,1,0,1:0:0:0:
310,1,20635,1,0,1:0:0:0:
372,241,20802,1,8,0:0:0:0:
115,197,20968,5,0,3:0:0:0:
115,197,21052,1,0,3:0:0:0:
115,197,21135,2,0,B|88:270|88:270|134:293|134:346,1,171.599992144776,6|0,1:2|0:0,0:0:0:0:
55,342,21468,6,0,P|125:281|215:304,1,193.600005908203,8|0,0:0|1:0,0:0:0:0:
451,124,21968,1,0,1:0:0:0:
213,201,22135,1,8,0:0:0:0:
337,371,22302,6,0,B|355:303|355:303|332:249|332:249|347:186,1,193.600005908203,6|0,1:1|1:0,0:0:0:0:
125,6,22802,2,0,P|90:50|91:106,1,114.399994763184,10|8,0:0|0:3,0:0:0:0:
215,304,23135,1,8,0:0:0:0:
169,75,23302,1,8,0:3:0:0:
125,327,23468,5,0,1:0:0:0:
167,304,23552,1,8,0:0:0:0:
215,304,23635,1,4,0:3:0:0:
257,326,23718,1,4,0:3:0:0:
284,366,23802,6,0,B|348:343|348:343|399:294|353:232,1,193.600005908203,6|8,1:2|0:0,0:0:0:0:
169,75,24302,1,0,3:0:0:0:
176,87,24385,1,0,3:0:0:0:
183,101,24468,2,0,B|223:126|223:126|272:117,1,96.8000029541017,0|0,1:0|1:0,0:0:0:0:
348,30,24802,1,8,0:0:0:0:
471,196,24968,6,0,P|402:182|351:230,1,145.200004431152,2|0,1:3|0:0,0:0:0:0:
350,229,25302,2,0,P|357:181|364:133,1,96.8000029541017,0|8,1:0|0:0,0:0:0:0:
182,209,25635,1,0,3:0:0:0:
182,209,25718,1,0,3:0:0:0:
182,209,25802,1,0,1:0:0:0:
216,10,25968,1,0,1:0:0:0:
220,300,26135,2,0,P|160:259|92:273,1,145.200004431152,8|0,0:0|0:0,0:0:0:0:
80,296,26468,6,0,B|19:263|19:263|-11:197|37:149,1,193.600005908203,2|8,1:3|0:0,0:0:0:0:
220,300,26968,1,0,3:0:0:0:
220,300,27052,1,0,3:0:0:0:
220,300,27135,2,0,P|266:287|313:276,1,96.8000029541017,0|0,1:0|1:0,0:0:0:0:
509,348,27468,1,8,0:0:0:0:
477,111,27635,6,0,B|430:118|410:168|410:168|425:218,1,145.200004431152,2|0,1:3|0:0,0:0:0:0:
444,229,27968,2,0,P|431:275|420:322,1,96.8000029541017,0|8,1:0|0:0,0:0:0:0:
182,209,28302,1,0,3:0:0:0:
182,209,28385,1,0,3:0:0:0:
182,209,28468,1,0,1:0:0:0:
332,68,28635,1,0,1:0:0:0:
220,300,28802,2,0,B|141:271|141:271|109:284|96:310,1,145.200004431152,8|0,0:0|0:0,0:0:0:0:
43,371,29135,6,0,P|16:333|20:285,1,96.8000029541017,6|2,1:2|0:0,0:0:0:0:
245,128,29468,2,0,P|314:149|383:171,1,145.200004431152,10|0,0:0|0:0,0:0:0:0:
417,166,29802,2,0,L|426:118,1,48.4000014770508,0|0,1:0|0:0,0:0:0:0:
347,0,29968,6,0,L|332:68,1,70.4,2|8,1:2|0:0,0:0:0:0:
509,348,30302,6,0,B|493:290|434:271|388:298|388:298|379:328|350:341,1,211.199993554688,6|0,1:1|1:0,0:0:0:0:
136,274,30802,1,10,0:0:0:0:
324,163,30968,1,0,3:0:0:0:
324,163,31052,1,0,3:0:0:0:
324,163,31135,1,0,1:0:0:0:
246,377,31302,1,0,1:0:0:0:
150,129,31468,1,10,0:0:0:0:
425,218,31635,5,0,3:0:0:0:
425,218,31718,1,0,3:0:0:0:
425,218,31802,1,6,1:2:0:0:
220,300,31968,1,2,0:0:0:0:
464,384,32135,1,8,0:0:0:0:
415,120,32302,5,8,0:0:0:0:
415,120,32385,1,8,0:0:0:0:
415,120,32468,1,8,0:0:0:0:
356,345,32635,2,0,B|334:317|334:317|343:283,1,70.4,8|4,0:3|0:3,0:0:0:0:
457,26,32968,6,0,B|320:-10|376:94|243:65,1,228.799989526368,6|10,1:1|0:0,0:0:0:0:
34,243,33468,1,10,0:0:0:0:
298,172,33635,1,10,0:0:0:0:
119,7,33802,1,10,0:0:0:0:
115,23,33885,1,2,0:0:0:0:
111,39,33968,1,10,0:0:0:0:
107,55,34052,1,2,0:0:0:0:
99,73,34135,6,0,L|52:84,1,48.4000014770508,10|2,0:0|0:0,0:0:0:0:
158,168,34302,2,0,L|181:174,2,24.2000007385254,10|2|2,0:0|0:0|0:0,0:0:0:0:
68,367,44635,5,0,1:0:0:0:
68,367,44718,1,0,1:0:0:0:
68,367,44802,2,0,B|32:346|32:346|22:256,1,132.000005035401,8|6,0:0|1:2,0:0:0:0:
22,256,45468,6,0,B|60:226|60:226|108:228|141:269|127:312,1,176,8|2,0:0|1:3,0:0:0:0:
218,113,45968,2,0,P|211:69|205:25,1,88,2|8,1:2|0:0,0:0:0:0:
351,179,46302,1,2,1:2:0:0:
351,179,46468,6,0,P|344:223|338:267,1,88,2|0,0:3|1:0,0:0:0:0:
457,87,46802,2,0,B|353:42|353:42|337:68|308:84,1,176,10|2,0:0|1:3,0:0:0:0:
308,84,47302,1,0,1:0:0:0:
112,160,47468,2,0,P|106:116|99:72,1,88,8|0,0:0|0:0,0:0:0:0:
20,260,47802,6,0,P|104:251|162:313,1,176,2|8,1:3|0:0,0:0:0:0:
230,200,48302,2,0,P|224:156|217:112,1,88,2|2,0:0|1:3,0:0:0:0:
426,253,48635,2,0,P|419:296|413:340,1,88,2|8,1:2|0:0,0:0:0:0:
512,219,48968,6,0,P|450:160|366:176,1,176,2|0,1:2|1:0,0:0:0:0:
249,326,49468,2,0,P|205:319|161:313,1,88,10|0,0:0|0:0,0:0:0:0:
230,200,49802,1,2,1:3:0:0:
230,200,49968,1,0,1:0:0:0:
118,11,50135,2,0,B|107:70|107:70|74:100|74:100|84:170,1,176,10|2,0:0|1:3,0:0:0:0:
84,170,50802,6,0,P|164:145|229:199,1,176,8|2,0:0|1:3,0:0:0:0:
382,90,51302,2,0,P|374:133|366:176,1,88,2|8,1:2|0:0,0:0:0:0:
270,361,51635,6,0,B|266:294|266:294|232:259|232:259|229:199,1,176,2|0,1:2|1:0,0:0:0:0:
135,6,52135,2,0,P|129:49|124:93,1,88,10|0,0:0|0:0,0:0:0:0:
106,257,52468,1,2,1:3:0:0:
0,138,52635,1,0,1:0:0:0:
28,313,52802,2,0,P|91:304|143:343,1,132,8|0,0:0|0:0,0:0:0:0:
209,348,53135,6,0,B|260:322|260:249|260:249|229:199,1,176,2|8,1:3|0:0,0:0:0:0:
147,50,53635,1,0,3:0:0:0:
147,50,53718,1,0,3:0:0:0:
147,50,53802,2,0,P|189:61|232:71,1,88,2|0,1:3|1:0,0:0:0:0:
328,11,54135,1,8,0:0:0:0:
500,146,54302,6,0,B|533:198|514:251|454:273|454:273|404:255,1,211.199993554688,6|0,1:1|1:0,0:0:0:0:
229,199,54802,1,8,0:0:0:0:
363,97,54968,5,2,0:3:0:0:
363,97,55052,1,2,0:3:0:0:
363,97,55135,1,8,0:0:0:0:
297,292,55302,1,8,0:3:0:0:
512,229,55468,1,4,0:3:0:0:
229,199,55802,6,0,B|184:190|184:190|148:209|148:209|102:200,1,132.000005035401,4|2,1:2|0:1,0:0:0:0:
103,200,56302,1,2,1:2:0:0:
114,52,56468,2,0,P|121:84|128:116,2,66.0000025177003,10|2|2,0:0|0:0|1:1,0:0:0:0:
25,268,56968,6,0,P|88:256|141:293,1,132.000005035401,2|0,1:2|0:0,0:0:0:0:
229,199,57468,2,0,P|223:166|218:133,1,66.0000025177003,2|0,1:2|0:0,0:0:0:0:
415,190,57802,2,0,P|409:222|404:255,1,66.0000025177003,10|0,0:0|0:0,0:0:0:0:
461,35,58135,1,2,1:1:0:0:
461,34,58468,6,0,P|410:74|346:68,1,132.000005035401,6|2,1:1|0:1,0:0:0:0:
207,68,58968,2,0,P|212:100|217:133,1,66.0000025177003,2|8,1:2|0:0,0:0:0:0:
326,170,59302,2,0,P|320:202|315:235,1,66.0000025177003,2|2,0:0|1:1,0:0:0:0:
198,333,59635,6,0,B|126:310|143:363|70:341,1,132.000005035401,2|0,1:2|0:0,0:0:0:0:
111,188,60135,2,0,P|105:220|100:253,1,66.0000025177003,0|2,1:0|0:0,0:0:0:0:
217,133,60468,2,0,P|211:101|206:68,1,66.0000025177003,10|0,0:0|0:0,0:0:0:0:
311,269,60802,1,8,1:2:0:0:
311,269,61135,6,0,L|396:248,1,88,4|8,1:2|0:0,0:0:0:0:
461,34,61468,2,0,L|418:23,3,44,8|8|8|8,1:2|0:0|0:0|0:0,0:0:0:0:
326,170,61802,2,0,L|368:159,3,44,8|8|8|8,1:2|0:0|0:0|0:0,0:0:0:0:
254,12,62135,2,0,L|243:54,3,44,8|8|8|8,1:2|0:0|0:0|0:0,0:0:0:0:
75,162,62468,5,10,1:2:0:0:
105,150,62552,1,8,0:0:0:0:
137,156,62635,1,8,0:0:0:0:
162,177,62718,1,8,0:0:0:0:
173,208,62802,2,0,L|162:250,3,44,10|8|8|8,1:2|0:0|0:0|0:0,0:0:0:0:
250,287,63135,5,10,1:2:0:0:
278,271,63218,1,8,0:0:0:0:
311,269,63302,1,8,0:0:0:0:
342,280,63385,1,8,0:0:0:0:
365,303,63468,1,10,1:2:0:0:
389,325,63552,1,8,0:0:0:0:
419,337,63635,1,8,0:0:0:0:
452,334,63718,1,8,0:0:0:0:
481,319,63802,5,6,1:2:0:0:
444,179,63968,2,0,L|433:222,2,44,8|8|8,0:0|0:0|1:2,0:0:0:0:
254,12,64302,1,8,0:0:0:0:
259,33,64385,1,8,0:0:0:0:
263,51,64468,1,8,1:2:0:0:
225,31,64552,1,8,0:0:0:0:
181,34,64635,1,8,0:0:0:0:
147,61,64718,1,8,0:0:0:0:
132,102,64802,1,8,1:2:0:0:
117,141,64885,1,8,0:0:0:0:
82,168,64968,1,10,0:0:0:0:
39,171,65052,1,8,0:0:0:0:
1,151,65135,6,0,L|12:194,1,44,10|8,1:2|0:0,0:0:0:0:
152,289,65302,1,8,0:0:0:0:
157,268,65385,1,8,0:0:0:0:
161,250,65468,2,0,L|118:261,1,44,10|8,1:2|0:0,0:0:0:0:
263,51,65635,1,8,0:0:0:0:
258,72,65718,1,8,0:0:0:0:
253,90,65802,2,0,L|265:133,1,44,10|8,1:2|0:0,0:0:0:0:
383,349,65968,5,8,0:0:0:0:
405,355,66052,1,8,0:0:0:0:
426,362,66135,5,2,1:2:0:0:
460,335,66218,1,8,0:3:0:0:
473,293,66302,1,4,0:3:0:0:
463,251,66385,1,4,0:3:0:0:
433,221,66468,1,6,1:2:0:0:
433,221,66802,5,8,1:2:0:0:
203,178,66968,1,8,1:2:0:0:
383,368,67135,1,10,1:2:0:0:
345,119,67302,1,8,1:2:0:0:
221,350,67468,1,8,1:2:0:0:
268,76,67635,6,0,B|311:11|390:40|390:40|402:75|438:89,1,211.199993554688,6|0,1:1|1:0,0:0:0:0:
168,276,68135,1,8,1:2:0:0:
460,335,68302,1,8,1:2:0:0:
345,119,68468,1,8,1:2:0:0:
301,384,68635,5,8,1:2:0:0:
121,205,68802,1,8,0:0:0:0:
156,189,68885,1,8,0:0:0:0:
195,192,68968,1,8,0:0:0:0:
228,213,69052,1,8,0:0:0:0:
247,247,69135,5,10,1:2:0:0:
424,176,69302,2,0,P|431:132|438:89,1,88,10|0,1:2|1:0,0:0:0:0:
460,334,69635,5,10,1:2:0:0:
330,205,69802,2,0,P|337:161|344:118,1,88,10|0,1:2|1:0,0:0:0:0:
110,6,70135,5,10,1:2:0:0:
168,276,70302,1,10,1:2:0:0:
151,77,71468,6,0,P|104:90|58:73,1,99.0000037765504,2|0,0:0|0:0,0:0:0:0:
17,98,71802,6,0,B|7:147|7:147|32:186,1,96.8000029541017,6|0,1:2|0:0,0:0:0:0:
221,372,72135,2,0,P|155:305|62:319,1,193.600005908203,10|0,0:0|1:0,0:0:0:0:
236,106,72635,1,0,1:0:0:0:
314,300,72802,2,0,P|321:251|329:204,1,96.8000029541017,10|0,0:0|1:0,0:0:0:0:
474,69,73135,6,0,P|383:88|317:22,1,193.600005908203,2|10,0:0|0:0,0:0:0:0:
63,172,73635,1,2,0:0:0:0:
63,172,73718,1,2,0:0:0:0:
63,172,73802,1,0,1:0:0:0:
255,224,73968,1,0,1:0:0:0:
202,10,74135,2,0,P|194:57|186:105,1,96.8000029541017,10|0,0:0|0:0,0:0:0:0:
358,300,74468,6,0,P|267:280|201:346,1,193.600005908203,2|8,1:2|0:0,0:0:0:0:
63,172,74968,1,0,3:0:0:0:
63,172,75052,1,0,3:0:0:0:
63,172,75135,2,0,P|70:219|78:267,1,96.8000029541017,0|0,1:0|1:0,0:0:0:0:
267,135,75468,1,8,0:0:0:0:
38,12,75635,6,0,P|102:79|193:62,1,193.600005908203,2|0,1:2|1:0,0:0:0:0:
412,136,76135,1,8,0:0:0:0:
255,224,76302,1,0,3:0:0:0:
255,224,76385,1,0,3:0:0:0:
255,224,76468,1,0,1:0:0:0:
338,78,76635,1,0,1:0:0:0:
481,266,76802,2,0,P|412:254|358:299,1,145.200004431152,10|0,0:0|0:0,0:0:0:0:
333,341,77135,6,0,P|239:320|143:306,1,193.600005908203,2|10,1:3|0:0,0:0:0:0:
338,201,77635,1,0,3:0:0:0:
338,201,77718,1,0,3:0:0:0:
338,201,77802,1,0,1:0:0:0:
116,125,77968,1,0,1:0:0:0:
277,4,78135,1,8,0:0:0:0:
220,206,78302,6,0,B|110:180|152:260|36:232,1,193.600005908203,2|0,1:3|1:0,0:0:0:0:
166,384,78802,2,0,P|173:336|182:288,1,96.8000029541017,10|2,0:0|0:0,0:0:0:0:
116,125,79135,1,0,1:0:0:0:
338,201,79302,1,0,1:0:0:0:
277,4,79468,1,10,0:0:0:0:
190,296,79635,5,0,3:0:0:0:
190,296,79718,1,0,3:0:0:0:
190,296,79802,2,0,B|252:283|252:283|306:316|306:316|371:301,1,193.600005908203,6|8,1:2|0:0,0:0:0:0:
487,184,80302,1,0,3:0:0:0:
487,184,80385,1,0,3:0:0:0:
487,184,80468,1,0,1:0:0:0:
247,116,80635,1,2,1:2:0:0:
409,0,80802,1,10,0:0:0:0:
338,201,80968,6,0,B|290:133|215:161|215:161|201:210|155:218,1,228.799989526368,6|0,1:1|1:0,0:0:0:0:
28,35,81468,6,0,B|60:26|82:13|82:13|67:75|52:136,1,184.799994360352,8|0,0:0|0:0,0:0:0:0:
0,204,81802,2,0,P|11:250|23:297,1,96.8000029541017,4|4,0:3|0:3,0:0:0:0:
305,357,82135,1,8,0:0:0:0:
345,331,82218,1,8,0:0:0:0:
367,288,82302,1,8,0:0:0:0:
364,241,82385,1,8,0:0:0:0:
338,201,82468,5,6,1:2:0:0:
130,258,82635,1,2,0:0:0:0:
208,0,82802,2,0,B|227:61|227:61|201:108|201:108|219:181,1,193.600005908203,10|0,0:0|1:0,0:0:0:0:
305,357,83302,1,0,1:0:0:0:
498,207,83468,2,0,P|445:159|376:170,1,145.200004431152,10|0,0:0|0:0,0:0:0:0:
338,200,83802,6,0,B|273:180|273:180|222:206|222:206|153:186,1,193.600005908203,2|10,0:0|0:0,0:0:0:0:
0,140,84302,1,0,3:0:0:0:
0,140,84385,1,0,3:0:0:0:
0,140,84468,1,0,1:0:0:0:
130,49,84635,1,0,1:0:0:0:
59,252,84802,2,0,P|69:299|77:346,1,96.8000029541017,8|0,0:0|0:0,0:0:0:0:
115,384,85052,5,0,3:0:0:0:
115,384,85135,2,0,P|183:320|273:343,1,193.600005908203,6|8,1:2|0:0,0:0:0:0:
447,147,85635,1,0,3:0:0:0:
447,147,85718,1,0,3:0:0:0:
447,147,85802,1,2,1:2:0:0:
225,231,85968,1,0,1:0:0:0:
388,351,86135,1,8,0:0:0:0:
300,96,86302,6,0,B|240:54|240:54|154:72|127:150,1,228.799989526368,6|0,1:1|1:0,0:0:0:0:
371,233,86802,1,8,0:0:0:0:
251,375,86968,1,0,3:0:0:0:
251,375,87052,1,0,3:0:0:0:
251,375,87135,2,0,P|242:327|234:279,1,96.8000029541017,0|0,1:0|1:0,0:0:0:0:
225,231,87385,1,0,1:0:0:0:
225,231,87468,1,8,0:0:0:0:
465,274,87635,1,2,0:0:0:0:
388,49,87802,6,0,B|370:116|370:116|391:162|391:162|370:233,1,193.600005908203,6|8,1:2|0:0,0:0:0:0:
251,375,88302,2,0,P|242:327|234:279,1,96.8000029541017,2|0,0:0|1:0,0:0:0:0:
130,49,88635,2,0,P|121:96|113:144,1,96.8000029541017,2|8,1:2|0:0,0:0:0:0:
74,322,88968,6,0,P|142:259|233:279,1,193.600005908203,6|0,1:1|1:0,0:0:0:0:
466,184,89468,1,10,0:0:0:0:
292,78,89635,1,0,3:0:0:0:
292,78,89718,1,0,3:0:0:0:
292,78,89802,1,2,1:2:0:0:
380,301,89968,1,2,1:2:0:0:
133,221,90135,2,0,L|38:243,1,96.8000029541017,8|0,0:0|0:0,0:0:0:0:
0,139,90385,5,0,3:0:0:0:
0,139,90468,2,0,B|43:132|72:101|72:101|39:243,1,228.799989526368,6|8,1:2|0:0,0:0:0:0:
263,185,90968,1,0,3:0:0:0:
263,185,91052,1,0,3:0:0:0:
263,185,91135,1,0,1:0:0:0:
119,30,91302,1,0,1:0:0:0:
171,275,91468,1,8,0:0:0:0:
356,109,91635,6,0,B|469:79|469:79|480:115|513:141,1,193.600005908203,6|0,1:1|1:0,0:0:0:0:
280,53,92135,2,0,B|262:112|262:112|277:157|277:157|259:216,1,171.599992144776,8|0,0:0|0:0,0:0:0:0:
253,233,92468,5,8,0:0:0:0:
23,135,92635,1,4,0:3:0:0:
65,367,92802,1,8,0:0:0:0:
92,334,92885,1,8,0:0:0:0:
130,315,92968,1,4,0:3:0:0:
172,314,93052,1,4,0:3:0:0:
211,332,93135,6,0,P|305:311|401:304,1,193.600005908203,6|8,1:2|0:0,0:0:0:0:
279,41,93635,1,0,3:0:0:0:
267,48,93718,1,0,3:0:0:0:
253,55,93802,2,0,B|228:95|228:95|237:144,1,96.8000029541017,0|0,1:0|1:0,0:0:0:0:
253,233,94135,1,8,0:0:0:0:
436,153,94302,6,0,P|386:103|317:113,1,145.200004431152,2|0,1:3|0:0,0:0:0:0:
236,143,94635,2,0,L|140:126,1,96.8000029541017,0|8,1:0|0:0,0:0:0:0:
75,244,94968,1,0,3:0:0:0:
75,244,95052,1,0,3:0:0:0:
75,244,95135,1,0,1:0:0:0:
0,52,95302,1,0,1:0:0:0:
33,336,95468,2,0,P|90:294|160:305,1,145.200004431152,8|0,0:0|0:0,0:0:0:0:
209,334,95802,6,0,P|222:238|235:142,1,193.600005908203,2|8,1:3|0:0,0:0:0:0:
114,11,96302,1,0,3:0:0:0:
114,11,96385,1,0,3:0:0:0:
114,11,96468,2,0,P|120:58|127:106,1,96.8000029541017,0|0,1:0|1:0,0:0:0:0:
317,219,96802,5,8,0:0:0:0:
209,334,96968,2,0,P|151:292|82:305,1,145.200004431152,2|0,1:3|0:0,0:0:0:0:
42,333,97302,2,0,P|32:285|23:238,1,96.8000029541017,0|8,1:0|0:0,0:0:0:0:
127,106,97635,1,0,3:0:0:0:
127,106,97718,1,0,3:0:0:0:
127,106,97802,1,0,1:0:0:0:
317,219,97968,1,0,1:0:0:0:
256,15,98135,2,0,B|227:94|227:94|240:126|266:139,1,145.200004431152,8|0,0:0|0:0,0:0:0:0:
325,76,98468,6,0,P|363:49|411:53,1,96.8000029541017,6|2,1:2|0:0,0:0:0:0:
459,245,98802,2,0,L|316:218,1,145.200004431152,10|0,0:0|0:0,0:0:0:0:
283,238,99135,2,0,L|293:285,1,48.4000014770508,0|0,1:0|0:0,0:0:0:0:
178,373,99302,6,0,L|163:305,1,70.4,2|8,1:2|0:0,0:0:0:0:
0,116,99635,6,0,B|62:146|62:146|130:111|139:33,1,211.199993554688,6|0,1:1|1:0,0:0:0:0:
365,119,100135,1,10,0:0:0:0:
200,232,100302,1,0,3:0:0:0:
200,232,100385,1,0,3:0:0:0:
200,232,100468,1,0,1:0:0:0:
272,0,100635,1,0,1:0:0:0:
418,197,100802,2,0,P|472:182|515:170,1,96.8000029541017,10|0,0:0|0:0,0:0:0:0:
392,334,101135,5,6,1:2:0:0:
365,119,101302,1,2,0:0:0:0:
200,232,101468,1,8,0:0:0:0:
264,0,101635,5,8,0:0:0:0:
264,0,101718,1,8,0:0:0:0:
264,0,101802,1,8,0:0:0:0:
328,199,101968,2,0,B|338:233|338:233|328:266,1,70.4,8|4,0:3|0:3,0:0:0:0:
58,133,102302,6,0,B|195:169|139:65|272:94,1,228.799989526368,6|10,1:1|0:0,0:0:0:0:
511,171,102802,1,10,0:0:0:0:
306,349,102968,1,10,0:0:0:0:
390,201,103135,6,0,B|381:166|381:166|374:161|374:161|364:118,2,88.0000033569337,10|2|2,0:0|0:0|0:0,0:0:0:0:
464,295,103468,2,0,B|455:330|455:330|448:335|448:335|438:377,2,88.0000033569337,2|2|2,0:0|0:0|0:0,0:0:0:0:
511,171,103802,1,6,0:0:0:0:
54,354,113968,5,0,3:0:0:0:
54,354,114052,1,0,3:0:0:0:
54,354,114135,2,0,B|8:331|8:331|27:252,1,132.000005035401,8|6,0:0|1:2,0:0:0:0:
26,251,114802,6,0,P|90:259|141:219,1,132,8|0,0:0|0:0,0:0:0:0:
134,191,115135,1,2,1:3:0:0:
256,320,115302,2,0,P|263:276|269:232,1,88,2|8,1:2|0:0,0:0:0:0:
121,103,115635,1,2,1:2:0:0:
121,103,115802,2,0,P|128:147|134:191,1,88,2|0,0:3|1:0,0:0:0:0:
256,320,116135,6,0,B|339:295|339:295|356:339|403:354,1,176,10|2,0:0|1:3,0:0:0:0:
497,207,116635,1,0,1:0:0:0:
420,268,116802,2,0,P|414:224|407:180,1,88,8|0,0:0|0:0,0:0:0:0:
259,12,117135,6,0,B|317:63|317:63|310:118|275:150,1,176,2|8,1:3|0:0,0:0:0:0:
69,96,117635,1,0,3:0:0:0:
69,96,117718,1,0,3:0:0:0:
69,96,117802,2,0,L|53:9,1,88,2|2,1:3|1:2,0:0:0:0:
161,138,118135,1,8,0:0:0:0:
0,274,118302,6,0,P|62:215|146:231,1,176,2|0,1:2|1:0,0:0:0:0:
221,366,118802,2,0,P|177:359|133:353,1,88,10|0,0:0|0:0,0:0:0:0:
292,206,119135,2,0,P|299:250|305:294,1,88,2|0,1:3|1:0,0:0:0:0:
474,341,119468,2,0,P|485:253|499:166,1,176,10|2,0:0|1:3,0:0:0:0:
498,166,120135,6,0,P|434:167|389:122,1,132,8|0,0:0|0:0,0:0:0:0:
382,90,120468,1,2,1:3:0:0:
207,8,120635,2,0,P|215:51|223:94,1,88,2|8,1:2|0:0,0:0:0:0:
304,293,120968,6,0,P|219:282|159:343,1,176,2|0,1:2|1:0,0:0:0:0:
4,171,121468,2,0,P|46:186|87:201,1,88,10|0,0:0|0:0,0:0:0:0:
206,83,121802,1,2,1:3:0:0:
206,83,121968,1,0,1:0:0:0:
151,5,122135,2,0,P|113:56|117:120,1,132,8|0,0:0|0:0,0:0:0:0:
152,149,122468,6,0,B|201:117|201:117|266:127|285:190,1,176,6|8,1:2|0:0,0:0:0:0:
219,310,122968,1,0,3:0:0:0:
219,310,123052,1,0,3:0:0:0:
219,310,123135,2,0,P|210:267|202:224,1,88,2|0,1:3|1:0,0:0:0:0:
333,70,123468,1,8,0:0:0:0:
446,238,123635,6,0,B|386:275|386:275|308:263|285:188,1,211.199993554688,6|0,1:1|1:0,0:0:0:0:
224,0,124135,1,8,0:0:0:0:
202,223,124302,5,2,0:3:0:0:
202,223,124385,1,2,0:3:0:0:
202,223,124468,1,8,0:0:0:0:
333,70,124635,1,8,0:3:0:0:
106,38,124802,1,4,0:3:0:0:
120,282,125135,6,0,P|183:272|234:311,1,132.000005035401,4|2,1:2|0:1,0:0:0:0:
234,311,125635,1,2,1:2:0:0:
315,176,125802,2,0,P|308:144|301:112,2,66.0000025177003,10|2|2,0:0|0:0|1:1,0:0:0:0:
446,238,126302,2,0,P|460:174|474:110,1,132.000005035401,2|0,1:2|0:0,0:0:0:0:
325,241,126802,2,0,P|319:208|314:175,1,66.0000025177003,2|0,1:2|0:0,0:0:0:0:
209,88,127135,2,0,P|203:120|198:153,1,66.0000025177003,10|0,0:0|0:0,0:0:0:0:
120,282,127468,1,2,1:1:0:0:
120,282,127802,6,0,P|76:233|78:169,1,132.000005035401,6|2,1:1|0:1,0:0:0:0:
209,88,128302,2,0,P|204:120|199:153,1,66.0000025177003,2|8,1:2|0:0,0:0:0:0:
325,241,128635,2,0,P|320:208|313:175,1,66.0000025177003,2|2,0:0|1:1,0:0:0:0:
512,118,128968,6,0,B|440:95|457:148|384:126,1,132.000005035401,6|0,1:2|0:0,0:0:0:0:
209,88,129468,1,0,1:0:0:0:
311,0,129635,1,2,0:0:0:0:
313,175,129802,2,0,P|303:240|292:306,1,132.000005035401,10|8,0:0|1:2,0:0:0:0:
292,305,130468,6,0,P|328:282|371:286,1,88,4|8,1:2|0:0,0:0:0:0:
225,177,130802,2,0,L|214:220,3,44,8|8|8|8,1:2|0:0|0:0|0:0,0:0:0:0:
130,324,131135,2,0,L|119:281,3,44,8|8|8|8,1:2|0:0|0:0|0:0,0:0:0:0:
63,147,131468,2,0,L|52:189,3,44,8|8|8|8,1:2|0:0|0:0|0:0,0:0:0:0:
214,219,131802,5,10,1:2:0:0:
236,213,131885,1,8,0:0:0:0:
257,207,131968,1,8,0:0:0:0:
278,202,132052,1,8,0:0:0:0:
300,196,132135,2,0,L|311:154,3,44,10|8|8|8,1:2|0:0|0:0|0:0,0:0:0:0:
320,54,132468,5,10,1:2:0:0:
347,27,132551,1,8,0:0:0:0:
382,12,132634,1,8,0:0:0:0:
421,11,132718,1,8,0:0:0:0:
457,23,132801,1,10,1:2:0:0:
487,47,132884,1,8,0:0:0:0:
506,80,132968,1,8,0:0:0:0:
512,118,133051,1,8,0:0:0:0:
504,156,133134,5,6,1:2:0:0:
392,269,133302,1,8,0:0:0:0:
399,237,133385,1,8,0:0:0:0:
405,210,133469,1,8,1:2:0:0:
224,32,133635,1,8,0:0:0:0:
231,64,133718,1,8,0:0:0:0:
237,91,133802,5,8,1:2:0:0:
198,66,133885,1,8,0:0:0:0:
152,67,133968,1,8,0:0:0:0:
115,93,134052,1,8,0:0:0:0:
99,136,134135,1,8,1:2:0:0:
109,180,134218,1,8,0:0:0:0:
142,212,134302,6,0,L|152:169,1,44,10|8,0:0|0:0,0:0:0:0:
237,91,134468,2,0,L|248:134,1,44,10|8,1:2|0:0,0:0:0:0:
392,269,134635,1,8,0:0:0:0:
399,237,134718,1,8,0:0:0:0:
405,210,134802,2,0,L|362:221,1,44,10|8,1:2|0:0,0:0:0:0:
237,91,134968,1,8,0:0:0:0:
244,59,135051,1,8,0:0:0:0:
250,32,135135,5,10,1:2:0:0:
266,72,135218,1,8,0:0:0:0:
297,97,135301,1,8,0:0:0:0:
340,101,135385,1,8,0:0:0:0:
380,90,135468,5,2,1:2:0:0:
391,129,135551,1,8,0:3:0:0:
417,156,135635,1,4,0:3:0:0:
453,166,135718,1,4,0:3:0:0:
496,159,135801,5,6,1:2:0:0:
460,83,136135,5,8,1:2:0:0:
215,179,136302,1,8,1:2:0:0:
472,257,136468,1,10,1:2:0:0:
299,44,136635,1,8,1:2:0:0:
315,319,136802,1,8,1:2:0:0:
39,153,136968,6,0,B|151:115|151:115|168:160|214:178,1,211.199993554688,6|0,1:1|1:0,0:0:0:0:
471,118,137468,1,8,1:2:0:0:
406,341,137635,1,8,1:2:0:0:
299,44,137802,5,8,1:2:0:0:
478,255,137968,1,8,1:2:0:0:
217,324,138135,1,8,0:0:0:0:
178,316,138218,1,8,0:0:0:0:
139,309,138301,1,8,0:0:0:0:
100,301,138385,1,8,0:0:0:0:
60,295,138468,5,10,1:2:0:0:
299,213,138635,2,0,P|306:169|313:126,1,88,10|0,1:2|1:0,0:0:0:0:
75,162,138968,5,10,1:2:0:0:
285,299,139135,2,0,P|292:255|299:212,1,88,10|0,1:2|1:0,0:0:0:0:
207,13,139468,5,10,1:2:0:0:
285,299,139635,1,10,1:2:0:0:
285,299,139968,5,0,1:0:0:0:
457,100,140135,2,0,P|409:107|361:116,1,96.8000029541017,14|8,1:2|0:0,0:0:0:0:
312,126,140385,1,8,0:0:0:0:
312,126,140468,1,8,0:0:0:0:
285,299,140635,1,4,0:3:0:0:
121,100,140802,1,8,0:0:0:0:
82,85,140885,1,8,0:0:0:0:
42,94,140968,1,8,0:0:0:0:
11,121,141052,1,8,0:0:0:0:
0,160,141135,6,0,B|26:200|26:200|15:247,1,96.8000029541017,6|0,1:2|0:0,0:0:0:0:
198,378,141468,2,0,B|182:299|182:299|145:277|145:277|132:208,1,193.600005908203,10|0,0:0|1:0,0:0:0:0:
219,55,141968,1,0,1:0:0:0:
293,220,142135,2,0,P|302:172|311:125,1,96.8000029541017,10|0,0:0|1:0,0:0:0:0:
512,354,142468,6,0,P|442:291|351:309,1,193.600005908203,2|10,0:0|0:0,0:0:0:0:
90,166,142968,1,2,0:0:0:0:
90,166,143052,1,2,0:0:0:0:
90,166,143135,1,0,1:0:0:0:
311,124,143302,1,0,1:0:0:0:
227,285,143468,2,0,P|236:333|245:380,1,96.8000029541017,10|0,0:0|0:0,0:0:0:0:
448,189,143802,6,0,B|398:150|398:150|328:163|293:219,1,193.600005908203,2|8,1:2|0:0,0:0:0:0:
90,166,144302,1,0,3:0:0:0:
90,166,144385,1,0,3:0:0:0:
90,166,144468,2,0,P|82:118|74:70,1,96.8000029541017,0|0,1:0|1:0,0:0:0:0:
164,17,144802,1,8,0:0:0:0:
0,232,144968,6,0,B|109:210|64:292|181:264,1,193.600005908203,2|0,1:2|1:0,0:0:0:0:
339,148,145468,1,8,0:0:0:0:
361,349,145635,1,0,3:0:0:0:
361,349,145718,1,0,3:0:0:0:
361,349,145802,1,0,1:0:0:0:
211,167,145968,1,0,1:0:0:0:
418,244,146135,2,0,P|464:229|510:215,1,96.8000029541017,10|0,0:0|0:0,0:0:0:0:
401,21,146468,6,0,B|382:11|382:11|346:21|346:21|301:79|339:148,1,193.600005908203,2|10,1:3|0:0,0:0:0:0:
181,264,146968,1,0,3:0:0:0:
181,264,147052,1,0,3:0:0:0:
181,264,147135,2,0,P|171:216|162:169,1,96.8000029541017,0|0,1:0|1:0,0:0:0:0:
130,71,147468,1,8,0:0:0:0:
55,319,147635,6,0,B|125:293|125:293|191:312|214:366,1,193.600005908203,2|0,1:3|1:0,0:0:0:0:
418,244,148135,2,0,P|428:196|437:149,1,96.8000029541017,10|2,0:0|0:0,0:0:0:0:
255,58,148468,1,0,1:0:0:0:
312,270,148635,1,0,1:0:0:0:
95,176,148802,2,0,P|47:186|0:195,1,96.8000029541017,10|0,0:0|0:0,0:0:0:0:
132,361,149135,6,0,B|165:303|233:310|233:310|250:348|286:356,1,193.600005908203,6|8,1:2|0:0,0:0:0:0:
444,225,149635,1,0,3:0:0:0:
444,225,149718,1,0,3:0:0:0:
444,225,149802,1,0,1:0:0:0:
242,157,149968,1,2,1:2:0:0:
378,329,150135,1,10,0:0:0:0:
437,49,150302,6,0,B|401:124|322:109|322:109|302:70|251:70,1,228.799989526368,6|0,1:1|1:0,0:0:0:0:
28,239,150802,2,0,B|61:249|78:281|78:281|57:165,1,184.799994360352,8|0,0:0|0:0,0:0:0:0:
29,93,151135,2,0,P|68:119|115:114,1,96.8000029541017,4|4,0:3|0:3,0:0:0:0:
437,49,151468,1,8,0:0:0:0:
392,65,151551,1,8,0:0:0:0:
363,104,151634,1,8,0:0:0:0:
359,151,151718,1,8,0:0:0:0:
380,194,151802,6,0,B|424:168|424:168|467:181,1,96.8000029541017,6|0,1:2|0:0,0:0:0:0:
230,13,152135,2,0,B|212:78|212:78|237:126|237:126|221:196,1,193.600005908203,10|0,0:0|1:0,0:0:0:0:
177,384,152635,1,0,1:0:0:0:
25,176,152801,2,0,P|78:128|147:139,1,145.200004431152,10|0,0:0|0:0,0:0:0:0:
220,196,153135,6,0,P|315:175|408:156,1,193.600005908203,2|10,0:0|0:0,0:0:0:0:
295,0,153635,1,0,3:0:0:0:
295,0,153718,1,0,3:0:0:0:
295,0,153801,1,0,1:0:0:0:
512,57,153968,1,0,1:0:0:0:
326,217,154135,2,0,P|336:264|344:311,1,96.8000029541017,8|0,0:0|0:0,0:0:0:0:
444,344,154385,5,0,3:0:0:0:
438,329,154468,2,0,B|331:309|368:392|259:373,1,193.600005908203,6|8,1:2|0:0,0:0:0:0:
60,293,154968,1,0,3:0:0:0:
60,293,155051,1,0,3:0:0:0:
60,293,155135,1,2,1:2:0:0:
219,196,155301,1,0,1:0:0:0:
171,384,155468,1,8,0:0:0:0:
127,145,155635,6,0,B|183:99|183:99|270:82|319:155,1,228.799989526368,6|0,1:1|1:0,0:0:0:0:
429,72,156135,1,8,0:0:0:0:
508,274,156301,1,0,3:0:0:0:
508,274,156385,1,0,3:0:0:0:
508,274,156468,2,0,P|460:265|412:257,1,96.8000029541017,0|0,1:0|1:0,0:0:0:0:
367,250,156718,1,0,1:0:0:0:
367,250,156801,1,8,0:0:0:0:
171,384,156968,1,0,3:0:0:0:
171,384,157052,1,0,3:0:0:0:
171,384,157135,6,0,B|108:360|108:360|69:306|93:239,1,193.600005908203,6|8,1:2|0:0,0:0:0:0:
248,54,157635,2,0,P|239:102|231:150,1,96.8000029541017,0|0,3:0|1:0,0:0:0:0:
93,240,157968,2,0,P|85:192|75:144,1,96.8000029541017,0|8,1:0|0:0,0:0:0:0:
258,372,158301,6,0,P|326:309|417:329,1,193.600005908203,6|0,1:1|1:0,0:0:0:0:
501,154,158801,1,10,0:0:0:0:
298,206,158968,1,0,3:0:0:0:
298,206,159051,1,0,3:0:0:0:
298,206,159135,1,2,1:2:0:0:
371,38,159301,1,2,1:2:0:0:
428,282,159468,2,0,L|417:329,1,48.4000014770508,8|0,0:0|0:0,0:0:0:0:
295,205,159635,6,0,B|170:170|170:170|160:221|113:246,1,228.799989526368,6|0,1:2|1:0,0:0:0:0:
72,95,160135,1,8,0:0:0:0:
218,272,160301,1,8,0:0:0:0:
218,272,160385,1,8,0:0:0:0:
218,272,160468,2,0,P|207:319|197:366,1,96.8000029541017,8|8,0:0|0:3,0:0:0:0:
250,103,160802,1,4,0:3:0:0:
428,282,160968,6,0,P|505:230|505:137,1,193.600005908203,6|4,1:1|0:3,0:0:0:0:
346,0,161468,2,0,B|328:59|328:59|343:104|343:104|325:163,1,171.599992144776,10|0,0:0|0:0,0:0:0:0:
304,217,161801,5,0,1:0:0:0:
104,159,161968,1,4,0:3:0:0:
165,377,162135,1,8,0:0:0:0:
172,345,162218,1,8,0:0:0:0:
180,314,162301,1,8,0:0:0:0:
188,283,162385,1,8,0:0:0:0:
196,251,162468,6,0,B|206:219|206:219|119:238|119:238|112:283|67:303,1,211.199993554688,6|8,1:2|0:0,0:0:0:0:
10,102,162968,1,6,1:1:0:0:
10,102,163052,1,2,0:0:0:0:
10,102,163135,1,2,0:0:0:0:
66,304,163302,1,0,1:0:0:0:
153,139,163468,6,0,B|202:87|270:105|270:105|280:147|325:163,1,211.199993554688,10|0,0:0|0:0,0:0:0:0:
483,49,163968,1,0,1:0:0:0:
324,163,164135,2,0,L|338:58,1,105.599996777344,8|0,0:0|0:0,0:0:0:0:
481,293,164468,2,0,L|495:188,1,105.599996777344,0|0,1:0|1:0,0:0:0:0:
314,347,164802,1,8,0:0:0:0:
290,315,164885,1,8,0:0:0:0:
255,297,164968,1,8,0:0:0:0:
216,297,165052,1,8,0:0:0:0:
180,314,165135,5,6,1:2:0:0:
113,111,165302,1,0,3:0:0:0:
113,111,165385,1,0,3:0:0:0:
113,111,165468,1,8,0:0:0:0:
323,162,165635,2,0,B|385:114|347:6|347:6|316:33,1,211.199993554688,6|0,1:1|1:0,0:0:0:0:
235,224,166135,6,0,P|310:209|372:255,1,158.399995166016,10|0,0:0|0:0,0:0:0:0:
222,248,166468,2,0,L|208:143,1,105.599996777344,2|0,0:0|1:0,0:0:0:0:
33,267,166802,6,0,B|62:243|62:243|136:264|136:264|141:316|192:335,1,211.199993554688,8|0,0:0|1:0,0:0:0:0:
323,162,167302,1,0,1:0:0:0:
222,248,167468,1,8,0:0:0:0:
218,221,167551,1,8,0:0:0:0:
215,195,167634,1,8,0:0:0:0:
211,169,167718,1,8,0:0:0:0:
208,143,167801,1,4,1:2:0:0:
332,14,167968,1,0,3:0:0:0:
332,14,168052,1,0,3:0:0:0:
332,14,168135,2,0,L|325:66,1,52.7999983886719,10|0,0:0|0:0,0:0:0:0:
488,135,168302,6,0,B|447:89|396:110|396:110|365:168|304:148,1,211.199993554688,4|0,1:0|1:0,0:0:0:0:
67,29,168802,2,0,B|90:20|108:2|108:2|84:107,1,158.399995166016,8|0,0:0|0:0,0:0:0:0:
71,158,169135,1,2,0:0:0:0:
299,232,169302,1,0,1:0:0:0:
239,25,169468,1,8,0:0:0:0:
159,270,169635,5,0,3:0:0:0:
159,270,169718,1,0,3:0:0:0:
159,270,169802,1,0,1:0:0:0:
393,198,169968,1,0,1:0:0:0:
218,45,170135,1,8,0:0:0:0:
299,232,170302,2,0,L|287:283,1,52.7999983886719,2|0,0:3|0:0,0:0:0:0:
260,367,170468,5,6,1:2:0:0:
190,143,170635,1,2,1:2:0:0:
415,202,170802,1,10,0:0:0:0:
347,0,170968,5,10,0:0:0:0:
347,0,171052,1,8,0:0:0:0:
347,0,171135,1,8,0:0:0:0:
286,283,171302,1,2,1:2:0:0:
286,283,171635,6,0,B|212:267|212:267|183:219|183:219|105:202,1,211.199993554688,6|10,1:1|0:0,0:0:0:0:
282,167,172135,1,8,0:0:0:0:
122,324,172302,1,10,0:0:0:0:
357,367,172468,5,8,0:0:0:0:
105,202,172635,1,10,0:0:0:0:
336,93,172802,1,4,1:0:0:0:
270,313,172968,2,0,L|258:262,1,52.7999983886719,2|0,0:0|0:0,0:0:0:0:
153,101,173135,6,0,B|181:76|181:76|251:100|251:100|254:157|308:178,1,211.199993554688,6|10,1:2|0:0,0:0:0:0:
429,42,173635,1,2,0:0:0:0:
429,42,173718,1,2,0:0:0:0:
429,42,173802,1,2,1:2:0:0:
304,176,173968,2,0,P|312:126|321:71,1,105.599996777344,2|8,1:2|0:0,0:0:0:0:
460,253,174302,6,0,B|432:231|432:231|371:252|371:252|343:313|381:355,1,211.199993554688,2|0,1:3|1:0,0:0:0:0:
304,176,174802,1,8,0:0:0:0:
381,355,174968,1,0,3:0:0:0:
381,355,175052,1,0,3:0:0:0:
380,354,175135,2,0,P|335:327|283:330,1,105.599996777344,0|0,1:0|1:0,0:0:0:0:
102,251,175468,1,8,0:0:0:0:
178,379,175635,5,2,0:3:0:0:
178,379,175718,1,2,0:3:0:0:
178,379,175802,2,0,B|157:343|157:343|176:297|176:297|202:285|202:285|222:232|222:232|205:201,1,211.199993554688,2|8,1:3|0:0,0:0:0:0:
303,89,176302,1,0,3:0:0:0:
303,89,176385,1,0,3:0:0:0:
302,89,176468,2,0,P|251:99|205:74,1,105.599996777344,0|0,1:0|1:0,0:0:0:0:
75,1,176802,1,8,0:0:0:0:
307,85,176968,6,0,B|190:55|225:148|108:123,1,211.199993554688,2|0,1:3|1:0,0:0:0:0:
281,192,177468,1,8,0:0:0:0:
139,302,177635,1,2,0:3:0:0:
139,302,177718,1,2,0:3:0:0:
139,302,177802,1,2,1:3:0:0:
351,351,177968,1,0,1:0:0:0:
299,105,178135,1,8,0:0:0:0:
267,272,178302,2,0,P|294:275|318:266,1,52.7999983886719,2|2,0:0|0:0,0:0:0:0:
458,287,178468,6,0,B|423:236|352:253|352:253|325:302|257:289,1,228.799989526368,6|8,1:2|0:0,0:0:0:0:
43,180,178968,1,0,3:0:0:0:
43,180,179052,1,0,3:0:0:0:
43,180,179135,2,0,L|51:232,1,52.7999983886719,2|0,1:2|0:0,0:0:0:0:
156,305,179302,6,0,L|168:370,1,66.0000025177003,0|8,1:0|0:0,0:0:0:0:
323,95,179635,6,0,B|251:58|208:118|208:118|197:168|137:179,1,228.799989526368,2|0,1:2|1:0,0:0:0:0:
37,27,180135,1,8,0:0:0:0:
138,178,180302,1,0,3:0:0:0:
138,178,180385,1,0,3:0:0:0:
138,178,180468,2,0,P|129:121|121:64,1,114.399994763184,2|0,1:3|1:0,0:0:0:0:
57,310,180802,1,8,0:0:0:0:
259,260,180968,1,2,0:0:0:0:
259,260,181052,1,2,0:0:0:0:
259,260,181135,2,0,B|333:285|333:285|360:353|360:353|432:380,1,228.799989526368,2|10,1:2|0:0,0:0:0:0:
434,289,181635,6,0,B|374:253|330:301|330:301|304:358|235:343,1,228.799989526368,2|0,0:0|1:0,0:0:0:0:
112,180,182135,1,10,0:0:0:0:
259,260,182302,6,0,B|328:201|285:122|285:122|240:93|240:93|206:114,1,246.399992480469,6|0,1:1|1:0,0:0:0:0:
12,230,182802,1,8,0:0:0:0:
55,23,182968,1,0,1:0:0:0:
55,23,183052,1,0,1:0:0:0:
55,23,183135,1,8,0:3:0:0:
155,258,183302,1,0,1:0:0:0:
310,81,183468,1,8,0:0:0:0:
355,55,183551,1,8,0:0:0:0:
406,63,183634,1,8,0:0:0:0:
441,100,183718,1,8,0:0:0:0:
444,151,183802,6,0,B|335:110|378:195|268:157,1,184.799994360352,6|0,1:2|0:0,0:0:0:0:
250,162,184135,6,0,P|273:174|298:181,1,52.7999983886719,10|0,0:0|0:0,0:0:0:0:
467,312,184302,2,0,P|441:319|418:331,1,52.7999983886719,2|0,0:0|0:0,0:0:0:0:
270,362,184468,2,0,B|261:314|261:314|266:304|266:304|258:259,1,105.599996777344,2|2,1:2|1:2,0:0:0:0:
159,141,184802,1,8,0:0:0:0:
19,306,184968,6,0,B|53:226|130:249|130:249|146:285|183:291,1,211.199993554688,2|0,1:3|1:0,0:0:0:0:
386,202,185468,1,10,0:0:0:0:
240,106,185635,1,0,3:0:0:0:
240,106,185718,1,0,3:0:0:0:
240,106,185802,2,0,P|248:53|257:1,1,105.599996777344,0|0,1:0|1:0,0:0:0:0:
117,131,186135,1,10,0:0:0:0:
386,202,186302,5,2,0:3:0:0:
386,202,186385,1,2,0:3:0:0:
386,202,186468,2,0,B|355:144|303:160|303:160|268:207|205:185,1,211.199993554688,2|8,1:3|0:0,0:0:0:0:
5,135,186968,1,0,3:0:0:0:
5,135,187052,1,0,3:0:0:0:
5,135,187135,1,0,1:0:0:0:
137,21,187302,1,0,1:0:0:0:
81,243,187468,1,8,0:0:0:0:
283,99,187635,6,0,B|309:77|309:77|365:92|365:92|413:143|386:201,1,211.199993554688,2|0,1:3|1:0,0:0:0:0:
202,247,188135,1,10,0:0:0:0:
297,384,188302,1,0,3:0:0:0:
297,384,188385,1,0,3:0:0:0:
297,383,188468,2,0,P|318:335|312:283,1,105.599996777344,0|0,1:0|1:0,0:0:0:0:
175,133,188802,6,0,B|89:108|89:108|83:144|51:165,1,158.399995166016,10|0,0:0|0:0,0:0:0:0:
49,176,189135,6,0,P|98:109|70:31,1,171.599992144776,6|0,1:2|0:0,0:0:0:0:
49,11,189468,1,10,0:0:0:0:
0,253,189635,6,0,B|28:228|28:228|98:252|98:252|101:309|155:330,1,211.199993554688,2|0,0:3|1:0,0:0:0:0:
175,133,190135,1,8,0:0:0:0:
90,381,190302,6,0,B|135:355|150:297|150:297|194:329|248:329,1,211.199993554688,2|0,1:3|1:0,0:0:0:0:
373,183,190802,1,8,0:0:0:0:
248,329,190968,1,0,3:0:0:0:
248,329,191052,1,0,3:0:0:0:
248,329,191135,2,0,B|238:271|229:224,1,105.599996777344,0|0,1:0|1:0,0:0:0:0:
289,6,191468,2,0,B|332:48|332:48|332:108|287:130,1,158.399995166016,8|0,0:0|0:0,0:0:0:0:
244,112,191802,5,6,1:2:0:0:
361,234,191968,1,2,0:0:0:0:
361,234,192052,1,2,0:0:0:0:
361,234,192135,2,0,L|372:182,1,52.7999983886719,10|0,0:0|0:0,0:0:0:0:
232,60,192302,1,10,0:0:0:0:
232,60,192386,1,8,0:0:0:0:
232,60,192469,2,0,L|243:111,1,52.7999983886719,8|0,0:0|0:0,0:0:0:0:
229,225,192635,5,8,0:3:0:0:
75,22,192802,1,4,0:3:0:0:
138,297,192968,6,0,B|56:280|52:152|205:111|315:191|169:330|363:405|469:357|499:212|411:159,1,633.6,6|0,1:1|0:0,0:0:0:0:
416,33,199468,6,0,B|429:22|452:26|452:26|428:130|428:130|410:137|399:128,1,176,8|4,0:0|1:2,0:0:0:0:
398,127,200135,6,0,L|406:170,3,44,8|8|8|8,1:2|0:0|0:0|0:0,0:0:0:0:
297,225,200468,2,0,L|305:181,3,44,8|8|8|8,1:2|0:0|0:0|0:0,0:0:0:0:
206,94,200802,2,0,L|214:137,3,44,8|8|8|8,1:2|0:0|0:0|0:0,0:0:0:0:
118,256,201135,5,10,1:2:0:0:
146,240,201218,1,8,0:0:0:0:
179,239,201301,1,8,0:0:0:0:
209,253,201385,1,8,0:0:0:0:
230,278,201468,2,0,L|222:322,3,44,10|8|8|8,1:2|0:0|0:0|0:0,0:0:0:0:
375,348,201802,5,10,1:2:0:0:
402,315,201885,1,8,0:0:0:0:
410,272,201968,1,8,0:0:0:0:
397,231,202052,1,8,0:0:0:0:
366,200,202135,1,10,1:2:0:0:
337,185,202218,1,8,0:0:0:0:
304,181,202301,1,8,0:0:0:0:
272,189,202385,1,8,0:0:0:0:
245,207,202468,5,6,1:2:0:0:
118,97,202635,1,8,0:0:0:0:
125,65,202718,1,8,0:0:0:0:
131,38,202802,1,8,1:2:0:0:
16,195,202968,1,8,0:0:0:0:
23,227,203051,1,8,0:0:0:0:
29,253,203135,5,8,1:2:0:0:
63,241,203218,1,8,0:0:0:0:
99,240,203301,1,8,0:0:0:0:
134,252,203385,1,8,0:0:0:0:
162,274,203468,1,8,1:2:0:0:
182,305,203551,1,8,0:0:0:0:
190,341,203635,2,0,L|234:333,1,44,10|8,0:0|0:0,0:0:0:0:
288,214,203802,6,0,L|244:206,1,44,10|8,1:2|0:0,0:0:0:0:
142,113,203968,1,8,0:0:0:0:
119,87,204051,1,8,0:0:0:0:
129,54,204135,2,0,L|172:65,1,44,10|8,1:2|0:0,0:0:0:0:
301,155,204302,1,8,0:0:0:0:
278,181,204385,1,8,0:0:0:0:
288,214,204469,2,0,L|331:203,1,44,10|8,1:2|0:0,0:0:0:0:
505,290,204635,5,8,0:0:0:0:
471,278,204718,1,8,0:0:0:0:
459,247,204801,1,2,1:2:0:0:
467,204,204885,1,8,0:3:0:0:
476,161,204968,1,4,0:3:0:0:
484,117,205051,1,4,0:3:0:0:
492,74,205135,1,6,1:2:0:0:
492,74,205468,5,8,1:2:0:0:
288,214,205635,1,8,1:2:0:0:
297,6,205802,1,10,1:2:0:0:
385,218,205968,1,8,1:2:0:0:
130,153,206135,1,8,1:2:0:0:
241,366,206302,6,0,B|257:334|257:288|257:288|230:242|230:242|252:208|251:168,1,211.199993554688,6|0,1:1|1:0,0:0:0:0:
103,39,206802,5,8,1:2:0:0:
144,320,206968,1,8,1:2:0:0:
274,75,207135,1,8,1:2:0:0:
27,186,207302,1,8,1:2:0:0:
311,253,207468,1,8,0:0:0:0:
349,243,207551,1,8,0:0:0:0:
388,234,207634,1,8,0:0:0:0:
426,225,207718,1,8,0:0:0:0:
465,216,207801,5,10,1:2:0:0:
199,198,207968,2,0,P|191:154|183:111,1,88,10|0,1:2|1:0,0:0:0:0:
349,243,208302,5,10,1:2:0:0:
318,15,208469,2,0,P|310:58|302:101,1,88,10|0,1:2|1:0,0:0:0:0:
256,361,208802,5,10,1:2:0:0:
22,215,208968,2,0,B|43:188|43:188|113:205|113:205|119:264|174:281,1,211.199993554688,14|0,1:2|1:0,0:0:0:0:
365,150,209468,1,8,0:0:0:0:
226,14,209635,1,8,0:0:0:0:
226,14,209718,1,8,0:0:0:0:
226,14,209802,1,8,0:0:0:0:
199,198,209968,1,8,0:3:0:0:
484,139,210135,1,10,1:2:0:0:
474,177,210218,1,10,1:2:0:0:
465,216,210301,1,10,1:2:0:0:
456,254,210385,1,10,1:2:0:0:
447,293,210468,5,10,1:2:0:0:
199,198,210635,2,0,P|156:206|113:214,1,88,10|0,1:2|1:0,0:0:0:0:
270,363,210968,5,10,1:2:0:0:
367,147,211135,2,0,P|359:104|351:61,1,88,10|0,1:2|1:0,0:0:0:0:
314,259,211468,5,10,1:2:0:0:
229,43,211635,2,0,B|151:59|151:59|127:108|127:108|52:125,1,211.199993554688,14|0,1:2|1:0,0:0:0:0:
126,363,212135,5,10,1:2:0:0:
131,337,212218,1,8,0:0:0:0:
136,311,212301,1,8,0:0:0:0:
141,285,212385,1,8,0:0:0:0:
125,235,212468,5,10,1:2:0:0:
163,251,212551,1,8,0:0:0:0:
207,248,212634,1,8,0:0:0:0:
243,225,212718,1,8,0:0:0:0:
264,187,212801,1,10,1:2:0:0:
285,148,212884,1,8,0:0:0:0:
321,125,212968,1,8,0:0:0:0:
364,121,213051,1,8,0:0:0:0:
404,139,213135,6,0,B|421:90|421:90|406:47,1,96.8000029541017,6|0,1:2|0:0,0:0:0:0:
221,0,213468,2,0,B|208:69|208:69|166:100|166:100|151:169,1,193.600005908203,10|0,0:0|1:0,0:0:0:0:
124,363,213968,1,0,1:0:0:0:
0,278,214135,2,0,P|48:269|95:260,1,96.8000029541017,10|0,0:0|1:0,0:0:0:0:
312,214,214468,6,0,B|346:267|346:267|336:342|268:362,1,193.600005908203,2|10,0:0|0:0,0:0:0:0:
212,181,214968,1,2,0:0:0:0:
212,181,215052,1,2,0:0:0:0:
212,181,215135,1,0,1:0:0:0:
372,130,215302,1,0,1:0:0:0:
258,12,215468,2,0,P|267:60|276:107,1,96.8000029541017,10|0,0:0|0:0,0:0:0:0:
424,332,215802,6,0,B|374:293|374:293|304:306|269:362,1,193.600005908203,2|8,1:2|0:0,0:0:0:0:
475,260,216302,1,0,3:0:0:0:
475,260,216385,1,0,3:0:0:0:
475,260,216468,2,0,P|467:212|459:164,1,96.8000029541017,0|0,1:0|1:0,0:0:0:0:
426,4,216802,1,8,0:0:0:0:
312,214,216968,6,0,B|203:236|248:154|131:182,1,193.600005908203,2|0,1:2|1:0,0:0:0:0:
283,118,217468,1,8,0:0:0:0:
134,1,217635,1,0,3:0:0:0:
134,1,217718,1,0,3:0:0:0:
134,1,217802,1,0,1:0:0:0:
175,266,217968,1,0,1:0:0:0:
15,180,218135,2,0,P|62:169|109:159,1,96.8000029541017,10|0,0:0|0:0,0:0:0:0:
309,297,218468,6,0,B|240:262|240:262|189:280|162:343,1,193.600005908203,2|10,1:3|0:0,0:0:0:0:
114,165,218968,1,0,3:0:0:0:
114,165,219052,1,0,3:0:0:0:
114,165,219135,2,0,P|104:213|95:260,1,96.8000029541017,0|0,1:0|1:0,0:0:0:0:
15,180,219468,1,8,0:0:0:0:
162,343,219635,6,0,B|231:378|231:378|282:360|308:296,1,193.600005908203,2|0,1:3|1:0,0:0:0:0:
199,102,220135,2,0,P|209:150|218:197,1,96.8000029541017,10|0,0:0|0:0,0:0:0:0:
308,296,220468,1,0,1:0:0:0:
308,296,220635,1,0,1:0:0:0:
426,164,220802,2,0,P|416:212|407:259,1,96.8000029541017,10|0,0:0|0:0,0:0:0:0:
249,7,221135,6,0,P|187:75|95:59,1,193.600005908203,6|8,1:2|0:0,0:0:0:0:
32,259,221635,1,0,3:0:0:0:
32,259,221718,1,0,3:0:0:0:
32,259,221802,1,0,1:0:0:0:
256,189,221968,1,2,1:2:0:0:
95,59,222135,1,10,0:0:0:0:
115,333,222302,6,0,B|146:265|225:280|225:280|252:326|305:319,1,228.799989526368,6|0,1:1|1:0,0:0:0:0:
386,108,222802,2,0,B|353:98|336:66|336:66|357:182,1,184.799994360352,8|0,0:0|0:0,0:0:0:0:
386,219,223135,2,0,P|339:209|295:229,1,96.8000029541017,0|4,1:0|0:3,0:0:0:0:
72,374,223468,1,8,0:0:0:0:
65,338,223551,1,8,0:0:0:0:
59,302,223634,1,8,0:0:0:0:
52,266,223718,1,8,0:0:0:0:
46,231,223802,6,0,B|87:257|87:257|134:246,1,96.8000029541017,6|0,1:2|0:0,0:0:0:0:
246,5,224135,2,0,B|264:70|264:70|239:118|239:118|255:188,1,193.600005908203,10|0,0:0|1:0,0:0:0:0:
287,369,224635,1,0,1:0:0:0:
493,299,224801,2,0,P|440:251|371:262,1,145.200004431152,10|0,0:0|0:0,0:0:0:0:
330,235,225135,6,0,B|291:284|291:284|162:256,1,193.600005908203,2|10,0:0|0:0,0:0:0:0:
24,179,225635,1,0,3:0:0:0:
24,179,225718,1,0,3:0:0:0:
24,179,225801,1,0,1:0:0:0:
229,143,225968,1,0,1:0:0:0:
95,0,226135,2,0,P|105:47|113:94,1,96.8000029541017,8|0,0:0|0:0,0:0:0:0:
29,198,226385,5,0,3:0:0:0:
24,179,226468,2,0,B|131:159|94:242|203:223,1,193.600005908203,6|8,1:2|0:0,0:0:0:0:
406,156,226968,1,0,3:0:0:0:
406,156,227051,1,0,3:0:0:0:
406,156,227135,1,2,1:2:0:0:
246,48,227301,1,0,1:0:0:0:
319,275,227468,1,8,0:0:0:0:
79,215,227635,6,0,B|24:262|37:335|90:369|90:369|133:350,1,228.799989526368,6|0,1:1|1:0,0:0:0:0:
319,275,228135,1,8,0:0:0:0:
187,146,228302,1,8,0:0:0:0:
250,384,228468,5,0,1:0:0:0:
430,234,228635,1,0,1:0:0:0:
430,234,228718,1,0,1:0:0:0:
430,234,228802,1,8,0:0:0:0:
190,288,228968,1,2,0:0:0:0:
288,20,229135,6,0,B|276:89|276:89|301:136|301:136|290:205,1,193.600005908203,6|8,1:2|0:0,0:0:0:0:
77,371,229635,2,0,P|68:323|60:275,1,96.8000029541017,0|0,3:0|1:0,0:0:0:0:
207,192,229968,2,0,P|199:240|189:288,1,96.8000029541017,0|8,1:0|0:0,0:0:0:0:
23,24,230301,6,0,B|60:68|60:68|126:88|182:17,1,193.600005908203,6|0,1:1|1:0,0:0:0:0:
328,256,230801,1,10,0:0:0:0:
112,216,230968,1,0,3:0:0:0:
112,216,231051,1,0,3:0:0:0:
112,216,231135,1,2,1:2:0:0:
255,57,231301,1,2,1:2:0:0:
209,331,231468,1,8,0:0:0:0:
242,317,231551,1,8,0:0:0:0:
278,319,231634,1,8,0:0:0:0:
310,335,231718,1,8,0:0:0:0:
333,363,231801,5,14,1:2:0:0:
126,285,231968,1,0,1:0:0:0:
311,121,232135,1,8,0:0:0:0:
242,317,232301,5,0,1:0:0:0:
242,317,232385,1,0,1:0:0:0:
242,317,232468,1,8,0:0:0:0:
421,167,232635,1,0,1:0:0:0:
184,80,232802,1,8,0:0:0:0:
260,227,232968,2,0,L|250:179,1,48.4000014770508,6|0,1:1|0:0,0:0:0:0:
143,1,233135,6,0,P|100:56|112:126,1,145.200004431152,2|0,0:0|0:0,0:0:0:0:
181,178,233468,1,8,0:0:0:0:
175,214,233551,1,8,0:0:0:0:
169,250,233634,1,8,0:0:0:0:
164,286,233718,1,8,0:3:0:0:
158,322,233801,1,0,1:0:0:0:
49,161,233968,1,4,0:3:0:0:
293,296,234135,2,0,L|462:268,1,171.599992144776,8|0,0:0|0:0,0:0:0:0:
454,172,234468,6,0,B|434:156|434:156|393:163|393:163|344:231|384:280,1,193.600005908203,6|8,1:2|0:0,0:0:0:0:
226,351,234968,1,0,3:0:0:0:
220,357,235052,1,0,3:0:0:0:
215,367,235135,2,0,B|190:324|190:324|201:278,1,96.8000029541017,0|0,1:0|1:0,0:0:0:0:
241,107,235468,1,8,0:0:0:0:
56,214,235635,6,0,B|92:227|92:227|150:223|162:158,1,145.200004431152,2|0,1:3|0:0,0:0:0:0:
123,17,235968,2,0,P|91:52|92:99,1,96.8000029541017,0|8,1:0|0:0,0:0:0:0:
268,200,236301,1,0,3:0:0:0:
268,200,236385,1,0,3:0:0:0:
268,200,236468,1,0,1:0:0:0:
220,17,236635,1,0,1:0:0:0:
219,294,236802,2,0,P|276:252|364:276,1,145.200004431152,8|0,0:0|0:0,0:0:0:0:
415,326,237135,6,0,B|434:253|434:253|413:210|413:210|429:141,1,193.600005908203,2|8,1:3|0:0,0:0:0:0:
220,17,237635,1,0,3:0:0:0:
220,17,237718,1,0,3:0:0:0:
220,17,237801,2,0,P|227:63|236:111,1,96.8000029541017,0|0,1:0|1:0,0:0:0:0:
219,294,238135,5,8,0:0:0:0:
61,133,238302,2,0,B|97:104|97:104|155:124|138:180,1,145.200004431152,2|0,1:3|0:0,0:0:0:0:
73,231,238635,2,0,P|82:278|91:325,1,96.8000029541017,0|8,1:0|0:0,0:0:0:0:
255,207,238968,1,0,3:0:0:0:
255,207,239051,1,0,3:0:0:0:
255,207,239135,1,0,1:0:0:0:
61,133,239301,1,0,1:0:0:0:
219,294,239468,2,0,B|298:265|298:265|330:278|343:304,1,145.200004431152,8|0,0:0|0:0,0:0:0:0:
389,364,239801,6,0,P|416:325|411:277,1,96.8000029541017,6|2,1:2|0:0,0:0:0:0:
309,0,240135,2,0,L|282:132,1,145.200004431152,10|0,0:0|0:0,0:0:0:0:
294,158,240468,2,0,L|341:148,1,48.4000014770508,0|0,1:0|0:0,0:0:0:0:
473,27,240635,6,0,L|405:12,1,70.4,2|8,1:2|0:0,0:0:0:0:
294,158,240968,6,0,B|232:188|232:188|164:153|155:75,1,211.199993554688,6|0,1:1|1:0,0:0:0:0:
2,231,241468,1,10,0:0:0:0:
224,291,241635,1,0,3:0:0:0:
224,291,241718,1,0,3:0:0:0:
224,291,241801,1,0,1:0:0:0:
155,75,241968,1,0,1:0:0:0:
101,325,242135,2,0,P|50:339|0:353,1,105.599996777344,10|0,0:0|0:0,0:0:0:0:
21,147,242468,5,6,1:2:0:0:
254,207,242635,1,2,0:0:0:0:
186,0,242801,1,8,0:0:0:0:
137,231,242968,5,8,0:0:0:0:
137,231,243051,1,8,0:0:0:0:
137,231,243135,1,8,0:0:0:0:
381,151,243301,2,0,B|391:185|391:185|381:218,1,70.4,8|4,0:3|0:3,0:0:0:0:
167,384,243635,6,0,B|213:338|217:281|217:281|262:322|316:326,1,228.799989526368,6|2,1:1|1:2,0:0:0:0:
512,241,244135,1,10,0:0:0:0:
281,18,244302,2,0,L|270:65,1,48.4000014770508,10|10,0:0|0:0,0:0:0:0:
217,281,244468,5,10,1:2:0:0:
155,292,244551,1,10,0:0:0:0:
97,276,244634,1,10,1:2:0:0:
50,236,244718,1,10,0:0:0:0:
27,179,244801,1,8,0:0:0:0:
31,117,244884,1,8,0:0:0:0:
62,65,244968,1,6,1:2:0:0:
256,192,245052,12,0,250468,0:0:0:0:
