osu file format v14

[General]
AudioFilename: audio.mp3
AudioLeadIn: 0
PreviewTime: 70802
Countdown: 0
SampleSet: Soft
StackLeniency: 0.6
Mode: 0
LetterboxInBreaks: 0
WidescreenStoryboard: 0

[Editor]
Bookmarks: 34385,44802,71802,103718,114135,162468,173135,194468,199468,213135,234468,244968,250468
DistanceSpacing: 1.2
BeatDivisor: 4
GridSize: 8
TimelineZoom: 1.6

[Metadata]
Title:I'm in the side
TitleUnicode:I'm in the side
Artist:Duca
ArtistUnicode:Duca
Creator:Bellicose
Version:Mimari's Hard
Source:
Tags:albero japanese rock mimari kuse KuBsNia_ZhoYL_ Shizuku-
BeatmapID:2327085
BeatmapSetID:1110601

[Difficulty]
HPDrainRate:5
CircleSize:4
OverallDifficulty:6.5
ApproachRate:8
SliderMultiplier:1.15
SliderTickRate:1

[Events]
//Background and Video events
0,0,"bg123.jpg",0,0
//Break Periods
2,34585,44052
2,103917,113385
2,194668,198718
//Storyboard Layer 0 (Background)
//Storyboard Layer 1 (Fail)
//Storyboard Layer 2 (Pass)
//Storyboard Layer 3 (Foreground)
//Storyboard Layer 4 (Overlay)
//Storyboard Sound Samples

[TimingPoints]
2469,333.333333333333,4,2,1,50,1,0
2802,-125,4,2,1,50,0,0
12802,-125,4,2,1,75,0,0
13135,-90.9090909090909,4,2,1,75,0,0
22802,-90.9090909090909,4,2,1,80,0,0
23802,-100,4,2,1,75,0,0
26468,-100,4,2,1,70,0,0
32968,-100,4,2,1,80,0,0
34468,-100,4,2,1,50,0,0
45135,-111.111111111111,4,2,2,55,0,0
54302,-111.111111111111,4,2,1,55,0,0
55802,-125,4,2,2,50,0,0
58468,-125,4,2,1,50,0,0
58802,-125,4,2,2,50,0,0
61135,-100,4,2,1,50,0,0
61302,-100,4,2,1,30,0,0
61468,-90.9090909090909,4,2,1,30,0,0
62468,-90.9090909090909,4,2,1,40,0,0
63802,-83.3333333333333,4,2,1,50,0,0
65135,-83.3333333333333,4,2,1,60,0,0
66468,-100,4,2,1,70,0,0
67635,-100,4,2,1,80,0,0
71468,-100,4,2,1,50,0,0
71802,-83.3333333333333,4,2,1,80,0,0
91968,-83.3333333333333,4,2,1,85,0,0
93135,-100,4,2,1,80,0,0
95802,-100,4,2,1,75,0,0
102302,-100,4,2,1,80,0,0
103802,-100,4,2,1,50,0,0
114135,-111.111111111111,4,2,1,50,0,0
114468,-111.111111111111,4,2,2,55,0,0
123635,-111.111111111111,4,2,1,55,0,0
125135,-125,4,2,2,50,0,0
127802,-125,4,2,1,50,0,0
128135,-125,4,2,2,50,0,0
130468,-100,4,2,1,50,0,0
130635,-100,4,2,1,30,0,0
130802,-90.9090909090909,4,2,1,30,0,0
131802,-90.9090909090909,4,2,1,40,0,0
133135,-83.3333333333333,4,2,1,50,0,0
134468,-83.3333333333333,4,2,1,60,0,0
135802,-100,4,2,1,70,0,0
136968,-100,4,2,1,80,0,0
139802,-100,4,2,1,60,0,0
140135,-90.9090909090909,4,2,1,60,0,0
140802,-90.9090909090909,4,2,1,70,0,0
141135,-83.3333333333333,4,2,1,80,0,0
161468,-83.3333333333333,4,2,1,85,0,0
162468,-90.9090909090909,4,2,1,80,0,0
165135,-90.9090909090909,4,2,1,75,0,0
173135,-86.9565217391304,4,2,1,75,0,0
194468,-86.9565217391304,4,2,1,50,0,0
199802,-90.9090909090909,4,2,1,50,0,0
199968,-90.9090909090909,4,2,1,30,0,0
201135,-90.9090909090909,4,2,1,40,0,0
202468,-83.3333333333333,4,2,1,50,0,0
203802,-83.3333333333333,4,2,1,60,0,0
205135,-83.3333333333333,4,2,1,70,0,0
206302,-83.3333333333333,4,2,1,80,0,0
208968,-100,4,2,1,80,0,0
210468,-100,4,2,1,85,0,0
212135,-100,4,2,1,65,0,0
212468,-100,4,2,1,70,0,0
212802,-100,4,2,1,75,0,0
213135,-83.3333333333333,4,2,1,80,0,0
233468,-83.3333333333333,4,2,1,85,0,0
234468,-90.9090909090909,4,2,1,80,0,0
237135,-90.9090909090909,4,2,1,75,0,0
243635,-90.9090909090909,4,2,1,80,0,0
250468,-90.9090909090909,4,2,1,5,0,0

[Colours]
Combo1 : 225,179,242
Combo2 : 184,221,235
Combo3 : 240,217,176
Combo4 : 239,187,177

[HitObjects]
72,69,2468,5,2,0:0:0:0:
168,33,2802,2,0,L|161:137,1,92,2|0,0:0|0:0,0:0:0:0:
66,199,3468,2,0,L|70:257,1,46,2|0,0:0|0:0,0:0:0:0:
36,318,3802,6,0,P|82:323|131:289,1,92,2|0,0:0|0:0,0:0:0:0:
145,231,4302,1,2,0:0:0:0:
218,323,4635,2,0,L|324:331,1,92,2|2,0:0|0:0,0:0:0:0:
384,338,5135,6,0,L|376:241,1,92,2|0,0:0|0:0,0:0:0:0:
486,287,5802,2,0,L|494:190,1,92,2|0,0:0|0:0,0:0:0:0:
466,125,6302,1,2,0:0:0:0:
466,125,7135,6,0,L|402:119,1,46,2|2,0:0|0:0,0:0:0:0:
347,125,7468,1,2,0:0:0:0:
281,34,7802,6,0,L|181:42,1,92,2|0,0:0|0:0,0:0:0:0:
120,75,8302,2,0,L|20:67,1,92,2|2,0:0|0:0,0:0:0:0:
65,164,8968,6,0,P|87:206|72:253,1,92,2|0,0:0|0:0,0:0:0:0:
16,294,9468,1,2,0:0:0:0:
108,367,9802,2,0,L|209:362,1,92,2|2,0:0|0:0,0:0:0:0:
274,274,10468,6,0,P|320:267|366:298,1,92,2|0,0:0|0:0,0:0:0:0:
421,330,10968,2,0,P|465:337|505:315,1,92,2|2,0:0|0:0,0:0:0:0:
451,256,11468,1,2,0:0:0:0:
451,256,11635,1,2,0:0:0:0:
486,29,12802,5,4,0:3:0:0:
392,89,13135,6,0,L|304:82,1,63.2500019302369,6|0,1:2|0:0,0:0:0:0:
264,35,13468,2,0,L|118:43,1,126.500003860474,10|0,0:0|1:0,0:0:0:0:
64,11,13968,1,0,1:0:0:0:
64,11,14135,2,0,L|61:85,1,63.2500019302369,10|0,0:0|0:0,0:0:0:0:
0,127,14468,6,0,P|35:153|117:137,1,126.500003860474,2|8,1:2|0:0,0:0:0:0:
188,113,14968,2,0,P|193:148|176:186,1,63.2500019302369,2|0,0:0|1:0,0:0:0:0:
115,235,15302,1,0,1:0:0:0:
115,235,15468,2,0,P|106:265|111:296,1,63.2500019302369,8|0,0:0|0:0,0:0:0:0:
172,343,15802,6,0,L|311:333,1,126.500003860474,6|8,1:2|0:0,0:0:0:0:
371,363,16302,1,0,0:0:0:0:
371,363,16468,2,0,L|380:275,1,63.2500019302369,2|0,1:2|1:0,0:0:0:0:
438,238,16802,1,8,0:0:0:0:
400,153,16968,6,0,B|361:139|361:139|259:161,1,126.500003860474,6|0,1:1|1:0,0:0:0:0:
202,202,17468,2,0,P|191:173|201:129,1,63.2500019302369,8|0,0:0|0:0,0:0:0:0:
120,106,17802,2,0,P|138:81|178:65,1,63.2500019302369,0|0,1:0|1:0,0:0:0:0:
236,3,18135,1,8,0:0:0:0:
236,3,18302,1,2,0:0:0:0:
324,26,18468,6,0,L|464:38,1,126.500003860474,6|8,1:2|0:0,0:0:0:0:
506,86,18968,2,0,L|510:175,1,63.2500019302369,2|0,0:0|1:0,0:0:0:0:
424,125,19302,2,0,L|420:192,1,63.2500019302369,2|8,1:2|0:0,0:0:0:0:
481,238,19635,6,0,P|429:265|361:239,1,126.500003860474,6|0,1:1|1:0,0:0:0:0:
286,285,20135,2,0,P|273:249|289:202,1,63.2500019302369,8|0,0:0|0:0,0:0:0:0:
330,163,20468,1,0,1:0:0:0:
330,163,20635,2,0,B|292:183|292:183|201:164,1,126.500003860474,2|2,1:2|0:0,0:0:0:0:
146,125,21135,6,0,L|55:137,1,63.2500019302369,6|0,1:2|0:0,0:0:0:0:
151,211,21468,2,0,L|61:224,1,63.2500019302369,8|0,0:0|0:0,0:0:0:0:
12,262,21802,1,0,1:0:0:0:
15,345,21968,1,0,1:0:0:0:
94,368,22135,1,8,0:0:0:0:
140,298,22302,1,6,1:1:0:0:
140,298,22468,6,0,L|228:284,1,63.2500019302369,2|0,0:0|1:0,0:0:0:0:
268,258,22802,2,0,P|274:276|271:311,2,31.6250009651184,10|0|8,0:0|0:0|0:3,0:0:0:0:
307,184,23135,2,0,P|321:195|337:229,2,31.6250009651184,8|0|8,0:0|0:0|0:3,0:0:0:0:
261,107,23468,2,0,P|256:72|277:29,1,63.2500019302369,0|4,1:0|0:3,0:0:0:0:
338,25,23802,6,0,B|399:39|389:2|458:29,1,115,6|8,1:2|0:0,0:0:0:0:
500,85,24302,1,2,0:0:0:0:
500,85,24468,2,0,L|495:167,1,57.5,2|0,1:2|1:0,0:0:0:0:
435,192,24802,2,0,L|440:274,1,57.5,8|2,0:0|1:3,0:0:0:0:
496,305,25135,6,0,P|441:331|383:309,1,115,0|8,3:0|0:0,0:0:0:0:
319,343,25635,1,0,0:0:0:0:
319,343,25802,2,0,P|313:306|328:274,1,57.5,0|0,1:0|1:0,0:0:0:0:
355,217,26135,2,0,P|361:189|354:161,1,57.5,8|0,0:0|0:0,0:0:0:0:
299,100,26468,6,0,L|218:107,1,57.5,2|0,1:3|0:0,0:0:0:0:
167,141,26802,1,8,0:0:0:0:
167,141,26968,1,0,3:0:0:0:
75,118,27135,2,0,L|83:196,1,57.5,0|0,1:0|1:0,0:0:0:0:
148,229,27468,1,8,0:0:0:0:
190,306,27635,6,0,L|183:373,1,57.5,2|0,1:3|0:0,0:0:0:0:
266,344,27968,2,0,P|311:315|380:336,2,115,0|2|0,1:0|0:3|1:0,0:0:0:0:
184,363,28802,2,0,L|115:357,1,57.5,8|0,0:0|0:0,0:0:0:0:
64,318,29135,6,0,P|55:283|71:245,1,57.5,6|2,1:2|0:0,0:0:0:0:
2,210,29468,2,0,P|52:181|114:203,1,115,10|0,0:0|1:0,0:0:0:0:
169,246,29968,1,2,1:2:0:0:
169,246,30135,1,8,0:0:0:0:
248,215,30302,6,0,L|242:79,1,115,6|0,1:1|1:0,0:0:0:0:
239,21,30802,2,0,L|306:34,1,57.5,10|0,0:0|0:0,0:0:0:0:
381,17,31135,1,0,1:0:0:0:
381,17,31302,1,0,1:0:0:0:
449,65,31468,2,0,L|516:78,1,57.5,10|0,0:0|0:0,0:0:0:0:
463,147,31802,5,6,1:2:0:0:
463,147,31968,1,2,0:0:0:0:
423,218,32135,1,8,0:0:0:0:
469,288,32302,2,0,L|471:326,2,28.75,8|8|8,0:0|0:0|0:0,0:0:0:0:
512,219,32635,1,8,0:3:0:0:
512,219,32802,1,4,0:3:0:0:
462,146,32968,6,0,P|412:119|341:140,1,115,6|10,1:1|0:0,0:0:0:0:
275,175,33468,1,10,0:0:0:0:
275,175,33635,1,10,0:0:0:0:
203,113,33802,2,0,L|158:118,2,28.75,10|2|10,0:0|0:0|0:0,0:0:0:0:
254,38,34135,2,0,L|211:7,3,28.75,10|2|10|2,0:0|0:0|0:0|0:0,0:0:0:0:
437,256,44802,5,8,0:0:0:0:
329,218,45135,6,0,L|339:345,2,103.499996841431,6|8|2,1:2|0:0|1:3,0:0:0:0:
277,161,45968,2,0,L|282:88,1,51.7499984207154,2|8,1:2|0:0,0:0:0:0:
322,40,46302,6,0,P|284:29|218:58,1,103.499996841431,2|0,1:2|1:0,0:0:0:0:
155,10,46802,2,0,P|140:46|146:81,1,51.7499984207154,10|0,0:0|0:0,0:0:0:0:
59,82,47135,2,0,P|77:116|108:133,1,51.7499984207154,2|0,1:3|1:0,0:0:0:0:
71,207,47468,2,0,L|129:202,1,51.7499984207154,10|0,0:0|0:0,0:0:0:0:
192,162,47802,6,0,L|313:172,1,103.499996841431,2|8,1:3|0:0,0:0:0:0:
368,134,48302,2,0,L|375:204,1,51.7499984207154,2|2,0:0|1:3,0:0:0:0:
447,124,48635,2,0,L|454:194,1,51.7499984207154,2|8,1:2|0:0,0:0:0:0:
502,234,48968,6,0,L|489:357,1,103.499996841431,2|0,1:2|1:0,0:0:0:0:
421,366,49468,2,0,L|357:359,1,51.7499984207154,10|0,0:0|0:0,0:0:0:0:
302,318,49802,2,0,L|238:325,1,51.7499984207154,2|0,1:3|1:0,0:0:0:0:
182,358,50135,2,0,P|173:320|185:286,1,51.7499984207154,10|0,0:0|0:0,0:0:0:0:
219,240,50468,6,0,B|197:262|197:262|109:254,2,103.499996841431,2|8|2,1:3|0:0|1:3,0:0:0:0:
275,186,51302,2,0,L|267:112,1,51.7499984207154,2|8,1:2|0:0,0:0:0:0:
211,84,51635,6,0,P|250:57|318:73,1,103.499996841431,2|0,1:2|1:0,0:0:0:0:
379,29,52135,2,0,L|385:105,1,51.7499984207154,10|0,0:0|0:0,0:0:0:0:
449,125,52468,2,0,L|444:176,1,51.7499984207154,2|0,1:3|1:0,0:0:0:0:
474,250,52802,2,0,P|445:259|414:252,1,51.7499984207154,10|0,0:0|0:0,0:0:0:0:
361,204,53135,6,0,B|382:233|382:233|372:304,1,103.499996841431,2|8,1:3|0:0,0:0:0:0:
311,347,53635,1,0,0:0:0:0:
311,347,53802,2,0,B|252:361|265:325|200:342,1,103.499996841431,2|8,1:3|0:0,0:0:0:0:
137,363,54302,2,0,P|84:364|54:321,1,103.499996841431,6|0,1:1|1:0,0:0:0:0:
85,257,54802,6,0,L|91:195,1,51.7499984207154,8|2,0:0|0:3,0:0:0:0:
135,140,55135,1,8,0:0:0:0:
111,65,55302,1,8,0:3:0:0:
111,65,55468,1,4,0:3:0:0:
266,13,55802,6,0,L|272:119,1,92,4|0,1:2|0:0,0:0:0:0:
327,161,56302,1,2,1:2:0:0:
286,230,56468,1,10,0:0:0:0:
286,230,56635,2,0,L|281:293,1,46,2|2,0:0|1:1,0:0:0:0:
236,338,56968,6,0,P|278:354|323:344,1,92,2|0,1:2|0:0,0:0:0:0:
397,370,57468,2,0,P|403:340|393:307,1,46,2|0,1:2|0:0,0:0:0:0:
474,290,57802,2,0,P|457:264|427:247,1,46,10|0,0:0|0:0,0:0:0:0:
366,252,58135,1,2,1:1:0:0:
472,178,58468,6,0,L|479:77,1,92,6|2,1:1|0:1,0:0:0:0:
482,14,58968,2,0,L|424:20,1,46,2|8,1:2|0:0,0:0:0:0:
374,66,59302,2,0,L|328:61,1,46,2|2,0:0|1:1,0:0:0:0:
242,16,59635,6,0,L|257:159,1,138,2|0,1:2|1:0,0:0:0:0:
328,61,60468,1,10,0:0:0:0:
313,224,60802,1,8,1:2:0:0:
173,142,61135,6,0,L|99:138,1,57.5,4|8,1:2|0:0,0:0:0:0:
73,77,61468,2,0,L|78:43,2,31.6250009651184,8|8|8,1:2|0:0|0:0,0:0:0:0:
151,65,61802,2,0,L|156:31,2,31.6250009651184,8|8|8,1:2|0:0|0:0,0:0:0:0:
229,58,62135,2,0,L|234:24,2,31.6250009651184,8|8|8,1:2|0:0|0:0,0:0:0:0:
307,95,62468,6,0,L|312:61,2,31.6250009651184,10|8|8,1:2|0:0|0:0,0:0:0:0:
389,91,62802,2,0,L|394:57,2,31.6250009651184,10|8|8,1:2|0:0|0:0,0:0:0:0:
472,84,63135,2,0,L|477:50,2,31.6250009651184,10|8|8,1:2|0:0|0:0,0:0:0:0:
442,158,63468,1,10,1:2:0:0:
443,173,63552,1,8,0:0:0:0:
445,189,63635,1,8,0:0:0:0:
491,286,63802,6,0,L|484:327,2,34.4999989471436,6|0|8,1:2|0:0|0:0,0:0:0:0:
421,241,64135,2,0,L|428:200,2,34.4999989471436,8|8|8,1:2|0:0|0:0,0:0:0:0:
357,294,64468,2,0,L|350:335,2,34.4999989471436,8|8|8,1:2|0:0|0:0,0:0:0:0:
297,235,64802,2,0,L|304:194,2,34.4999989471436,8|8|10,1:2|0:0|0:0,0:0:0:0:
110,248,65135,5,10,1:2:0:0:
110,248,65218,1,8,0:0:0:0:
110,248,65302,1,8,0:0:0:0:
171,182,65468,2,0,L|212:189,2,34.4999989471436,10|8|8,1:2|0:0|0:0,0:0:0:0:
102,123,65802,2,0,L|61:130,2,34.4999989471436,10|8|8,1:2|0:0|0:0,0:0:0:0:
171,71,66135,1,2,1:2:0:0:
171,71,66302,1,4,0:3:0:0:
254,94,66468,2,0,L|327:101,1,57.5,6|0,1:2|0:0,0:0:0:0:
392,85,66802,5,8,1:2:0:0:
392,85,66968,1,8,1:2:0:0:
430,157,67135,1,10,1:2:0:0:
430,157,67302,1,8,1:2:0:0:
374,217,67468,1,8,1:2:0:0:
299,180,67635,6,0,B|262:166|262:166|177:191,1,115,6|0,1:1|1:0,0:0:0:0:
128,239,68135,1,8,1:2:0:0:
128,239,68302,1,8,1:2:0:0:
157,311,68468,1,8,1:2:0:0:
157,311,68635,1,8,1:2:0:0:
238,307,68802,2,0,L|287:303,2,28.75,8|8|8,0:0|0:0|0:0,0:0:0:0:
254,230,69135,5,10,1:2:0:0:
189,187,69302,1,10,1:2:0:0:
328,195,69635,5,10,1:2:0:0:
309,108,69802,1,10,1:2:0:0:
406,220,70135,5,10,1:2:0:0:
457,136,70302,1,10,1:2:0:0:
177,31,71802,6,0,L|85:34,1,68.9999978942872,6|0,1:2|0:0,0:0:0:0:
26,20,72135,2,0,L|36:170,1,137.999995788574,10|0,0:0|1:0,0:0:0:0:
12,229,72635,1,0,1:0:0:0:
12,229,72802,2,0,P|49:234|81:218,1,68.9999978942872,10|0,0:0|1:0,0:0:0:0:
140,293,73135,6,0,P|165:265|170:230,1,68.9999978942872,2|0,0:0|1:0,0:0:0:0:
129,149,73468,1,10,0:0:0:0:
199,90,73635,2,0,L|277:103,1,68.9999978942872,2|0,0:0|1:0,0:0:0:0:
322,171,73968,1,0,1:0:0:0:
413,150,74135,1,10,0:0:0:0:
413,150,74302,1,0,0:0:0:0:
489,208,74468,6,0,P|496:247|474:296,1,68.9999978942872,2|0,1:2|0:0,0:0:0:0:
431,342,74802,1,8,0:0:0:0:
431,342,74968,1,0,0:0:0:0:
338,312,75135,2,0,B|299:293|299:293|200:311,1,137.999995788574,2|8,1:2|0:0,0:0:0:0:
156,375,75635,6,0,P|127:331|164:238,1,137.999995788574,2|0,1:2|1:0,0:0:0:0:
96,168,76135,2,0,P|128:152|172:161,1,68.9999978942872,8|0,0:0|0:0,0:0:0:0:
229,214,76468,1,0,1:0:0:0:
320,187,76635,1,0,1:0:0:0:
320,187,76802,2,0,L|329:102,1,68.9999978942872,10|0,0:0|0:0,0:0:0:0:
270,57,77135,6,0,P|320:34|396:70,1,137.999995788574,2|10,1:3|0:0,0:0:0:0:
479,40,77635,2,0,L|470:127,1,68.9999978942872,0|0,3:0|1:0,0:0:0:0:
407,163,77968,2,0,L|416:250,1,68.9999978942872,0|8,1:0|0:0,0:0:0:0:
476,302,78302,6,0,B|438:274|438:274|345:289,1,137.999995788574,2|0,1:3|1:0,0:0:0:0:
285,338,78802,2,0,L|184:330,1,68.9999978942872,10|2,0:0|0:0,0:0:0:0:
145,291,79135,1,0,1:0:0:0:
145,291,79302,1,0,1:0:0:0:
62,323,79468,2,0,P|47:285|67:234,1,68.9999978942872,10|0,0:0|0:0,0:0:0:0:
124,204,79802,6,0,B|182:206|182:206|199:218|199:218|273:222,2,137.999995788574,6|8|0,1:2|0:0|1:0,0:0:0:0:
43,171,80635,1,2,1:2:0:0:
20,89,80802,1,10,0:0:0:0:
84,25,80968,2,0,L|227:37,1,137.999995788574,6|0,1:1|1:0,0:0:0:0:
284,84,81468,6,0,P|298:56|286:1,1,68.9999978942872,8|0,0:0|1:0,0:0:0:0:
202,118,81802,1,4,0:3:0:0:
202,118,81968,1,4,0:3:0:0:
271,178,82135,2,0,P|301:185|352:161,1,68.9999978942872,8|8,0:0|0:0,0:0:0:0:
360,135,82385,1,8,0:0:0:0:
360,135,82468,6,0,L|443:143,1,68.9999978942872,6|0,1:2|0:0,0:0:0:0:
507,157,82802,2,0,L|493:311,1,137.999995788574,10|0,0:0|1:0,0:0:0:0:
430,348,83302,1,0,1:0:0:0:
430,348,83468,2,0,L|349:354,1,68.9999978942872,10|0,0:0|1:0,0:0:0:0:
287,322,83802,6,0,P|236:334|166:286,1,137.999995788574,2|10,0:0|0:0,0:0:0:0:
81,296,84302,2,0,P|83:259|104:228,1,68.9999978942872,2|0,0:0|1:0,0:0:0:0:
43,167,84635,2,0,P|74:147|111:146,1,68.9999978942872,2|8,1:2|0:0,0:0:0:0:
175,196,84968,1,2,0:0:0:0:
175,196,85135,6,0,B|157:149|157:149|180:52,1,137.999995788574,6|8,1:2|0:0,0:0:0:0:
261,16,85635,1,0,0:0:0:0:
351,48,85802,2,0,L|502:62,1,137.999995788574,2|8,1:2|0:0,0:0:0:0:
412,137,86302,6,0,P|380:169|403:263,1,137.999995788574,6|0,1:1|1:0,0:0:0:0:
431,337,86802,2,0,P|462:320|477:274,1,68.9999978942872,8|0,0:0|0:0,0:0:0:0:
349,325,87135,2,0,L|227:347,2,103.499996841431,2|2|2,1:2|0:0|0:0,0:0:0:0:
392,254,87802,6,0,L|399:172,1,68.9999978942872,6|0,1:2|0:0,0:0:0:0:
453,116,88135,1,8,0:0:0:0:
403,39,88302,2,0,L|314:45,1,68.9999978942872,2|0,0:0|1:0,0:0:0:0:
262,88,88635,2,0,L|193:83,1,68.9999978942872,2|8,1:2|0:0,0:0:0:0:
144,19,88968,6,0,P|115:62|135:143,1,137.999995788574,6|0,1:1|1:0,0:0:0:0:
110,224,89468,2,0,P|145:227|198:197,1,68.9999978942872,10|0,0:0|0:0,0:0:0:0:
217,144,89802,1,2,1:2:0:0:
302,147,89968,2,0,L|288:307,1,137.999995788574,2|2,1:2|0:0,0:0:0:0:
318,357,90468,6,0,L|404:348,1,68.9999978942872,6|0,1:2|0:0,0:0:0:0:
464,311,90802,1,8,0:0:0:0:
464,311,90968,1,0,3:0:0:0:
435,230,91135,2,0,P|433:192|462:145,1,68.9999978942872,0|0,1:0|1:0,0:0:0:0:
509,105,91468,1,8,0:0:0:0:
457,33,91635,6,0,B|383:58|387:13|305:43,1,137.999995788574,6|0,1:1|1:0,0:0:0:0:
239,74,92135,2,0,P|229:36|248:-9,1,68.9999978942872,10|8,0:0|0:3,0:0:0:0:
317,125,92468,2,0,P|327:163|308:208,1,68.9999978942872,10|4,0:0|0:3,0:0:0:0:
256,249,92802,1,10,0:0:0:0:
238,247,92885,1,8,0:0:0:0:
221,246,92968,1,4,0:3:0:0:
223,337,93135,6,0,L|88:346,1,115,6|8,1:2|0:0,0:0:0:0:
35,300,93635,1,2,0:0:0:0:
74,224,93802,2,0,B|93:192|93:192|81:114,1,115,2|8,1:2|0:0,0:0:0:0:
55,43,94302,6,0,P|102:38|128:51,1,57.5,2|0,1:3|3:0,0:0:0:0:
157,105,94635,2,0,P|184:112|212:107,1,57.5,0|8,1:0|0:0,0:0:0:0:
267,48,94968,2,0,P|314:43|340:56,1,57.5,0|0,0:0|1:0,0:0:0:0:
394,89,95302,1,0,1:0:0:0:
394,89,95468,2,0,L|390:164,1,57.5,8|0,0:0|0:0,0:0:0:0:
324,196,95802,6,0,L|335:337,1,115,2|8,1:3|0:0,0:0:0:0:
395,367,96302,1,0,3:0:0:0:
395,367,96468,2,0,L|468:374,1,57.5,0|0,1:0|1:0,0:0:0:0:
507,313,96802,1,8,0:0:0:0:
468,242,96968,6,0,P|456:210|466:170,1,57.5,2|0,1:3|0:0,0:0:0:0:
478,110,97302,2,0,L|397:115,1,57.5,0|8,1:0|0:0,0:0:0:0:
382,181,97635,2,0,L|324:177,1,57.5,0|0,0:0|1:0,0:0:0:0:
262,121,97968,1,0,1:0:0:0:
262,121,98135,2,0,L|181:126,1,57.5,8|0,0:0|0:0,0:0:0:0:
142,71,98468,6,0,P|121:114|150:188,2,115,6|10|0,1:2|0:0|1:0,0:0:0:0:
218,39,99302,1,2,1:2:0:0:
293,63,99468,1,8,0:0:0:0:
293,63,99635,6,0,L|418:55,1,115,6|0,1:1|1:0,0:0:0:0:
486,52,100135,2,0,L|478:128,1,57.5,10|0,0:0|0:0,0:0:0:0:
424,164,100468,1,0,1:0:0:0:
424,164,100635,1,0,1:0:0:0:
482,222,100802,2,0,L|487:299,1,57.5,10|0,0:0|0:0,0:0:0:0:
456,353,101135,5,6,1:2:0:0:
456,353,101302,1,2,0:0:0:0:
370,321,101468,1,8,0:0:0:0:
290,354,101635,2,0,L|242:360,2,28.75,8|8|8,0:0|0:0|0:0,0:0:0:0:
307,269,101968,1,8,0:3:0:0:
307,269,102135,1,4,0:3:0:0:
240,206,102302,6,0,P|220:160|259:84,1,115,6|10,1:1|0:0,0:0:0:0:
314,68,102802,1,10,0:0:0:0:
314,68,102968,1,10,0:0:0:0:
244,21,103135,2,0,L|199:26,2,28.75,10|2|10,0:0|0:0|0:0,0:0:0:0:
239,100,103468,2,0,L|202:122,3,28.75,10|2|10|2,0:0|0:0|0:0|0:0,0:0:0:0:
62,167,114135,5,8,0:0:0:0:
144,229,114468,6,0,L|155:127,2,103.499996841431,6|8|2,1:2|0:0|1:3,0:0:0:0:
74,263,115302,2,0,L|80:331,1,51.7499984207154,2|8,1:2|0:0,0:0:0:0:
148,349,115635,6,0,P|194:369|244:359,1,103.499996841431,2|0,1:2|1:0,0:0:0:0:
323,358,116135,2,0,P|315:319|291:293,1,51.7499984207154,10|0,0:0|0:0,0:0:0:0:
364,245,116468,2,0,P|330:226|295:228,1,51.7499984207154,2|0,1:3|1:0,0:0:0:0:
286,147,116802,2,0,L|214:158,1,51.7499984207154,10|0,0:0|0:0,0:0:0:0:
167,196,117135,6,0,P|155:175|164:132,1,51.7499984207154,2|0,1:3|0:0,0:0:0:0:
78,127,117468,2,0,P|83:103|120:78,1,51.7499984207154,10|0,0:0|0:0,0:0:0:0:
160,27,117802,1,2,1:3:0:0:
160,27,117968,2,0,L|229:33,1,51.7499984207154,2|8,1:2|0:0,0:0:0:0:
284,68,118302,6,0,B|330:61|330:61|337:68|337:68|394:62,1,103.499996841431,2|0,1:2|1:0,0:0:0:0:
465,50,118802,2,0,L|456:118,1,51.7499984207154,10|0,0:0|0:0,0:0:0:0:
402,156,119135,2,0,L|411:224,1,51.7499984207154,2|0,1:3|1:0,0:0:0:0:
448,273,119468,2,0,P|420:285|379:276,1,51.7499984207154,10|0,0:0|0:0,0:0:0:0:
330,241,119802,6,0,B|302:229|302:229|228:242,2,103.499996841431,2|8|2,1:3|0:0|1:3,0:0:0:0:
399,284,120635,2,0,L|394:346,1,51.7499984207154,2|8,1:2|0:0,0:0:0:0:
321,360,120968,6,0,L|218:370,1,103.499996841431,2|0,1:2|1:0,0:0:0:0:
138,356,121468,2,0,L|133:304,1,51.7499984207154,10|0,0:0|0:0,0:0:0:0:
71,253,121802,2,0,L|75:201,1,51.7499984207154,2|0,1:3|1:0,0:0:0:0:
139,151,122135,2,0,L|134:99,1,51.7499984207154,10|0,0:0|0:0,0:0:0:0:
75,48,122468,6,0,P|115:22|177:35,1,103.499996841431,6|8,1:2|0:0,0:0:0:0:
213,99,122968,1,0,0:0:0:0:
213,99,123135,2,0,B|249:120|249:120|330:104,1,103.499996841431,2|8,1:3|0:0,0:0:0:0:
371,54,123635,2,0,P|357:97|378:152,1,103.499996841431,6|0,1:1|1:0,0:0:0:0:
461,137,124135,6,0,L|456:188,1,51.7499984207154,8|2,0:0|0:3,0:0:0:0:
406,249,124468,1,8,0:0:0:0:
431,323,124635,1,8,0:3:0:0:
431,323,124802,1,4,0:3:0:0:
273,362,125135,6,0,L|178:353,1,92,4|0,1:2|0:0,0:0:0:0:
103,364,125635,1,2,1:2:0:0:
44,312,125802,1,10,0:0:0:0:
44,312,125968,2,0,L|47:266,1,46,2|2,0:0|1:1,0:0:0:0:
0,205,126302,6,0,P|42:189|87:199,1,92,2|0,1:2|0:0,0:0:0:0:
163,226,126802,2,0,P|169:196|159:163,1,46,2|0,1:2|0:0,0:0:0:0:
240,146,127135,2,0,P|223:120|193:103,1,46,10|0,0:0|0:0,0:0:0:0:
130,107,127468,1,2,1:1:0:0:
250,35,127802,6,0,L|348:43,1,92,6|2,1:1|0:1,0:0:0:0:
420,16,128302,2,0,L|427:78,1,46,2|8,1:2|0:0,0:0:0:0:
498,106,128635,2,0,L|491:168,1,46,2|2,0:0|1:1,0:0:0:0:
434,207,128968,6,0,B|425:235|425:235|447:313,2,92,6|0|0,1:2|0:0|0:0,0:0:0:0:
493,153,129802,1,8,0:0:0:0:
350,129,130135,1,8,1:2:0:0:
226,184,130468,6,0,L|155:189,1,57.5,4|8,1:2|0:0,0:0:0:0:
110,242,130802,2,0,L|114:273,2,31.6250009651184,8|8|8,1:2|0:0|0:0,0:0:0:0:
187,261,131135,2,0,L|191:292,2,31.6250009651184,8|8|8,1:2|0:0|0:0,0:0:0:0:
265,264,131468,2,0,L|269:295,2,31.6250009651184,8|8|8,1:2|0:0|0:0,0:0:0:0:
312,196,131802,6,0,L|316:164,2,31.6250009651184,10|8|8,1:2|0:0|0:0,0:0:0:0:
391,195,132135,2,0,L|395:163,2,31.6250009651184,10|8|8,1:2|0:0|0:0,0:0:0:0:
467,194,132468,2,0,L|471:162,2,31.6250009651184,10|8|8,1:2|0:0|0:0,0:0:0:0:
432,97,132802,1,10,1:2:0:0:
430,81,132885,1,8,0:0:0:0:
429,66,132968,1,8,0:0:0:0:
354,26,133135,6,0,L|297:23,2,34.4999989471436,6|0|8,1:2|0:0|0:0,0:0:0:0:
365,108,133468,2,0,L|422:111,2,34.4999989471436,8|8|8,1:2|0:0|0:0,0:0:0:0:
320,176,133802,2,0,L|263:173,2,34.4999989471436,8|8|8,1:2|0:0|0:0,0:0:0:0:
352,252,134135,2,0,L|409:255,2,34.4999989471436,8|8|10,1:2|0:0|0:0,0:0:0:0:
190,273,134468,5,10,1:2:0:0:
190,273,134552,1,8,0:0:0:0:
190,273,134635,1,8,0:0:0:0:
105,305,134802,2,0,L|113:368,2,34.4999989471436,10|8|8,1:2|0:0|0:0,0:0:0:0:
23,266,135135,2,0,L|15:203,2,34.4999989471436,10|8|8,1:2|0:0|0:0,0:0:0:0:
61,162,135468,1,2,1:2:0:0:
61,162,135635,1,4,0:3:0:0:
29,88,135802,6,0,P|63:82|102:95,1,57.5,6|0,1:2|0:0,0:0:0:0:
142,145,136135,1,8,1:2:0:0:
142,145,136302,1,8,1:2:0:0:
219,116,136468,1,10,1:2:0:0:
219,116,136635,1,8,1:2:0:0:
294,147,136802,1,8,1:2:0:0:
371,118,136968,6,0,B|448:111|448:111|482:129,1,115,6|0,1:1|1:0,0:0:0:0:
508,207,137468,1,8,1:2:0:0:
508,207,137635,1,8,1:2:0:0:
443,258,137802,1,8,1:2:0:0:
373,208,137968,1,8,1:2:0:0:
398,129,138135,2,0,L|368:121,2,28.75,8|8|8,0:0|0:0|0:0,0:0:0:0:
481,128,138468,5,10,1:2:0:0:
498,43,138635,1,10,1:2:0:0:
398,129,138968,5,10,1:2:0:0:
360,39,139135,1,10,1:2:0:0:
373,208,139468,5,10,1:2:0:0:
262,139,139635,1,10,1:2:0:0:
281,326,140135,6,0,P|289:293|275:257,1,63.2500019302369,14|8,1:2|0:0,0:0:0:0:
256,239,140385,1,8,0:0:0:0:
256,239,140468,2,0,L|206:245,2,31.6250009651184,8|8|4,0:0|0:0|0:3,0:0:0:0:
185,175,140802,2,0,L|135:169,2,31.6250009651184,8|8|8,0:0|0:0|0:0,0:0:0:0:
86,210,141135,6,0,P|73:176|95:128,1,68.9999978942872,6|0,1:2|0:0,0:0:0:0:
9,99,141468,2,0,P|72:57|142:82,1,137.999995788574,10|0,0:0|1:0,0:0:0:0:
205,26,141968,1,0,1:0:0:0:
205,26,142135,2,0,L|214:111,1,68.9999978942872,10|0,0:0|1:0,0:0:0:0:
287,126,142468,2,0,L|279:194,1,68.9999978942872,2|0,0:0|1:0,0:0:0:0:
217,256,142802,1,10,0:0:0:0:
237,332,142968,2,0,L|323:324,1,68.9999978942872,2|0,0:0|1:0,0:0:0:0:
377,278,143302,1,0,1:0:0:0:
456,319,143468,2,0,P|466:286|462:252,1,68.9999978942872,10|0,0:0|0:0,0:0:0:0:
398,201,143802,6,0,P|390:167|397:134,1,68.9999978942872,2|0,1:2|0:0,0:0:0:0:
457,74,144135,1,8,0:0:0:0:
457,74,144302,1,0,0:0:0:0:
396,17,144468,2,0,B|337:19|337:19|321:30|321:30|253:34,1,137.999995788574,2|8,1:2|0:0,0:0:0:0:
194,76,144968,6,0,B|102:58|102:58|38:95,1,137.999995788574,2|0,1:2|1:0,0:0:0:0:
18,142,145468,2,0,P|15:187|42:227,1,68.9999978942872,8|0,0:0|0:0,0:0:0:0:
91,254,145802,1,0,1:0:0:0:
172,227,145968,1,0,1:0:0:0:
172,227,146135,2,0,L|248:236,1,68.9999978942872,10|0,0:0|0:0,0:0:0:0:
303,297,146468,6,0,P|328:250|301:169,1,137.999995788574,2|10,1:3|0:0,0:0:0:0:
272,101,146968,2,0,P|313:92|356:124,1,68.9999978942872,2|0,0:0|1:0,0:0:0:0:
379,36,147302,2,0,P|409:64|408:118,1,68.9999978942872,2|8,1:2|0:0,0:0:0:0:
499,53,147635,6,0,B|488:204,1,137.999995788574,2|0,1:3|1:0,0:0:0:0:
416,225,148135,2,0,L|424:320,1,68.9999978942872,10|2,0:0|0:0,0:0:0:0:
415,373,148468,2,0,L|333:380,1,68.9999978942872,0|0,1:0|1:0,0:0:0:0:
268,322,148802,2,0,L|186:315,1,68.9999978942872,10|0,0:0|0:0,0:0:0:0:
142,370,149135,6,0,P|120:323|175:239,2,137.999995788574,6|8|0,1:2|0:0|1:0,0:0:0:0:
206,318,149968,1,2,1:2:0:0:
242,245,150135,1,10,0:0:0:0:
200,177,150302,2,0,B|184:148|184:148|216:33,1,137.999995788574,6|0,1:1|1:0,0:0:0:0:
291,14,150802,6,0,L|370:23,1,68.9999978942872,8|0,0:0|1:0,0:0:0:0:
438,53,151135,1,4,0:3:0:0:
438,53,151302,1,4,0:3:0:0:
417,130,151468,2,0,L|430:226,1,68.9999978942872,8|8,0:0|0:0,0:0:0:0:
434,237,151718,1,8,0:0:0:0:
434,237,151802,6,0,L|358:250,1,68.9999978942872,6|0,1:2|0:0,0:0:0:0:
301,298,152135,2,0,B|258:311|258:311|149:284,1,137.999995788574,10|0,0:0|1:0,0:0:0:0:
111,228,152635,1,0,1:0:0:0:
111,228,152802,2,0,L|118:127,1,68.9999978942872,10|0,0:0|1:0,0:0:0:0:
41,119,153135,6,0,P|93:77|160:86,1,137.999995788574,2|10,0:0|0:0,0:0:0:0:
229,35,153635,2,0,P|246:64|247:98,1,68.9999978942872,2|0,0:0|1:0,0:0:0:0:
339,106,153968,2,0,P|330:139|307:164,1,68.9999978942872,2|8,1:2|0:0,0:0:0:0:
224,180,154302,1,0,0:0:0:0:
224,180,154468,6,0,P|195:203|213:309,1,137.999995788574,6|8,1:2|0:0,0:0:0:0:
267,354,154968,1,0,0:0:0:0:
348,326,155135,2,0,L|498:314,1,137.999995788574,2|8,1:2|0:0,0:0:0:0:
409,241,155635,6,0,P|381:192|408:119,1,137.999995788574,6|0,1:1|1:0,0:0:0:0:
451,46,156135,2,0,L|371:39,1,68.9999978942872,8|0,0:0|0:0,0:0:0:0:
292,62,156468,2,0,L|304:170,2,103.499996841431,2|2|2,1:2|0:2|0:0,0:0:0:0:
218,16,157135,6,0,P|180:13|150:28,1,68.9999978942872,6|0,1:2|0:0,0:0:0:0:
102,89,157468,1,8,0:0:0:0:
146,158,157635,2,0,L|140:233,1,68.9999978942872,2|0,0:0|1:0,0:0:0:0:
81,277,157968,2,0,L|87:352,1,68.9999978942872,0|8,1:0|0:0,0:0:0:0:
166,317,158302,6,0,P|204:295|292:312,1,137.999995788574,6|0,1:1|1:0,0:0:0:0:
372,355,158802,2,0,L|380:268,1,68.9999978942872,10|0,0:0|0:0,0:0:0:0:
440,226,159135,1,2,1:2:0:0:
417,141,159302,2,0,B|430:49|430:49|384:5,1,137.999995788574,2|6,1:2|1:2,0:0:0:0:
327,37,159802,6,0,L|258:44,1,68.9999978942872,2|0,0:0|1:0,0:0:0:0:
181,81,160135,1,8,0:0:0:0:
181,81,160302,1,8,0:0:0:0:
109,38,160468,2,0,P|93:76|102:120,1,68.9999978942872,8|8,0:0|0:3,0:0:0:0:
155,162,160802,1,4,0:3:0:0:
112,242,160968,6,0,B|184:269|181:213|264:252,1,137.999995788574,6|4,1:1|0:3,0:0:0:0:
319,212,161468,2,0,P|329:252|307:295,1,68.9999978942872,10|8,0:0|0:3,0:0:0:0:
404,306,161802,2,0,P|383:341|337:357,1,68.9999978942872,2|4,1:2|0:3,0:0:0:0:
278,349,162135,1,10,0:0:0:0:
260,346,162218,1,8,0:0:0:0:
243,344,162301,1,8,0:0:0:0:
321,277,162468,6,0,L|332:131,1,126.500003860474,6|8,1:2|0:0,0:0:0:0:
376,85,162968,1,6,1:1:0:0:
376,85,163135,2,0,P|338:71|293:87,1,63.2500019302369,0|0,0:0|1:0,0:0:0:0:
251,122,163468,6,0,L|113:127,2,126.500003860474,10|0|8,0:0|0:0|0:0,0:0:0:0:
330,150,164302,1,0,0:0:0:0:
330,150,164468,2,0,L|418:156,1,63.2500019302369,0|0,1:0|1:0,0:0:0:0:
475,126,164802,2,0,L|470:203,1,63.2500019302369,8|0,0:0|0:0,0:0:0:0:
406,235,165135,6,0,B|424:269|424:269|406:359,1,126.500003860474,6|8,1:2|0:0,0:0:0:0:
338,287,165635,2,0,P|304:272|230:322,1,126.500003860474,6|0,1:1|1:0,0:0:0:0:
178,369,166135,6,0,P|152:324|181:251,2,126.500003860474,10|0|8,0:0|0:0|0:0,0:0:0:0:
232,313,166968,1,0,0:0:0:0:
232,313,167135,2,0,L|304:306,1,63.2500019302369,0|0,1:0|1:0,0:0:0:0:
347,240,167468,2,0,L|419:247,1,63.2500019302369,8|0,0:0|0:0,0:0:0:0:
474,306,167802,6,0,P|496:260|460:178,1,126.500003860474,4|10,1:2|0:0,0:0:0:0:
400,154,168302,2,0,L|248:160,1,126.500003860474,4|0,1:0|1:0,0:0:0:0:
210,205,168802,6,0,B|156:198|156:198|141:204|141:204|81:197,1,126.500003860474,8|0,0:0|0:0,0:0:0:0:
31,135,169302,1,0,1:0:0:0:
31,135,169468,2,0,L|25:67,1,63.2500019302369,8|0,0:0|0:0,0:0:0:0:
88,18,169802,1,0,1:0:0:0:
162,43,169968,1,0,1:0:0:0:
231,13,170135,2,0,L|317:10,1,63.2500019302369,8|2,0:0|0:3,0:0:0:0:
366,36,170468,6,0,L|447:42,1,63.2500019302369,6|2,1:2|1:2,0:0:0:0:
484,109,170802,1,10,0:0:0:0:
413,155,170968,2,0,L|422:216,2,31.6250009651184,10|8|8,0:0|0:0|0:0,0:0:0:0:
336,181,171302,1,2,1:2:0:0:
336,181,171468,1,4,0:3:0:0:
255,147,171635,6,0,P|210:135|140:197,1,126.500003860474,6|10,1:1|0:0,0:0:0:0:
112,244,172135,1,8,0:0:0:0:
185,286,172302,1,10,0:0:0:0:
259,244,172468,1,8,0:0:0:0:
259,244,172635,1,10,0:0:0:0:
337,282,172802,2,0,L|429:275,1,63.2500019302369,4|2,1:0|0:0,0:0:0:0:
465,332,173135,6,0,P|487:285|452:212,1,132.250002522469,6|10,1:2|0:0,0:0:0:0:
394,165,173635,1,2,0:0:0:0:
437,98,173802,2,0,L|444:18,1,66.1250012612343,2|2,1:2|1:2,0:0:0:0:
366,8,174135,1,8,0:0:0:0:
302,55,174302,6,0,L|211:50,1,66.1250012612343,2|0,1:3|3:0,0:0:0:0:
172,19,174635,1,0,1:0:0:0:
90,47,174802,2,0,L|82:123,1,66.1250012612343,8|0,0:0|0:0,0:0:0:0:
25,164,175135,1,0,1:0:0:0:
66,230,175302,1,0,1:0:0:0:
29,299,175468,2,0,P|8:334|11:376,1,66.1250012612343,8|0,0:0|0:0,0:0:0:0:
86,358,175802,6,0,P|123:363|169:347,1,66.1250012612343,2|0,1:3|0:0,0:0:0:0:
218,315,176135,1,8,0:0:0:0:
296,343,176302,1,0,0:0:0:0:
355,290,176468,2,0,L|363:206,1,66.1250012612343,0|0,1:0|1:0,0:0:0:0:
318,156,176802,1,8,0:0:0:0:
244,184,176968,6,0,B|212:196|212:196|95:180,1,132.250002522469,2|0,1:3|1:0,0:0:0:0:
38,203,177468,2,0,P|32:173|53:130,1,66.1250012612343,8|0,0:0|0:0,0:0:0:0:
96,81,177802,1,2,1:3:0:0:
171,100,177968,1,0,1:0:0:0:
238,67,178135,2,0,L|317:73,1,66.1250012612343,8|2,0:0|0:0,0:0:0:0:
379,19,178468,6,0,L|388:173,1,132.250002522469,6|8,1:2|0:0,0:0:0:0:
451,212,178968,1,0,3:0:0:0:
451,212,179135,2,0,P|407:236|329:216,1,132.250002522469,2|8,1:2|0:0,0:0:0:0:
266,167,179635,6,0,B|224:156|224:156|130:186,1,132.250002522469,2|0,1:2|1:0,0:0:0:0:
76,243,180135,1,8,0:0:0:0:
103,322,180302,1,0,0:0:0:0:
186,334,180468,1,2,1:3:0:0:
186,334,180635,2,0,L|271:343,1,66.1250012612343,0|8,1:0|0:0,0:0:0:0:
336,369,180968,1,2,0:0:0:0:
410,328,181135,6,0,L|419:187,1,132.250002522469,2|10,1:2|0:0,0:0:0:0:
484,148,181635,2,0,P|449:120|358:143,1,132.250002522469,2|0,0:0|1:0,0:0:0:0:
290,163,182135,1,10,0:0:0:0:
210,131,182302,2,0,B|187:105|187:105|210:-10,1,132.250002522469,6|0,1:1|1:0,0:0:0:0:
280,37,182802,6,0,L|357:32,1,66.1250012612343,8|0,0:0|1:0,0:0:0:0:
427,37,183135,1,8,0:3:0:0:
449,117,183302,1,0,1:0:0:0:
381,163,183468,2,0,L|378:227,2,33.0625006306172,8|8|8,0:0|0:0|0:0,0:0:0:0:
316,109,183802,6,0,B|258:109|258:109|243:120|243:120|174:119,1,132.250002522469,6|10,1:2|0:0,0:0:0:0:
121,83,184302,1,2,0:0:0:0:
46,108,184468,1,2,1:2:0:0:
46,108,184635,1,2,1:2:0:0:
21,186,184802,1,8,0:0:0:0:
74,247,184968,6,0,L|220:241,1,132.250002522469,2|0,1:3|1:0,0:0:0:0:
281,198,185468,1,10,0:0:0:0:
355,241,185635,2,0,L|344:331,1,66.1250012612343,2|0,0:0|1:0,0:0:0:0:
409,365,185968,1,0,1:0:0:0:
488,343,186135,1,10,0:0:0:0:
488,343,186302,1,0,0:0:0:0:
431,276,186468,6,0,L|445:120,1,132.250002522469,2|8,1:3|0:0,0:0:0:0:
488,84,186968,2,0,P|445:66|408:76,1,66.1250012612343,2|0,0:0|1:0,0:0:0:0:
364,121,187302,2,0,P|331:120|302:104,1,66.1250012612343,2|8,1:2|0:0,0:0:0:0:
233,29,187635,6,0,B|255:61|255:61|242:165,1,132.250002522469,2|0,1:3|1:0,0:0:0:0:
190,211,188135,2,0,L|196:294,1,66.1250012612343,10|0,0:0|0:0,0:0:0:0:
234,342,188468,2,0,P|197:353|150:339,1,66.1250012612343,2|0,1:2|1:0,0:0:0:0:
89,374,188802,2,0,L|84:308,1,66.1250012612343,10|0,0:0|0:0,0:0:0:0:
21,259,189135,6,0,L|29:106,1,132.250002522469,6|10,1:2|0:0,0:0:0:0:
32,51,189635,2,0,B|74:39|74:39|167:65,1,132.250002522469,2|0,0:0|1:0,0:0:0:0:
226,111,190135,1,8,0:0:0:0:
226,111,190302,6,0,P|275:80|366:112,1,132.250002522469,2|0,1:3|1:0,0:0:0:0:
430,73,190802,2,0,L|419:170,1,66.1250012612343,8|0,0:0|0:0,0:0:0:0:
368,193,191135,1,0,1:0:0:0:
409,263,191302,1,0,1:0:0:0:
369,330,191468,1,8,0:0:0:0:
369,330,191635,1,0,0:0:0:0:
292,320,191802,6,0,L|203:329,1,66.1250012612343,6|2,1:2|0:0,0:0:0:0:
155,371,192135,1,10,0:0:0:0:
73,342,192302,2,0,L|9:349,2,33.0625006306172,10|8|8,0:0|0:0|0:0,0:0:0:0:
144,290,192635,1,8,0:3:0:0:
144,290,192802,1,4,0:3:0:0:
100,211,192968,5,6,1:1:0:0:
256,192,193052,12,0,194468,0:0:0:0:
450,257,199468,5,8,0:0:0:0:
350,286,199802,6,0,L|347:239,2,31.6250009651184,4|0|8,1:2|0:0|0:0,0:0:0:0:
272,295,200135,2,0,L|269:248,2,31.6250009651184,8|8|8,1:2|0:0|0:0,0:0:0:0:
195,309,200468,2,0,L|192:262,2,31.6250009651184,8|8|8,1:2|0:0|0:0,0:0:0:0:
117,318,200802,2,0,L|114:271,2,31.6250009651184,8|8|8,1:2|0:0|0:0,0:0:0:0:
39,308,201135,6,0,L|-6:304,2,31.6250009651184,10|8|8,1:2|0:0|0:0,0:0:0:0:
40,231,201468,2,0,L|-5:227,2,31.6250009651184,10|8|8,1:2|0:0|0:0,0:0:0:0:
46,153,201802,2,0,L|1:149,2,31.6250009651184,10|8|8,1:2|0:0|0:0,0:0:0:0:
107,88,202135,1,10,1:2:0:0:
121,89,202218,1,8,0:0:0:0:
138,90,202302,1,8,0:0:0:0:
222,28,202468,6,0,L|216:74,2,34.4999989471436,6|0|8,1:2|0:0|0:0,0:0:0:0:
305,33,202802,2,0,L|311:-13,2,34.4999989471436,8|8|8,1:2|0:0|0:0,0:0:0:0:
387,40,203135,2,0,L|381:86,2,34.4999989471436,8|8|8,1:2|0:0|0:0,0:0:0:0:
468,46,203468,2,0,L|474:0,2,34.4999989471436,8|8|10,1:2|0:0|0:0,0:0:0:0:
461,180,203802,5,10,1:2:0:0:
461,180,203885,1,8,0:0:0:0:
461,180,203968,1,8,0:0:0:0:
438,259,204135,2,0,L|387:254,2,34.4999989471436,10|8|8,1:2|0:0|0:0,0:0:0:0:
460,339,204468,2,0,L|511:344,2,34.4999989471436,10|8|8,1:2|0:0|0:0,0:0:0:0:
376,340,204802,1,2,1:2:0:0:
376,340,204968,1,4,0:3:0:0:
295,371,205135,6,0,P|287:328|305:289,1,68.9999978942872,6|0,1:2|0:0,0:0:0:0:
363,257,205468,1,8,1:2:0:0:
363,257,205635,1,8,1:2:0:0:
340,178,205802,1,10,1:2:0:0:
340,178,205968,1,8,1:2:0:0:
258,174,206135,1,8,1:2:0:0:
230,253,206302,6,0,B|82:246,1,137.999995788574,6|0,1:1|1:0,0:0:0:0:
27,200,206802,1,8,1:2:0:0:
27,200,206968,1,8,1:2:0:0:
49,120,207135,1,8,1:2:0:0:
131,114,207302,1,8,1:2:0:0:
160,191,207468,2,0,L|222:196,2,34.4999989471436,8|8|8,0:0|0:0|0:0,0:0:0:0:
92,246,207802,5,10,1:2:0:0:
108,349,207968,1,10,1:2:0:0:
160,191,208302,5,10,1:2:0:0:
215,296,208468,1,10,1:2:0:0:
131,114,208802,5,10,1:2:0:0:
276,151,208968,2,0,B|328:148|328:148|342:154|342:154|407:149,1,115,14|0,1:2|1:0,0:0:0:0:
459,116,209468,6,0,P|467:143|459:171,1,57.5,8|8,0:0|0:0,0:0:0:0:
443,206,209718,1,8,0:0:0:0:
443,206,209802,2,0,L|448:278,1,57.5,8|8,0:0|0:3,0:0:0:0:
479,341,210135,2,0,L|510:352,2,28.75,10|10|10,1:2|1:2|1:2,0:0:0:0:
399,329,210468,5,10,1:2:0:0:
319,349,210635,1,10,1:2:0:0:
319,349,210802,1,0,1:0:0:0:
253,300,210968,5,10,1:2:0:0:
173,320,211135,1,10,1:2:0:0:
173,320,211302,1,0,1:0:0:0:
115,262,211468,5,10,1:2:0:0:
5,315,211635,2,0,L|16:177,1,115,14|0,1:2|1:0,0:0:0:0:
123,100,212135,2,0,L|121:144,2,28.75,10|8|8,1:2|0:0|0:0,0:0:0:0:
206,74,212468,2,0,L|204:118,2,28.75,10|8|8,1:2|0:0|0:0,0:0:0:0:
284,54,212802,2,0,L|282:98,2,28.75,10|8|8,1:2|0:0|0:0,0:0:0:0:
361,74,213135,6,0,L|364:159,1,68.9999978942872,6|0,1:2|0:0,0:0:0:0:
422,206,213468,2,0,P|359:230|299:201,1,137.999995788574,10|0,0:0|1:0,0:0:0:0:
232,159,213968,1,0,1:0:0:0:
232,159,214135,2,0,L|151:166,1,68.9999978942872,10|0,0:0|1:0,0:0:0:0:
87,142,214468,6,0,L|95:216,1,68.9999978942872,2|0,0:0|1:0,0:0:0:0:
152,264,214802,1,10,0:0:0:0:
112,333,214968,2,0,P|142:345|201:335,1,68.9999978942872,2|0,0:0|1:0,0:0:0:0:
255,308,215302,1,0,1:0:0:0:
336,349,215468,2,0,L|344:265,1,68.9999978942872,10|0,0:0|0:0,0:0:0:0:
427,320,215802,6,0,L|416:158,1,137.999995788574,2|8,1:2|0:0,0:0:0:0:
464,112,216302,1,0,0:0:0:0:
410,45,216468,2,0,P|349:29|271:74,1,137.999995788574,2|8,1:2|0:0,0:0:0:0:
199,33,216968,6,0,B|206:175,1,137.999995788574,2|0,1:2|1:0,0:0:0:0:
271,218,217468,2,0,L|260:304,1,68.9999978942872,8|0,0:0|0:0,0:0:0:0:
199,342,217802,1,0,1:0:0:0:
120,310,217968,1,0,1:0:0:0:
120,310,218135,2,0,L|28:318,1,68.9999978942872,10|0,0:0|0:0,0:0:0:0:
81,236,218468,6,0,P|110:190|79:108,1,137.999995788574,2|10,1:3|0:0,0:0:0:0:
52,38,218968,2,0,L|139:43,1,68.9999978942872,2|0,0:0|1:0,0:0:0:0:
176,100,219302,2,0,L|263:95,1,68.9999978942872,2|8,1:2|0:0,0:0:0:0:
302,34,219635,6,0,P|329:90|291:172,1,137.999995788574,2|0,1:3|1:0,0:0:0:0:
227,181,220135,2,0,P|241:224|273:243,1,68.9999978942872,10|0,0:0|0:0,0:0:0:0:
205,298,220468,2,0,P|244:319|281:310,1,68.9999978942872,2|0,1:2|1:0,0:0:0:0:
316,373,220802,2,0,L|391:367,1,68.9999978942872,10|0,0:0|0:0,0:0:0:0:
460,345,221135,6,0,B|486:315|486:315|464:191,2,137.999995788574,6|8|0,1:2|0:0|1:0,0:0:0:0:
384,368,221968,1,2,1:2:0:0:
306,340,222135,1,10,0:0:0:0:
216,363,222302,2,0,B|141:374|158:329|71:349,1,137.999995788574,6|0,1:1|1:0,0:0:0:0:
23,292,222802,6,0,P|19:253|44:214,1,68.9999978942872,8|0,0:0|1:0,0:0:0:0:
87,173,223135,2,0,P|91:139|78:107,1,68.9999978942872,0|4,0:0|0:3,0:0:0:0:
43,27,223468,2,0,L|124:34,1,68.9999978942872,8|8,0:0|0:0,0:0:0:0:
160,58,223718,1,8,0:0:0:0:
160,58,223802,6,0,L|235:52,1,68.9999978942872,6|0,1:2|0:0,0:0:0:0:
292,0,224135,2,0,P|313:33|281:125,1,137.999995788574,10|0,0:0|1:0,0:0:0:0:
208,136,224635,1,0,1:0:0:0:
208,136,224802,2,0,L|214:204,1,68.9999978942872,10|0,0:0|1:0,0:0:0:0:
160,268,225135,6,0,B|194:288|194:288|295:271,1,137.999995788574,2|10,0:0|0:0,0:0:0:0:
346,214,225635,2,0,L|426:225,1,68.9999978942872,2|0,0:0|1:0,0:0:0:0:
483,268,225968,2,0,P|497:232|486:186,1,68.9999978942872,2|8,1:2|0:0,0:0:0:0:
439,147,226302,1,2,0:0:0:0:
439,147,226468,6,0,L|291:131,1,137.999995788574,6|8,1:2|0:0,0:0:0:0:
234,84,226968,1,0,0:0:0:0:
148,120,227135,2,0,P|121:148|129:247,1,137.999995788574,2|8,1:2|0:0,0:0:0:0:
77,323,227635,2,0,L|216:317,1,137.999995788574,6|0,1:1|1:0,0:0:0:0:
280,268,228135,6,0,L|348:274,1,68.9999978942872,8|0,0:0|0:0,0:0:0:0:
413,225,228468,2,0,P|432:281|409:332,2,103.499996841431,2|2|2,1:2|0:0|0:0,0:0:0:0:
339,193,229135,6,0,L|344:115,1,68.9999978942872,6|0,1:2|0:0,0:0:0:0:
383,56,229468,1,8,0:0:0:0:
312,9,229635,2,0,L|227:18,1,68.9999978942872,2|0,0:0|1:0,0:0:0:0:
173,52,229968,2,0,L|88:43,1,68.9999978942872,2|8,1:2|0:0,0:0:0:0:
19,16,230302,6,0,L|33:174,1,137.999995788574,6|0,1:1|1:0,0:0:0:0:
118,131,230802,2,0,L|111:199,1,68.9999978942872,10|0,0:0|0:0,0:0:0:0:
58,269,231135,1,2,1:2:0:0:
108,336,231302,2,0,B|171:325|171:325|187:331|187:331|257:317,1,137.999995788574,2|8,1:2|0:0,0:0:0:0:
269,296,231718,1,8,0:0:0:0:
269,296,231802,6,0,L|353:304,1,68.9999978942872,14|0,1:2|0:0,0:0:0:0:
435,280,232135,1,8,0:0:0:0:
444,180,232302,1,0,1:0:0:0:
351,141,232468,1,8,0:0:0:0:
286,217,232635,1,0,1:0:0:0:
337,302,232802,1,8,0:0:0:0:
337,302,232968,6,0,P|292:266|203:302,1,137.999995788574,6|0,1:1|1:0,0:0:0:0:
142,314,233468,2,0,P|133:280|144:248,1,68.9999978942872,10|8,0:0|0:0,0:0:0:0:
68,220,233802,2,0,P|85:190|115:174,1,68.9999978942872,2|4,1:2|0:3,0:0:0:0:
111,94,234135,1,10,0:0:0:0:
128,95,234218,1,8,0:0:0:0:
145,96,234301,1,4,0:3:0:0:
76,14,234468,6,0,L|222:23,1,126.500003860474,6|8,1:2|0:0,0:0:0:0:
274,72,234968,1,2,0:0:0:0:
346,25,235135,2,0,P|361:56|356:101,1,63.2500019302369,2|0,1:2|1:0,0:0:0:0:
306,150,235468,1,8,0:0:0:0:
341,224,235635,6,0,L|421:235,1,63.2500019302369,2|0,1:3|3:0,0:0:0:0:
490,213,235968,2,0,L|479:293,1,63.2500019302369,0|8,1:0|0:0,0:0:0:0:
497,360,236302,2,0,L|434:351,1,63.2500019302369,0|0,0:0|1:0,0:0:0:0:
362,308,236635,2,0,L|299:316,1,63.2500019302369,0|8,1:0|0:0,0:0:0:0:
237,376,236968,1,0,0:0:0:0:
237,376,237135,6,0,P|208:323|245:251,1,126.500003860474,2|8,1:3|0:0,0:0:0:0:
290,212,237635,1,0,3:0:0:0:
241,145,237802,1,0,1:0:0:0:
241,145,237969,1,0,1:0:0:0:
286,70,238135,1,8,0:0:0:0:
228,6,238302,6,0,L|152:17,1,63.2500019302369,2|0,1:3|0:0,0:0:0:0:
69,32,238635,2,0,P|58:72|80:112,1,63.2500019302369,0|8,1:0|0:0,0:0:0:0:
110,159,238968,2,0,P|115:189|104:218,1,63.2500019302369,0|0,0:0|1:0,0:0:0:0:
51,278,239302,2,0,P|99:299|168:266,1,126.500003860474,0|0,1:0|0:0,0:0:0:0:
253,228,239802,6,0,L|247:354,2,126.500003860474,6|10|0,1:2|0:0|1:0,0:0:0:0:
207,162,240636,1,2,1:2:0:0:
252,92,240802,1,8,0:0:0:0:
252,92,240969,6,0,L|388:84,1,126.500003860474,6|0,1:1|1:0,0:0:0:0:
452,46,241469,2,0,P|462:83|444:122,1,63.2500019302369,10|0,0:0|0:0,0:0:0:0:
397,163,241802,1,0,1:0:0:0:
397,163,241969,1,0,1:0:0:0:
446,229,242136,2,0,L|452:313,1,63.2500019302369,10|0,0:0|0:0,0:0:0:0:
476,368,242468,6,0,L|412:363,1,63.2500019302369,6|2,1:2|0:0,0:0:0:0:
341,323,242802,1,8,0:0:0:0:
261,348,242968,2,0,L|270:409,2,31.6250009651184,8|8|8,0:0|0:0|0:0,0:0:0:0:
183,331,243302,1,8,0:3:0:0:
183,331,243468,1,4,0:3:0:0:
103,368,243635,6,0,P|91:319|151:242,1,126.500003860474,6|2,1:1|1:2,0:0:0:0:
194,209,244135,1,10,0:0:0:0:
267,244,244302,1,10,0:0:0:0:
339,200,244468,2,0,L|382:214,2,31.6250009651184,10|10|10,1:2|0:0|1:2,0:0:0:0:
378,128,244802,1,8,0:0:0:0:
373,99,244885,1,8,0:0:0:0:
368,71,244968,5,6,1:2:0:0:
256,192,245052,12,0,250468,0:0:0:0:
