osu file format v14

[General]
AudioFilename: audio.mp3
AudioLeadIn: 0
PreviewTime: 59887
Countdown: 0
SampleSet: Soft
StackLeniency: 0.5
Mode: 0
LetterboxInBreaks: 0
WidescreenStoryboard: 0

[Editor]
Bookmarks: 36275,83682,142942,190349
DistanceSpacing: 1.5
BeatDivisor: 4
GridSize: 32
TimelineZoom: 1

[Metadata]
Title:Hello, Future!
TitleUnicode:Hello, Future!
Artist:Duca
ArtistUnicode:Duca
Creator:timemon
Version:Otokonoko
Source:乙女が彩る恋のエッセンス ~笑顔で織りなす未来~
Tags:ensemble Otome ga Irodoru Koi no Essence ~Egao de Orinasu Mirai~ Otoiro eroge visual novel Ending Theme ANZIE HIJIRI ANZE
BeatmapID:1881654
BeatmapSetID:901101

[Difficulty]
HPDrainRate:6
CircleSize:4
OverallDifficulty:7.5
ApproachRate:9
SliderMultiplier:1.62
SliderTickRate:1

[Events]
//Background and Video events
0,0,"OwO.jpg",0,0
//Break Periods
2,107585,118637
2,214252,219378
2,249807,266785
//Storyboard Layer 0 (Background)
//Storyboard Layer 1 (Fail)
//Storyboard Layer 2 (Pass)
//Storyboard Layer 3 (Foreground)
//Storyboard Sound Samples

[TimingPoints]
719,370.37037037037,4,2,1,35,1,0
12570,-133.333333333333,4,2,1,45,0,0
36274,-133.333333333333,4,2,1,55,0,0
57015,-100,4,2,1,60,0,0
58496,-153.846153846154,4,2,1,35,0,0
59978,-100,4,2,1,65,0,1
82200,-100,4,2,1,65,0,0
83681,-100,4,2,1,65,0,1
107385,-100,4,2,1,65,0,0
119237,-111.111111111111,4,2,1,55,0,0
128126,-111.111111111111,4,2,1,55,0,0
131089,-111.111111111111,4,2,1,55,0,0
142941,-125,4,2,1,55,0,0
163681,-111.111111111111,4,2,1,60,0,0
165163,-133.333333333333,4,2,1,35,0,0
166644,-100,4,2,1,65,0,1
188867,-100,4,2,1,65,0,0
190348,-100,4,2,1,65,0,1
214052,-100,4,2,1,65,0,0
219978,-111.111111111111,4,2,1,50,0,0
248867,-166.666666666667,4,2,1,50,0,0
249607,-166.666666666667,4,2,1,50,0,0
267385,-133.333333333333,4,2,1,45,0,0
273681,-100,4,2,1,65,0,1
273774,-100,4,2,1,65,0,0
276274,-100,4,2,1,65,0,1
297015,-100,4,2,1,65,0,0
302941,-100,4,2,1,5,0,0

[Colours]
Combo1 : 255,223,213
Combo2 : 248,213,255
Combo3 : 249,255,213
Combo4 : 253,215,172

[HitObjects]
260,290,12570,6,0,P|310:315|382:281,1,121.500004634857,2|0,3:2|0:2,0:0:0:0:
434,239,13126,1,0,0:2:0:0:
288,8,13496,1,0,0:2:0:0:
317,87,13681,1,0,3:2:0:0:
276,162,13867,1,0,3:2:0:0:
209,104,14052,2,0,B|166:119|166:119|86:95,1,121.500004634857,2|0,3:2|3:2,0:0:0:0:
101,356,14793,1,2,0:3:0:0:
20,329,14978,1,0,0:2:0:0:
20,244,15163,1,0,0:2:0:0:
101,218,15348,1,0,0:2:0:0:
150,287,15533,6,0,P|212:304|281:279,1,121.500004634857,2|0,3:2|0:2,0:0:0:0:
340,247,16089,2,0,P|402:230|471:255,1,121.500004634857,2|0,0:2|0:2,0:0:0:0:
503,315,16644,1,0,3:2:0:0:
503,315,16830,1,0,3:2:0:0:
440,218,17015,2,0,P|442:152|446:86,1,121.500004634857,2|0,0:2|3:2,0:0:0:0:
286,60,17756,2,0,P|287:99|289:139,2,60.7500023174287,2|0|0,2:3|0:2|0:2,0:0:0:0:
217,9,18311,1,0,0:2:0:0:
141,48,18496,5,2,3:2:0:0:
141,48,19052,1,0,0:2:0:0:
189,118,19237,2,0,L|187:187,1,60.7500023174287,0|0,0:2|0:2,0:0:0:0:
128,240,19607,1,0,3:2:0:0:
48,209,19793,1,0,3:2:0:0:
110,318,19978,2,0,P|151:318|205:244,1,121.500004634857,2|0,0:2|3:2,0:0:0:0:
229,181,20533,2,0,L|225:116,1,60.7500023174287,0|2,0:2|0:3,0:0:0:0:
157,68,20904,2,0,L|161:3,2,60.7500023174287,0|0|0,0:2|0:2|0:2,0:0:0:0:
277,62,21459,6,0,P|314:78|396:47,1,121.500004634857,2|0,3:2|0:2,0:0:0:0:
498,253,22200,2,0,P|494:223|489:188,2,60.7500023174287,0|0|0,0:2|0:2|3:2,0:0:0:0:
436,312,22756,1,0,3:2:0:0:
365,264,22941,1,2,0:2:0:0:
238,361,23311,1,0,3:2:0:0:
365,264,23681,2,0,P|329:281|289:277,2,60.7500023174287,2|0|0,0:3|0:2|0:2,0:0:0:0:
301,184,24237,1,0,0:2:0:0:
312,100,24422,6,0,B|317:199|317:199|287:170,1,121.500004634857,2|0,3:2|0:2,0:0:0:0:
172,133,24978,2,0,L|241:137,1,60.7500023174287,0|0,0:2|0:2,0:0:0:0:
192,50,25348,2,0,L|123:54,2,60.7500023174287,0|0|0,0:2|3:2|3:2,0:0:0:0:
271,17,25904,1,2,0:2:0:0:
236,162,26274,1,0,3:2:0:0:
398,65,26644,2,0,L|329:61,2,60.7500023174287,2|0|0,0:3|0:2|0:2,0:0:0:0:
460,10,27200,1,0,0:2:0:0:
460,10,27385,6,0,P|430:70|446:129,1,121.500004634857,2|0,3:2|0:2,0:0:0:0:
357,205,27941,1,0,0:2:0:0:
357,205,28126,2,0,P|366:146|337:94,1,121.500004634857,0|0,0:2|3:2,0:0:0:0:
265,47,28681,1,0,3:2:0:0:
196,97,28867,2,0,P|155:110|79:73,2,121.500004634857,2|0|2,3:2|3:2|0:3,0:0:0:0:
265,47,29793,1,0,0:2:0:0:
311,118,29978,1,0,0:2:0:0:
277,196,30163,1,0,0:2:0:0:
325,265,30348,6,0,B|372:283|372:283|447:266|447:266,1,121.500004634857,2|0,3:2|0:2,0:0:0:0:
512,168,30904,2,0,B|517:166|442:183|442:183|395:165,1,121.500004634857,0|0,0:2|0:2,0:0:0:0:
428,87,31459,1,0,3:2:0:0:
428,87,31644,1,0,3:2:0:0:
332,2,31830,2,0,P|347:55|319:117,1,121.500004634857,2|0,0:2|3:2,0:0:0:0:
261,53,32385,1,0,0:2:0:0:
202,114,32570,2,0,P|187:167|215:229,1,121.500004634857,2|0,0:3|0:2,0:0:0:0:
212,225,33311,5,2,3:2:0:0:
156,289,33496,2,0,L|95:286,1,60.7500023174287,0|0,0:2|0:2,0:0:0:0:
215,350,33867,2,0,L|275:347,2,60.7500023174287,2|0|0,0:2|0:2|0:2,0:0:0:0:
327,287,34422,2,0,P|314:242|356:169,1,121.500004634857,2|0,3:2|0:2,0:0:0:0:
400,113,34978,2,0,P|365:105|333:84,2,60.7500023174287,0|0|0,0:2|3:2|0:2,0:0:0:0:
401,28,35533,1,8,0:2:0:0:
473,72,35718,1,0,3:2:0:0:
489,155,35904,1,0,0:2:0:0:
452,231,36089,1,0,0:2:0:0:
354,289,36274,6,0,L|231:276,1,121.500004634857,0|0,3:2|3:2,0:0:0:0:
73,130,37015,2,0,L|142:122,2,60.7500023174287,8|0|0,0:2|0:2|3:2,0:0:0:0:
176,54,37570,2,0,P|206:90|197:171,1,121.500004634857,2|0,3:2|3:2,0:0:0:0:
217,245,38126,2,0,P|179:239|147:223,1,60.7500023174287,0|0,3:2|0:2,0:0:0:0:
268,317,38496,2,0,P|232:330|196:332,1,60.7500023174287,8|0,0:2|0:2,0:0:0:0:
300,239,38867,2,0,P|323:220|342:196,1,60.7500023174287,0|0,3:2|0:2,0:0:0:0:
261,46,39237,6,0,B|269:148|269:148|293:121,1,121.500004634857,0|0,3:2|3:2,0:0:0:0:
281,133,39978,1,8,0:2:0:0:
187,94,40163,1,0,0:2:0:0:
280,21,40348,1,0,3:2:0:0:
271,167,40533,2,0,L|260:38,1,121.500004634857,2|0,3:2|3:2,0:0:0:0:
162,23,41089,2,0,L|155:97,1,60.7500023174287,0|0,3:2|0:2,0:0:0:0:
89,212,41459,2,0,L|82:137,1,60.7500023174287,8|0,0:2|0:2,0:0:0:0:
16,23,41830,2,0,L|9:97,1,60.7500023174287,0|0,3:2|0:2,0:0:0:0:
89,212,42200,5,2,3:2:0:0:
89,212,42756,1,0,3:2:0:0:
96,304,42941,2,0,P|61:299|30:280,1,60.7500023174287,8|0,0:2|0:2,0:0:0:0:
94,151,43311,2,0,L|88:211,1,60.7500023174287,0|2,3:2|3:2,0:0:0:0:
184,188,43681,2,0,P|219:183|250:164,1,60.7500023174287,0|0,0:2|3:2,0:0:0:0:
102,65,44052,2,0,P|134:78|171:77,1,60.7500023174287,0|0,3:2|0:2,0:0:0:0:
151,237,44422,2,0,P|174:210|186:176,1,60.7500023174287,8|0,0:2|0:2,0:0:0:0:
9,195,44793,2,0,P|41:184|69:159,1,60.7500023174287,0|0,3:2|0:2,0:0:0:0:
165,345,45163,6,0,L|44:353,1,121.500004634857,2|0,3:2|3:2,0:0:0:0:
402,249,45904,1,8,0:2:0:0:
378,380,46089,1,0,0:2:0:0:
405,232,46274,1,0,3:2:0:0:
311,301,46459,2,0,P|257:308|193:251,1,121.500004634857,2|0,3:2|3:2,0:0:0:0:
278,164,47015,2,0,L|271:246,1,60.7500023174287,2|0,3:2|0:2,0:0:0:0:
187,114,47385,2,0,L|194:196,1,60.7500023174287,8|0,0:2|0:2,0:0:0:0:
271,20,47756,2,0,L|264:102,1,60.7500023174287,0|0,3:2|0:2,0:0:0:0:
107,90,48126,6,0,L|118:224,1,121.500004634857,0|0,3:2|3:2,0:0:0:0:
130,351,48867,2,0,P|90:360|63:351,2,60.7500023174287,8|0|0,0:2|0:2|3:2,0:0:0:0:
270,302,49422,2,0,P|221:308|159:259,1,121.500004634857,2|0,3:2|3:2,0:0:0:0:
268,176,49978,2,0,P|255:203|236:227,1,60.7500023174287,0|0,3:2|0:2,0:0:0:0:
187,84,50348,2,0,P|188:114|183:144,1,60.7500023174287,8|0,0:2|0:2,0:0:0:0:
69,44,50718,2,0,P|85:69|96:97,1,60.7500023174287,0|0,3:2|0:2,0:0:0:0:
19,225,51089,6,0,P|52:185|124:184,1,121.500004634857,0|0,3:2|3:2,0:0:0:0:
118,181,51830,1,8,0:2:0:0:
172,279,52015,1,0,0:2:0:0:
208,123,52200,1,0,3:2:0:0:
338,229,52385,2,0,L|209:213,1,121.500004634857,2|0,3:2|3:2,0:0:0:0:
335,129,52941,2,0,P|398:148|462:122,2,121.500004634857,0|8|0,3:2|0:2|3:2,0:0:0:0:
220,12,54052,5,2,3:2:0:0:
220,12,54422,2,0,P|221:42|224:73,1,60.7500023174287,0|0,3:2|0:2,0:0:0:0:
125,129,54793,2,0,P|127:98|128:68,1,60.7500023174287,8|0,0:2|0:2,0:0:0:0:
25,98,55163,1,0,3:0:0:0:
25,98,55348,1,0,3:0:0:0:
83,194,55533,2,0,P|124:207|197:151,2,121.500004634857,2|0|8,0:2|3:2|0:2,0:0:0:0:
180,353,56644,1,0,3:2:0:0:
269,189,57015,6,0,L|272:278,1,81,2|0,3:2|0:2,0:0:0:0:
124,131,57385,2,0,L|127:42,1,81,8|0,0:2|0:2,0:0:0:0:
323,95,57756,2,0,P|284:109|242:101,1,81,0|0,3:2|3:2,0:0:0:0:
80,198,58126,2,0,P|119:212|161:204,1,81,8|0,0:2|0:2,0:0:0:0:
245,240,58496,6,0,B|269:171|204:122|204:122|246:137|291:114|312:28|312:28|303:65|335:116,1,368.549983129121,2|0,3:2|0:2,0:0:0:0:
362,323,59978,6,0,B|334:234|390:245|364:165,1,162,4|8,3:2|0:2,0:0:0:0:
486,214,60533,1,0,3:2:0:0:
285,308,60718,2,0,P|329:325|370:321,1,81,0|0,0:2|3:2,0:0:0:0:
512,127,61089,2,0,P|471:126|434:142,1,81,8|0,0:2|3:2,0:0:0:0:
235,22,61459,5,2,3:2:0:0:
235,22,61830,2,0,P|237:60|241:108,1,81,8|0,0:2|0:2,0:0:0:0:
84,200,62200,2,0,P|86:159|89:119,1,81,0|0,3:2|3:2,0:0:0:0:
127,3,62570,1,8,0:2:0:0:
0,147,62756,1,0,0:2:0:0:
156,247,62941,6,0,P|110:282|14:250,1,162,2|8,3:2|0:2,0:0:0:0:
207,320,63496,2,0,P|199:262|275:195,1,162,0|0,3:2|3:2,0:0:0:0:
440,209,64052,1,8,0:2:0:0:
326,19,64237,6,0,B|328:71|331:150|331:150|347:129|370:118,1,162,2|0,3:2|0:2,0:0:0:0:
467,320,64793,2,0,B|465:268|462:189|462:189|446:210|440:210,1,162,8|0,0:2|3:2,0:0:0:0:
309,281,65348,1,0,3:2:0:0:
440,209,65533,1,8,0:2:0:0:
295,286,65718,1,0,0:2:0:0:
402,67,65904,6,0,P|369:92|350:127,1,81,2|0,3:2|0:2,0:0:0:0:
218,272,66274,2,0,P|254:287|295:286,1,81,8|0,0:2|3:2,0:0:0:0:
251,117,66644,2,0,P|256:156|277:191,1,81,0|0,0:2|3:2,0:0:0:0:
512,180,67015,2,0,P|474:164|429:167,1,81,8|0,0:2|0:2,0:0:0:0:
340,367,67385,5,2,3:2:0:0:
340,367,67756,2,0,P|341:323|367:288,1,81,8|0,0:2|0:2,0:0:0:0:
287,162,68126,2,0,L|203:170,1,81,0|0,3:2|3:2,0:0:0:0:
395,62,68496,2,0,L|479:70,1,81,8|0,0:2|0:2,0:0:0:0:
290,6,68867,6,0,B|260:86|328:73|285:167,1,162,2|8,3:2|0:2,0:0:0:0:
158,93,69422,1,0,3:2:0:0:
196,283,69607,1,0,3:2:0:0:
196,283,69700,1,0,3:2:0:0:
196,283,69793,1,0,3:2:0:0:
76,162,69978,1,8,0:2:0:0:
314,249,70163,6,0,L|413:241,1,81,4|0,3:2|0:2,0:0:0:0:
418,220,70441,1,0,3:2:0:0:
418,220,70533,1,0,3:2:0:0:
357,360,70718,1,8,0:2:0:0:
512,198,70904,2,0,L|504:297,1,81,0|0,3:2|0:2,0:0:0:0:
357,360,71274,1,0,3:2:0:0:
398,124,71459,1,8,0:2:0:0:
275,209,71644,1,0,3:2:0:0:
275,209,71737,1,0,3:2:0:0:
275,209,71830,6,0,L|110:197,1,162,2|8,3:2|0:2,0:0:0:0:
10,57,72385,2,0,B|51:34|51:34|45:161,1,162,0|0,3:2|3:2,0:0:0:0:
40,314,72941,1,8,0:2:0:0:
113,197,73126,1,0,3:2:0:0:
181,367,73311,6,0,P|232:379|326:308,1,162,2|8,3:2|0:2,0:0:0:0:
257,218,73867,1,0,0:2:0:0:
399,144,74052,1,0,3:2:0:0:
244,73,74237,1,0,3:2:0:0:
334,186,74422,2,0,P|322:139|338:95,1,81,8|0,0:2|0:2,0:0:0:0:
400,7,74793,5,2,3:2:0:0:
244,73,74978,1,0,0:2:0:0:
399,144,75163,1,8,0:2:0:0:
176,212,75348,2,0,L|264:218,1,81,0|0,3:2|0:2,0:0:0:0:
461,300,75718,2,0,L|373:306,2,81,0|8|0,3:2|0:2|3:2,0:0:0:0:
299,375,76274,6,0,P|308:319|249:229,1,162,2|8,0:2|0:2,0:0:0:0:
353,147,76830,1,0,3:2:0:0:
353,147,76922,1,0,3:2:0:0:
353,147,77015,2,0,P|393:154|437:137,1,81,0|0,3:2|3:2,0:0:0:0:
270,4,77385,2,0,P|273:41|275:89,1,81,8|0,0:2|0:2,0:0:0:0:
137,187,77756,6,0,P|138:146|141:106,1,81,2|0,3:2|0:2,0:0:0:0:
76,259,78126,2,0,P|113:280|156:276,1,81,8|2,0:2|3:2,0:0:0:0:
297,143,78496,2,0,P|260:164|242:203,1,81,0|0,0:2|3:2,0:0:0:0:
300,384,78867,2,0,P|299:341|274:306,1,81,8|0,0:2|0:2,0:0:0:0:
297,143,79237,6,0,P|343:162|446:106,1,162,2|8,3:2|0:2,0:0:0:0:
218,55,79793,2,0,P|261:120|242:197,1,162,2|0,0:2|3:2,0:0:0:0:
95,329,80348,1,8,0:2:0:0:
95,329,80718,6,0,L|11:328,1,81,2|0,3:2|0:2,0:0:0:0:
205,263,81089,2,0,P|244:274|293:257,1,81,8|2,0:2|3:2,0:0:0:0:
142,152,81459,2,0,P|112:180|103:231,1,81,0|0,0:2|3:2,0:0:0:0:
269,152,81830,2,0,P|259:112|219:78,1,81,8|0,0:2|0:2,0:0:0:0:
59,22,82200,5,10,0:2:0:0:
59,22,82293,1,8,0:2:0:0:
59,22,82385,1,8,0:2:0:0:
142,152,82570,2,0,L|137:237,1,81,8|2,0:2|3:2,0:0:0:0:
115,261,82848,2,0,L|118:325,1,40.5,8|0,0:2|0:2,0:0:0:0:
4,200,83033,2,0,L|0:119,1,81,8|0,0:2|0:2,0:0:0:0:
18,78,83311,1,8,0:2:0:0:
58,97,83404,1,8,0:2:0:0:
101,102,83496,1,8,0:2:0:0:
141,83,83589,1,8,0:2:0:0:
166,47,83681,6,0,P|153:94|222:179,2,162,4|8|0,3:2|0:2|0:2,0:0:0:0:
334,84,84607,1,0,3:2:0:0:
334,84,84793,2,0,L|245:93,1,81,8|0,0:2|0:2,0:0:0:0:
474,227,85163,5,2,3:2:0:0:
474,227,85533,2,0,P|465:183|478:140,1,81,8|0,0:2|0:2,0:0:0:0:
354,345,85904,2,0,P|363:301|350:258,1,81,0|0,3:2|3:2,0:0:0:0:
190,307,86274,2,0,P|234:316|277:303,1,81,8|0,0:2|0:2,0:0:0:0:
231,188,86644,5,2,3:2:0:0:
149,357,86830,2,0,P|146:312|143:268,1,81,0|8,0:2|0:2,0:0:0:0:
236,107,87200,2,0,P|233:151|230:196,1,81,0|0,0:2|0:2,0:0:0:0:
140,117,87570,1,0,3:2:0:0:
316,54,87756,1,8,0:2:0:0:
285,265,87941,6,0,P|238:284|148:222,1,162,2|0,3:2|0:2,0:0:0:0:
217,369,88496,1,8,0:2:0:0:
236,107,88681,2,0,P|233:151|230:196,1,81,0|0,0:2|3:2,0:0:0:0:
127,144,89052,1,0,3:2:0:0:
324,93,89237,1,8,0:2:0:0:
109,150,89422,1,0,0:2:0:0:
340,87,89607,6,0,P|343:127|345:167,1,81,2|0,3:2|0:2,0:0:0:0:
296,364,89978,2,0,P|299:324|302:284,1,81,8|0,0:2|3:2,0:0:0:0:
508,232,90348,2,0,P|472:248|433:242,1,81,0|0,0:2|3:2,0:0:0:0:
226,273,90718,2,0,P|262:289|301:282,1,81,8|0,0:2|3:2,0:0:0:0:
264,37,91089,6,0,L|271:201,1,162,0|8,3:2|0:2,0:0:0:0:
270,198,91830,2,0,P|293:163|339:141,1,81,0|0,3:2|3:2,0:0:0:0:
204,334,92200,2,0,P|181:299|135:277,1,81,8|0,0:2|0:2,0:0:0:0:
38,167,92570,6,0,P|118:186|188:143,1,162,2|8,3:2|0:2,0:0:0:0:
269,19,93126,1,0,3:2:0:0:
276,192,93311,1,0,0:2:0:0:
167,52,93496,1,0,3:2:0:0:
345,122,93681,1,8,0:2:0:0:
192,309,93867,6,0,L|183:143,1,162,2|0,3:2|0:2,0:0:0:0:
74,101,94422,1,8,0:2:0:0:
218,221,94607,2,0,P|266:233|355:162,1,162,2|0,3:2|3:2,0:0:0:0:
286,30,95163,1,8,0:2:0:0:
439,76,95348,1,0,3:2:0:0:
439,76,95441,1,0,3:2:0:0:
439,76,95533,5,2,3:2:0:0:
271,143,95718,1,0,0:2:0:0:
367,6,95904,1,8,0:2:0:0:
432,237,96089,2,0,L|439:75,1,162,0|0,3:2|3:2,0:0:0:0:
283,130,96644,1,8,0:2:0:0:
210,0,96830,6,0,L|216:86,1,81,0|2,0:2|3:2,0:0:0:0:
230,240,97200,1,0,0:2:0:0:
109,150,97385,1,8,0:2:0:0:
283,130,97570,1,0,0:2:0:0:
164,282,97756,2,0,P|154:242|174:186,1,81,0|0,3:2|3:2,0:0:0:0:
314,282,98126,2,0,P|324:322|304:378,1,81,8|0,0:2|0:2,0:0:0:0:
283,130,98496,6,0,L|197:124,1,81,2|0,3:2|0:2,0:0:0:0:
314,282,98867,2,0,L|400:276,1,81,8|0,0:2|3:2,0:0:0:0:
512,218,99237,1,0,0:2:0:0:
454,352,99422,1,0,3:2:0:0:
376,197,99607,1,8,0:2:0:0:
473,365,99793,6,0,P|466:306|522:209,1,162,2|0,3:2|0:2,0:0:0:0:
383,173,100348,1,8,0:2:0:0:
465,22,100533,2,0,P|462:64|465:114,1,81,0|0,0:2|3:2,0:0:0:0:
285,50,100904,1,0,3:2:0:0:
294,220,101089,2,0,P|295:179|292:139,1,81,8|0,0:2|0:2,0:0:0:0:
444,342,101459,6,0,P|365:357|290:316,1,162,2|8,3:2|0:2,0:0:0:0:
140,215,102015,2,0,B|226:184|206:268|306:213,1,162,2|0,3:2|3:2,0:0:0:0:
407,78,102570,1,8,0:2:0:0:
265,23,102756,6,0,P|268:63|272:111,1,81,2|0,3:2|3:2,0:0:0:0:
443,210,103126,1,0,0:2:0:0:
345,246,103311,2,0,P|348:205|351:165,1,81,8|0,0:2|0:2,0:0:0:0:
271,342,103681,2,0,P|243:311|200:296,1,81,0|0,3:2|3:2,0:0:0:0:
345,246,104052,2,0,P|376:221|416:213,1,81,8|0,0:2|0:2,0:0:0:0:
153,40,104422,5,14,0:2:0:0:
73,298,104607,2,0,L|67:217,1,81,8|0,0:2|3:2,0:0:0:0:
217,104,104978,1,10,0:2:0:0:
164,353,105163,2,0,L|169:272,1,81,8|0,0:2|3:2,0:0:0:0:
279,41,105533,1,8,0:2:0:0:
262,286,105718,2,0,L|256:205,1,81,8|0,0:2|3:2,0:0:0:0:
340,103,106089,1,10,0:2:0:0:
352,359,106274,2,0,L|357:278,1,81,8|0,0:2|3:2,0:0:0:0:
385,238,106552,5,0,3:2:0:0:
426,263,106644,1,0,3:2:0:0:
474,255,106737,1,0,3:2:0:0:
500,213,106830,1,0,3:2:0:0:
485,166,106922,1,0,3:2:0:0:
452,129,107015,1,0,3:2:0:0:
441,81,107107,1,0,3:2:0:0:
467,39,107200,1,0,3:2:0:0:
385,238,107385,5,2,3:2:0:0:
154,301,119237,6,0,L|303:294,1,145.799995550537,2|8,3:2|0:2,0:0:0:0:
369,190,119793,1,0,0:0:0:0:
369,190,119978,2,0,P|365:235|377:275,2,72.8999977752686,0|0|8,3:2|3:2|0:2,0:0:0:0:
440,360,120533,2,0,L|352:355,1,72.8999977752686,2|0,3:2|0:0,0:0:0:0:
440,225,120904,1,0,3:2:0:0:
440,225,121089,2,0,L|527:220,1,72.8999977752686,8|0,0:2|0:0,0:0:0:0:
368,128,121459,2,0,P|372:83|360:43,2,72.8999977752686,0|0|8,3:2|0:0|0:2,0:0:0:0:
275,93,122015,1,0,0:0:0:0:
164,154,122200,6,0,P|191:106|287:100,1,145.799995550537,2|8,3:2|0:2,0:0:0:0:
59,346,122941,2,0,P|56:308|51:264,2,72.8999977752686,0|0|8,3:2|3:2|0:2,0:0:0:0:
164,154,123496,2,0,P|156:226|150:299,2,145.799995550537,2|0|0,3:2|3:2|0:0,0:0:0:0:
271,37,124422,1,0,3:2:0:0:
142,64,124607,1,0,0:0:0:0:
261,131,124793,1,8,0:2:0:0:
151,43,124978,1,0,0:0:0:0:
252,152,125163,6,0,P|334:145|408:138,1,145.799995550537,2|8,3:2|0:2,0:0:0:0:
489,184,125718,1,0,0:0:0:0:
497,26,125904,1,0,3:2:0:0:
489,184,126089,2,0,P|482:137|482:102,1,72.8999977752686,0|8,3:2|0:2,0:0:0:0:
364,22,126459,2,0,P|362:58|356:94,1,72.8999977752686,0|2,3:2|0:0,0:0:0:0:
326,179,126830,1,0,3:2:0:0:
259,56,127015,1,8,0:2:0:0:
133,126,127200,2,0,P|168:132|205:133,1,72.8999977752686,0|0,0:0|3:2,0:0:0:0:
111,25,127570,1,0,0:0:0:0:
111,25,127756,2,0,P|75:31|38:32,1,72.8999977752686,8|0,0:2|0:0,0:0:0:0:
156,215,128126,5,8,3:2:0:0:
156,215,128681,1,10,0:2:0:0:
114,358,128867,1,10,0:2:0:0:
34,138,129052,1,10,0:2:0:0:
57,279,129237,1,2,3:2:0:0:
198,72,129422,1,10,0:2:0:0:
198,72,129793,5,0,3:2:0:0:
259,157,129978,2,0,L|251:245,1,72.8999977752686,8|0,0:2|3:2,0:0:0:0:
221,261,130256,1,0,3:2:0:0:
221,261,130348,2,0,L|226:324,1,36.4499988876343,0|0,3:2|0:0,0:0:0:0:
282,366,130533,1,8,3:2:0:0:
282,366,130904,1,0,3:0:0:0:
282,366,131089,6,0,P|332:381|401:317,1,145.799995550537,4|8,3:2|0:2,0:0:0:0:
333,182,131644,1,0,0:0:0:0:
333,182,131830,2,0,P|339:221|337:254,2,72.8999977752686,0|0|8,3:2|3:2|0:2,0:0:0:0:
412,81,132385,2,0,P|359:96|279:44,1,145.799995550537,0|0,3:2|3:2,0:0:0:0:
167,116,132941,1,8,0:2:0:0:
167,116,133311,1,0,3:2:0:0:
41,38,133496,1,0,0:0:0:0:
175,15,133681,1,8,0:2:0:0:
73,134,133867,1,0,0:0:0:0:
283,187,134052,6,0,P|224:227|154:214,1,145.799995550537,0|8,3:2|0:2,0:0:0:0:
31,316,134607,2,0,P|57:291|98:280,1,72.8999977752686,0|0,0:0|3:2,0:0:0:0:
119,154,134978,2,0,P|144:180|155:221,1,72.8999977752686,0|8,3:2|0:2,0:0:0:0:
108,369,135348,1,0,3:2:0:0:
268,43,135718,1,0,3:2:0:0:
336,117,135904,2,0,P|334:152|332:195,1,72.8999977752686,8|0,0:2|0:0,0:0:0:0:
193,258,136274,2,0,P|191:221|189:185,2,72.8999977752686,0|0|8,3:2|0:0|0:2,0:0:0:0:
185,104,136830,1,0,0:0:0:0:
157,362,137015,6,0,P|203:295|288:298,1,145.799995550537,0|8,3:2|0:2,0:0:0:0:
131,225,137570,2,0,P|73:241|-2:187,1,145.799995550537,0|0,0:0|3:2,0:0:0:0:
79,101,138126,1,8,0:2:0:0:
79,101,138311,1,0,3:2:0:0:
210,256,138496,2,0,B|231:174|186:178|208:99,1,145.799995550537,0|8,0:0|0:2,0:0:0:0:
337,9,139052,2,0,B|355:74|310:70|331:152,1,145.799995550537,0|0,0:0|0:0,0:0:0:0:
417,311,139607,1,8,0:2:0:0:
417,311,139978,6,0,L|335:302,1,72.8999977752686,0|0,3:2|0:0,0:0:0:0:
169,232,140348,2,0,L|251:223,1,72.8999977752686,8|0,0:2|0:0,0:0:0:0:
331,151,140718,1,0,3:2:0:0:
233,313,140904,1,0,3:2:0:0:
182,134,141089,1,8,0:2:0:0:
403,158,141274,2,0,L|321:149,1,72.8999977752686,0|0,3:2|0:0,0:0:0:0:
215,8,141644,5,0,3:2:0:0:
178,163,141830,1,0,3:2:0:0:
90,33,142015,1,0,0:0:0:0:
232,90,142200,1,8,0:0:0:0:
22,159,142385,1,0,3:0:0:0:
150,88,142570,1,8,0:0:0:0:
77,272,142756,1,0,3:0:0:0:
102,149,142941,6,0,P|145:167|225:109,1,129.6,4|0,3:2|3:2,0:0:0:0:
403,286,143681,2,0,P|406:253|412:221,2,64.8,8|0|0,0:2|0:2|3:2,0:0:0:0:
316,353,144237,2,0,P|261:360|204:308,1,129.6,2|0,3:2|3:2,0:0:0:0:
273,213,144793,2,0,P|278:244|282:277,1,64.8,0|0,3:2|0:2,0:0:0:0:
209,104,145163,2,0,P|203:135|199:168,1,64.8,8|0,0:2|0:2,0:0:0:0:
277,0,145533,2,0,P|282:31|286:64,1,64.8,0|0,3:2|0:2,0:0:0:0:
273,213,145904,5,0,3:2:0:0:
433,109,146274,1,0,3:2:0:0:
399,371,146644,1,8,0:2:0:0:
482,224,146830,1,0,0:2:0:0:
370,271,147015,1,0,3:2:0:0:
512,288,147200,2,0,P|506:205|515:141,1,129.6,2|0,3:2|3:2,0:0:0:0:
410,44,147756,2,0,P|427:84|428:116,1,64.8,0|0,3:2|0:2,0:0:0:0:
266,149,148126,2,0,P|292:114|319:97,1,64.8,8|0,0:2|0:2,0:0:0:0:
428,221,148496,2,0,P|384:215|356:200,1,64.8,0|0,3:2|0:2,0:0:0:0:
257,19,148867,6,0,P|261:80|266:153,1,129.6,2|0,3:2|0:0,0:0:0:0:
66,104,149422,1,0,3:2:0:0:
66,104,149607,2,0,P|130:123|190:91,1,129.6,8|0,0:2|3:2,0:0:0:0:
257,19,150163,1,2,3:2:0:0:
265,148,150348,2,0,P|262:186|259:231,1,64.8,0|0,0:2|3:2,0:0:0:0:
176,308,150718,2,0,P|174:276|172:244,1,64.8,0|0,3:2|0:2,0:0:0:0:
325,311,151089,2,0,P|322:343|320:375,1,64.8,8|0,0:2|0:2,0:0:0:0:
172,244,151459,2,0,P|137:233|109:207,1,64.8,0|0,3:2|0:2,0:0:0:0:
205,84,151830,5,2,3:2:0:0:
205,84,152200,2,0,L|277:80,1,64.8,0|0,3:2|0:0,0:0:0:0:
372,22,152570,1,8,0:2:0:0:
351,170,152756,1,0,0:2:0:0:
269,80,152941,1,0,3:2:0:0:
441,134,153126,2,0,L|431:269,1,129.6,2|0,3:2|3:2,0:0:0:0:
340,372,153681,2,0,P|352:310|319:243,2,129.6,2|8|0,3:2|0:2|3:2,0:0:0:0:
141,192,154793,6,0,P|211:206|271:177,1,129.6,0|0,3:2|3:2,0:0:0:0:
429,13,155533,1,8,0:2:0:0:
279,67,155718,1,0,0:0:0:0:
442,6,155904,1,0,3:2:0:0:
363,197,156089,2,0,P|346:145|384:66,1,129.6,2|0,3:2|3:2,0:0:0:0:
492,134,156644,2,0,L|415:141,1,64.8,0|0,3:2|0:2,0:0:0:0:
324,273,157015,2,0,L|401:280,1,64.8,8|0,0:2|0:2,0:0:0:0:
507,327,157385,2,0,L|500:250,1,64.8,0|0,3:2|0:2,0:0:0:0:
492,134,157756,5,0,3:2:0:0:
243,23,158126,1,0,3:2:0:0:
454,8,158496,1,8,0:2:0:0:
349,124,158681,1,0,0:2:0:0:
325,13,158867,1,0,3:2:0:0:
363,203,159052,2,0,P|375:139|429:100,1,129.6,2|0,3:2|3:2,0:0:0:0:
450,249,159607,2,0,B|379:220|390:282|315:242,2,129.6,0|8|0,3:2|0:2|3:2,0:0:0:0:
288,367,160718,6,0,L|151:355,1,129.6,2|0,3:2|3:2,0:0:0:0:
74,251,161274,1,0,0:2:0:0:
74,251,161459,2,0,P|117:273|198:250,1,129.6,8|0,0:2|3:0,0:0:0:0:
131,118,162015,1,0,3:0:0:0:
131,118,162200,2,0,L|135:196,1,64.8,2|0,0:2|0:0,0:0:0:0:
229,49,162570,2,0,P|189:40|161:19,1,64.8,0|0,3:2|0:0,0:0:0:0:
270,136,162941,2,0,P|297:119|329:114,1,64.8,8|0,0:2|0:0,0:0:0:0:
424,174,163311,1,0,3:2:0:0:
424,174,163681,6,0,P|446:254|420:307,2,145.799995550537,2|8|0,3:2|0:2|3:2,0:0:0:0:
186,153,164607,1,0,0:0:0:0:
261,241,164793,1,8,0:2:0:0:
368,110,164978,1,0,0:2:0:0:
186,153,165163,6,0,B|156:97|187:24|282:26|315:109|265:161|265:161|307:146|341:193|331:245|267:263|239:225,1,425.250016222001,2|0,3:2|0:0,0:0:0:0:
94,311,166644,6,0,P|159:354|236:335,1,162,4|8,3:2|0:2,0:0:0:0:
178,216,167200,1,0,3:2:0:0:
345,318,167385,2,0,P|334:278|344:236,1,81,0|0,0:2|3:2,0:0:0:0:
182,137,167756,2,0,P|189:176|178:214,1,81,8|0,0:2|3:2,0:0:0:0:
227,3,168126,5,2,3:2:0:0:
227,3,168496,2,0,P|237:44|245:89,1,81,8|0,0:2|0:2,0:0:0:0:
285,198,168867,2,0,P|273:238|257:281,1,81,0|0,3:2|3:2,0:0:0:0:
82,184,169237,2,0,P|123:174|168:165,1,81,8|0,0:2|0:2,0:0:0:0:
397,252,169607,6,0,P|345:296|246:257,1,162,2|8,3:2|0:2,0:0:0:0:
451,325,170163,2,0,P|424:262|496:179,1,162,0|0,3:2|3:2,0:0:0:0:
301,124,170718,1,8,0:2:0:0:
396,23,170904,6,0,B|430:2|430:2|411:61|433:128,1,162,2|0,3:2|0:2,0:0:0:0:
267,225,171459,2,0,B|266:216|287:163|268:104|268:104|302:125,1,162,8|0,0:2|3:2,0:0:0:0:
370,209,172015,1,0,3:2:0:0:
174,155,172200,1,8,0:2:0:0:
387,212,172385,1,0,0:2:0:0:
217,368,172570,6,0,L|212:277,1,81,2|0,3:2|0:2,0:0:0:0:
391,131,172941,2,0,L|386:222,1,81,8|0,0:2|3:2,0:0:0:0:
104,121,173311,2,0,P|134:146|187:155,1,81,0|0,0:2|3:2,0:0:0:0:
341,0,173681,2,0,P|304:13|270:54,1,81,8|0,0:2|0:2,0:0:0:0:
175,156,174052,5,2,3:2:0:0:
175,156,174422,2,0,L|180:236,1,81,8|0,0:2|0:2,0:0:0:0:
312,354,174793,2,0,P|316:311|301:267,1,81,0|0,3:2|3:2,0:0:0:0:
430,152,175163,2,0,P|419:190|423:230,1,81,8|0,0:2|0:2,0:0:0:0:
325,62,175533,6,0,P|267:85|176:32,1,162,2|8,3:2|0:2,0:0:0:0:
7,171,176089,1,0,3:2:0:0:
159,62,176274,1,0,3:2:0:0:
112,208,176459,1,0,3:2:0:0:
87,12,176644,1,8,0:2:0:0:
335,128,176830,6,0,P|275:179|199:164,1,162,4|0,3:2|0:0,0:0:0:0:
299,17,177385,1,8,0:2:0:0:
379,222,177570,2,0,P|366:151|439:81,1,162,0|0,3:2|3:2,0:0:0:0:
511,177,178126,1,8,0:2:0:0:
275,126,178311,1,0,3:2:0:0:
275,126,178404,1,0,3:2:0:0:
275,126,178496,6,0,P|278:190|285:289,1,162,2|8,3:2|0:2,0:0:0:0:
163,184,179052,2,0,P|165:221|169:278,1,81,0|0,3:2|0:0,0:0:0:0:
279,194,179422,1,0,3:2:0:0:
146,82,179607,1,8,0:2:0:0:
283,32,179793,1,0,3:2:0:0:
283,32,179885,1,0,0:0:0:0:
283,32,179978,6,0,P|333:56|428:10,1,162,2|8,3:2|0:2,0:0:0:0:
165,85,180533,2,0,L|72:80,1,81,0|0,0:2|3:2,0:0:0:0:
198,198,180904,1,0,3:2:0:0:
198,198,181089,2,0,L|291:193,1,81,8|0,0:2|0:2,0:0:0:0:
398,105,181459,5,2,3:2:0:0:
360,281,181644,1,0,0:2:0:0:
280,73,181830,1,8,0:2:0:0:
368,298,182015,2,0,P|355:247|444:205,1,162,0|0,3:2|0:0,0:0:0:0:
489,334,182570,1,8,0:2:0:0:
442,45,182756,1,0,3:2:0:0:
442,45,182941,6,0,B|465:123|402:108|441:211,1,162,2|8,0:2|0:2,0:0:0:0:
486,351,183496,1,0,0:2:0:0:
296,259,183681,2,0,P|333:276|379:272,1,81,0|0,3:2|3:2,0:0:0:0:
489,143,184052,2,0,P|455:166|436:208,1,81,8|0,0:2|0:2,0:0:0:0:
269,62,184422,6,0,P|271:101|274:152,1,81,2|0,3:2|0:2,0:0:0:0:
415,5,184793,2,0,P|412:44|410:95,1,81,8|2,0:2|3:2,0:0:0:0:
303,213,185163,2,0,P|263:220|219:197,1,81,0|0,0:2|3:2,0:0:0:0:
393,358,185533,2,0,P|406:319|448:293,1,81,8|0,0:2|0:2,0:0:0:0:
187,139,185904,6,0,P|225:207|303:213,1,162,2|8,3:2|0:2,0:0:0:0:
261,54,186459,2,0,B|172:84|195:11|100:48,1,162,2|0,0:2|3:2,0:0:0:0:
26,218,187015,1,8,0:2:0:0:
26,218,187385,6,0,L|32:300,1,81,2|0,3:2|0:2,0:0:0:0:
72,124,187756,2,0,P|105:146|123:192,1,81,8|2,0:2|3:2,0:0:0:0:
177,338,188126,2,0,P|179:298|210:259,1,81,0|0,0:2|3:2,0:0:0:0:
366,339,188496,2,0,L|284:333,1,81,8|0,0:2|0:2,0:0:0:0:
432,80,188867,5,10,0:2:0:0:
401,237,189052,1,8,0:2:0:0:
326,21,189237,1,8,0:2:0:0:
354,165,189422,1,2,3:2:0:0:
445,59,189607,1,8,0:2:0:0:
445,59,189700,1,8,0:2:0:0:
445,59,189793,1,8,0:0:0:0:
277,126,189978,1,8,0:2:0:0:
502,215,190163,1,8,0:2:0:0:
502,215,190256,1,8,0:2:0:0:
502,215,190348,6,0,P|496:296|497:378,2,162,4|8|0,3:2|0:2|0:2,0:0:0:0:
445,59,191274,1,0,3:2:0:0:
332,174,191459,2,0,P|369:150|416:151,1,81,8|0,0:2|0:2,0:0:0:0:
301,303,191830,5,2,3:2:0:0:
301,303,192200,2,0,L|206:296,1,81,8|0,0:2|0:2,0:0:0:0:
410,373,192570,2,0,L|505:366,1,81,0|0,3:2|3:2,0:0:0:0:
510,222,192941,1,8,0:2:0:0:
510,222,193126,1,0,0:2:0:0:
421,41,193311,6,0,B|461:120|381:104|420:207,2,162,2|8|0,3:2|0:2|0:2,0:0:0:0:
208,201,194237,1,0,3:2:0:0:
290,27,194422,1,8,0:2:0:0:
59,91,194607,6,0,P|123:42|210:70,1,162,2|0,3:2|0:2,0:0:0:0:
157,280,195163,2,0,P|116:213|142:140,1,162,8|0,0:2|3:2,0:0:0:0:
393,166,195718,1,0,3:2:0:0:
208,201,195904,1,8,0:2:0:0:
416,160,196089,1,0,0:2:0:0:
308,313,196274,6,0,L|300:226,1,81,2|0,3:2|0:2,0:0:0:0:
423,79,196644,2,0,L|415:166,1,81,8|0,0:2|3:2,0:0:0:0:
281,23,197015,2,0,L|289:110,1,81,0|0,0:2|3:2,0:0:0:0:
488,36,197385,2,0,P|457:8|409:2,1,81,8|0,0:2|3:2,0:0:0:0:
154,60,197756,6,0,P|210:114|287:104,1,162,0|8,3:2|0:2,0:0:0:0:
288,103,198496,2,0,L|280:190,1,81,0|0,3:2|3:2,0:0:0:0:
155,249,198867,2,0,L|163:336,1,81,8|0,0:2|0:2,0:0:0:0:
321,260,199237,6,0,B|408:230|392:308|478:266,1,162,2|8,3:2|0:2,0:0:0:0:
454,167,199793,1,0,3:2:0:0:
397,353,199978,1,0,0:2:0:0:
344,166,200163,1,0,3:2:0:0:
474,267,200348,1,8,0:2:0:0:
167,252,200533,6,0,B|254:222|238:300|324:258,1,162,2|0,3:2|0:2,0:0:0:0:
358,86,201089,2,0,P|347:127|344:177,1,81,8|0,0:2|0:0,0:0:0:0:
474,267,201459,2,0,P|470:226|459:187,1,81,0|0,0:0|3:2,0:0:0:0:
288,34,201830,1,8,0:2:0:0:
454,96,202015,1,0,3:2:0:0:
288,214,202200,5,2,3:2:0:0:
358,86,202385,1,0,0:2:0:0:
399,297,202570,1,8,0:2:0:0:
150,191,202756,2,0,P|200:234|293:207,1,162,0|0,3:2|3:2,0:0:0:0:
358,86,203311,1,8,0:2:0:0:
109,268,203496,6,0,P|121:203|51:136,1,162,0|0,0:2|0:2,0:0:0:0:
287,213,204052,2,0,P|212:236|149:190,1,162,8|0,0:2|3:2,0:0:0:0:
202,100,204607,1,0,3:2:0:0:
257,316,204793,1,8,0:2:0:0:
257,316,205163,6,0,P|276:278|318:256,1,81,2|0,3:2|0:2,0:0:0:0:
202,100,205533,2,0,P|225:135|223:182,1,81,8|0,0:2|3:2,0:0:0:0:
40,146,205904,1,0,0:2:0:0:
180,269,206089,1,0,3:2:0:0:
1,236,206274,1,8,0:2:0:0:
161,363,206459,6,0,P|225:351|270:248,1,162,2|0,3:2|0:2,0:0:0:0:
166,91,207015,1,8,0:2:0:0:
174,188,207200,2,0,L|181:283,1,81,0|0,0:2|3:2,0:0:0:0:
165,90,207570,1,0,3:2:0:0:
32,80,207755,2,0,L|39:-15,1,81,8|0,0:2|0:2,0:0:0:0:
302,47,208126,6,0,P|244:100|166:91,1,162,2|8,3:2|0:2,0:0:0:0:
349,139,208681,2,0,P|332:62|378:0,1,162,2|0,3:2|3:2,0:0:0:0:
497,187,209237,1,8,0:2:0:0:
409,263,209422,6,0,P|369:257|317:248,1,81,2|0,3:2|3:2,0:0:0:0:
86,277,209793,1,0,0:2:0:0:
162,364,209978,2,0,P|202:358|254:349,1,81,8|0,0:2|0:2,0:0:0:0:
312,174,210348,2,0,P|330:210|320:269,1,81,0|0,3:2|3:2,0:0:0:0:
86,277,210718,1,8,0:2:0:0:
86,277,210811,1,0,0:0:0:0:
86,277,210904,1,0,0:2:0:0:
86,277,210996,1,0,0:0:0:0:
86,277,211089,5,14,0:2:0:0:
56,53,211274,2,0,L|68:148,1,81,8|0,0:2|3:2,0:0:0:0:
155,228,211644,1,10,0:2:0:0:
185,12,211830,2,0,L|173:107,1,81,8|0,0:2|3:2,0:0:0:0:
336,274,212200,1,8,0:2:0:0:
300,43,212385,2,0,L|312:138,1,81,8|0,0:2|3:2,0:0:0:0:
413,238,212756,1,10,0:2:0:0:
442,22,212941,2,0,L|430:117,1,81,8|0,0:2|3:2,0:0:0:0:
205,260,213311,5,2,3:2:0:0:
360,119,213496,1,2,3:2:0:0:
317,324,213681,1,2,3:2:0:0:
231,133,213867,1,2,3:2:0:0:
413,238,214052,5,2,3:2:0:0:
99,62,219978,6,0,L|188:55,1,72.8999977752686,2|0,3:2|0:0,0:0:0:0:
293,44,220348,1,8,0:2:0:0:
199,234,220533,2,0,P|189:183|268:112,1,145.799995550537,2|0,0:0|3:2,0:0:0:0:
374,207,221089,1,8,0:2:0:0:
425,42,221274,1,0,3:2:0:0:
331,136,221459,5,2,0:0:0:0:
491,114,221644,1,0,3:2:0:0:
299,40,221830,1,8,0:2:0:0:
497,97,222015,2,0,L|506:243,1,145.799995550537,2|0,0:0|0:0,0:0:0:0:
401,361,222570,1,8,0:2:0:0:
401,361,222941,5,2,3:2:0:0:
362,217,223126,1,0,3:2:0:0:
505,242,223311,1,8,0:2:0:0:
229,205,223496,2,0,P|305:237|376:202,1,145.799995550537,2|0,0:0|3:2,0:0:0:0:
131,265,224052,2,0,P|117:219|96:189,1,72.8999977752686,8|0,0:2|3:2,0:0:0:0:
21,85,224422,5,2,3:2:0:0:
21,85,225348,2,0,L|23:54,3,24.2999992584229,8|8|8|8,0:0|0:0|0:0|0:0,0:0:0:0:
125,0,225718,1,0,3:2:0:0:
125,0,225904,6,0,L|131:90,2,72.8999977752686,2|2|8,3:2|3:2|0:2,0:0:0:0:
86,160,226459,1,2,3:2:0:0:
86,160,226644,2,0,P|127:173|170:165,1,72.8999977752686,2|0,3:2|0:0,0:0:0:0:
346,44,227015,5,8,0:2:0:0:
276,142,227200,2,0,L|286:225,1,72.8999977752686,2|0,3:2|0:0,0:0:0:0:
362,271,227570,1,2,3:2:0:0:
362,271,227756,2,0,L|352:354,1,72.8999977752686,10|0,0:0|0:0,0:0:0:0:
497,113,228126,1,2,3:2:0:0:
373,144,228311,1,2,3:2:0:0:
504,284,228496,1,10,0:2:0:0:
434,196,228681,1,2,0:2:0:0:
353,343,228867,5,2,3:2:0:0:
353,343,229052,2,0,P|316:333|283:308,1,72.8999977752686,2|8,3:2|0:2,0:0:0:0:
369,225,229422,1,2,3:2:0:0:
369,225,229607,2,0,P|406:215|439:190,1,72.8999977752686,2|0,3:2|0:0,0:0:0:0:
358,122,229978,1,8,0:2:0:0:
218,114,230163,6,0,B|297:90|286:158|371:117,1,145.799995550537,2|2,3:2|3:2,0:0:0:0:
147,46,230718,2,0,P|184:114|150:183,1,145.799995550537,10|2,0:0|3:2,0:0:0:0:
54,308,231274,1,0,3:0:0:0:
186,252,231459,1,8,0:0:0:0:
30,170,231644,1,0,0:0:0:0:
202,263,231830,6,0,P|282:260|351:257,1,145.799995550537,2|8,3:2|0:2,0:0:0:0:
436,354,232385,2,0,P|356:351|287:348,1,145.799995550537,0|0,0:0|3:2,0:0:0:0:
383,180,232941,1,8,0:2:0:0:
308,14,233126,6,0,P|282:65|307:150,1,145.799995550537,0|0,3:2|3:2,0:0:0:0:
178,197,233681,2,0,P|201:129|174:64,1,145.799995550537,8|0,0:2|3:2,0:0:0:0:
5,147,234237,1,0,0:0:0:0:
77,21,234422,1,8,0:2:0:0:
5,147,234607,1,0,0:0:0:0:
174,64,234793,6,0,P|217:84|305:40,2,145.799995550537,2|8|0,3:2|0:2|3:2,0:0:0:0:
18,218,235718,2,0,P|10:174|3:139,1,72.8999977752686,0|8,3:2|0:2,0:0:0:0:
146,183,236089,1,0,3:2:0:0:
146,183,236274,6,0,P|138:218|132:254,1,72.8999977752686,0|0,0:0|3:2,0:0:0:0:
223,53,236644,2,0,P|230:88|236:124,1,72.8999977752686,8|0,0:2|0:0,0:0:0:0:
164,326,237015,2,0,P|125:331|91:317,1,72.8999977752686,0|0,3:2|0:0,0:0:0:0:
267,224,237385,2,0,P|282:187|311:165,1,72.8999977752686,8|0,0:2|0:0,0:0:0:0:
437,336,237756,5,2,3:2:0:0:
437,336,238126,2,0,L|427:259,1,72.8999977752686,8|0,0:2|0:0,0:0:0:0:
380,179,238496,2,0,L|390:102,1,72.8999977752686,0|0,3:2|3:2,0:0:0:0:
401,22,238867,1,8,0:2:0:0:
401,22,239052,1,0,3:2:0:0:
262,127,239237,6,0,P|307:146|396:93,1,145.799995550537,0|8,0:0|0:2,0:0:0:0:
229,39,239793,2,0,L|155:44,1,72.8999977752686,0|0,0:0|3:2,0:0:0:0:
282,218,240163,2,0,L|356:223,1,72.8999977752686,0|8,0:0|0:2,0:0:0:0:
31,355,240718,6,0,P|21:317|5:277,1,72.8999977752686,2|0,3:2|0:0,0:0:0:0:
163,118,241089,1,8,0:2:0:0:
131,212,241274,2,0,P|118:246|108:281,1,72.8999977752686,0|0,0:0|3:2,0:0:0:0:
67,135,241644,1,0,3:2:0:0:
163,118,241830,2,0,P|198:112|234:102,1,72.8999977752686,8|0,0:2|0:0,0:0:0:0:
234,102,242385,5,0,3:2:0:0:
370,48,242570,2,0,P|334:42|298:32,1,72.8999977752686,8|0,0:2|0:0,0:0:0:0:
425,140,242941,2,0,P|460:134|496:124,1,72.8999977752686,0|0,3:2|0:0,0:0:0:0:
362,279,243311,1,8,0:2:0:0:
362,279,243681,6,0,B|282:242|296:338|201:279,1,145.799995550537,2|8,3:2|0:2,0:0:0:0:
175,353,244237,1,0,0:0:0:0:
184,208,244422,2,0,L|175:367,1,145.799995550537,0|8,3:2|0:2,0:0:0:0:
79,228,244978,1,0,3:2:0:0:
258,152,245163,6,0,P|300:159|383:102,1,145.799995550537,2|8,0:0|0:2,0:0:0:0:
285,2,245718,1,0,0:0:0:0:
285,2,245904,2,0,L|297:82,1,72.8999977752686,0|0,3:2|0:0,0:0:0:0:
403,264,246274,2,0,L|415:184,1,72.8999977752686,8|0,0:2|0:0,0:0:0:0:
184,217,246644,5,0,3:0:0:0:
258,152,246830,1,0,3:2:0:0:
168,72,247015,2,0,L|174:112,2,36.4499988876343,0|0|0,0:0|0:0|0:0,0:0:0:0:
110,282,247570,1,0,3:2:0:0:
184,217,247756,1,8,0:2:0:0:
184,217,247941,1,8,0:2:0:0:
324,363,248126,5,0,3:2:0:0:
258,152,248311,1,8,0:2:0:0:
414,267,248496,1,8,0:2:0:0:
414,267,248589,1,8,0:2:0:0:
414,267,248681,1,0,0:0:0:0:
289,293,248867,6,0,P|249:298|209:282,2,72.8999977752686,0|0|0,3:2|3:2|3:2,0:0:0:0:
406,164,249607,5,2,0:0:0:0:
401,93,267385,5,0,3:2:0:0:
401,93,268126,2,0,L|406:166,1,60.7500023174287,0|0,3:2|3:2,0:0:0:0:
415,238,268496,1,8,0:2:0:0:
415,238,268867,2,0,B|361:252|361:252|280:226,1,121.500004634857,0|0,3:2|0:0,0:0:0:0:
239,169,269422,2,0,B|253:223|253:223|227:304,1,121.500004634857,0|0,3:2|3:2,0:0:0:0:
201,369,269978,1,8,0:0:0:0:
201,369,270163,1,0,3:2:0:0:
125,263,270348,6,0,P|93:274|5:232,2,121.500004634857,0|0|0,3:2|3:2|0:0,0:0:0:0:
167,176,271274,1,0,3:2:0:0:
74,133,271459,2,0,L|77:204,1,60.7500023174287,8|0,0:0|3:2,0:0:0:0:
93,220,271737,1,0,3:2:0:0:
93,220,271830,2,0,L|89:312,2,91.125003476143,0|0|0,3:0|3:0|3:0,0:0:0:0:
243,48,272756,1,0,3:2:0:0:
324,22,272941,1,12,0:0:0:0:
399,60,273126,1,0,3:2:0:0:
483,51,273311,5,0,0:0:0:0:
483,51,273681,6,0,P|511:113|480:177,1,121.5,8|0,3:2|0:0,0:0:0:0:
481,185,274052,1,8,0:0:0:0:
332,98,274237,2,0,P|374:111|413:111,1,81,8|0,0:0|0:0,0:0:0:0:
297,195,274607,6,0,P|246:201|170:123,1,162,8|0,3:2|3:0,0:0:0:0:
238,1,275163,1,8,0:0:0:0:
66,80,275348,1,0,3:0:0:0:
66,80,275441,1,0,3:0:0:0:
66,80,275533,1,0,3:0:0:0:
259,114,275718,1,0,3:0:0:0:
141,276,275904,1,8,0:0:0:0:
139,245,275996,1,8,0:0:0:0:
138,215,276089,1,8,0:0:0:0:
136,184,276181,1,8,0:0:0:0:
135,154,276274,5,6,3:2:0:0:
48,261,276459,1,0,0:2:0:0:
240,201,276644,1,8,0:0:0:0:
181,376,276830,2,0,P|121:389|32:324,1,162,0|0,0:2|3:2,0:0:0:0:
204,207,277385,1,8,0:2:0:0:
210,100,277570,6,0,B|216:154|222:231|222:231|211:212|197:200,1,162,2|0,3:2|0:2,0:0:0:0:
0,159,278126,2,0,B|-6:105|-12:28|-12:28|-1:47|13:59,1,162,8|0,0:2|3:2,0:0:0:0:
186,108,278681,1,0,3:2:0:0:
0,159,278867,1,8,0:2:0:0:
210,100,279052,1,0,0:2:0:0:
82,198,279237,6,0,P|79:239|76:279,1,81,2|0,3:2|0:2,0:0:0:0:
210,100,279608,2,0,P|207:60|204:20,1,81,8|0,0:2|3:2,0:0:0:0:
60,112,279978,2,0,P|19:128|-3:166,1,81,0|0,0:2|3:2,0:0:0:0:
209,99,280348,2,0,P|249:103|285:86,1,81,8|0,0:2|3:2,0:2:0:0:
248,347,280719,6,0,L|241:183,1,162,0|8,3:2|0:2,0:0:0:0:
242,186,281460,2,0,P|219:221|173:243,1,81,0|0,3:2|3:2,0:0:0:0:
308,50,281830,2,0,P|331:85|377:107,1,81,8|0,0:2|0:2,0:0:0:0:
474,217,282200,6,0,P|394:198|324:241,1,162,2|8,3:2|0:2,0:0:0:0:
243,365,282756,1,0,3:2:0:0:
236,192,282941,1,0,0:2:0:0:
345,332,283126,1,0,3:2:0:0:
167,262,283311,1,8,0:2:0:0:
320,75,283497,6,0,L|329:241,1,162,2|0,3:2|0:2,0:0:0:0:
438,283,284052,1,8,0:2:0:0:
294,163,284237,2,0,P|246:151|157:222,1,162,2|0,3:2|3:2,0:0:0:0:
226,354,284793,1,8,0:2:0:0:
73,308,284978,1,0,3:2:0:0:
73,308,285071,1,0,3:2:0:0:
73,308,285163,5,2,3:2:0:0:
241,241,285348,1,0,0:2:0:0:
145,378,285534,1,8,0:2:0:0:
80,147,285719,2,0,L|73:309,1,162,0|0,3:2|3:2,0:0:0:0:
229,254,286274,1,8,0:2:0:0:
302,384,286460,6,0,L|296:298,1,81,0|2,0:2|3:2,0:0:0:0:
282,144,286830,1,0,0:2:0:0:
403,234,287015,1,8,0:2:0:0:
229,254,287200,1,0,0:2:0:0:
348,102,287386,2,0,P|358:142|338:198,1,81,0|0,3:2|3:2,0:0:0:0:
229,254,287756,1,8,0:2:0:0:
229,254,288126,6,0,L|315:260,1,81,2|0,3:2|0:2,0:0:0:0:
198,102,288497,2,0,L|112:108,1,81,8|0,0:2|3:2,0:0:0:0:
0,166,288867,1,0,0:2:0:0:
58,32,289052,1,0,3:2:0:0:
136,187,289237,1,8,0:2:0:0:
39,19,289423,6,0,P|46:78|-10:175,1,162,2|0,3:2|0:2,0:0:0:0:
129,211,289978,1,8,0:2:0:0:
47,362,290163,2,0,P|50:320|47:270,1,81,0|0,0:2|3:2,0:0:0:0:
227,334,290534,1,0,3:2:0:0:
218,164,290719,2,0,P|217:205|220:245,1,81,8|0,0:2|0:2,0:0:0:0:
68,42,291089,6,0,P|147:27|222:68,1,162,2|8,3:2|0:2,0:0:0:0:
372,169,291644,2,0,B|287:201|309:128|218:163,1,162,2|0,3:2|3:2,0:0:0:0:
105,306,292200,1,8,0:2:0:0:
247,361,292386,6,0,P|244:321|240:273,1,81,2|0,3:2|3:2,0:0:0:0:
93,66,292756,1,0,0:2:0:0:
167,138,292941,2,0,P|164:179|161:219,1,81,8|0,0:2|0:2,0:0:0:0:
278,20,293311,2,0,P|306:51|349:66,1,81,0|0,3:2|3:2,0:0:0:0:
167,138,293682,2,0,P|136:163|96:171,1,81,8|0,0:2|0:2,0:0:0:0:
457,350,294052,5,14,0:2:0:0:
155,265,294237,1,8,0:2:0:0:
358,202,294422,1,0,3:2:0:0:
214,356,294607,5,10,0:2:0:0:
257,156,294793,1,8,0:2:0:0:
257,156,294978,1,0,3:2:0:0:
311,308,295163,5,8,0:2:0:0:
177,28,295348,2,0,L|183:121,1,81,8|0,0:2|3:2,0:0:0:0:
192,274,295718,5,10,0:2:0:0:
336,22,295904,2,0,L|331:103,1,81,8|0,0:2|3:2,0:0:0:0:
303,143,296182,5,0,3:2:0:0:
344,118,296274,1,0,3:2:0:0:
392,126,296367,1,0,3:2:0:0:
418,168,296460,1,0,3:2:0:0:
403,215,296552,1,0,3:2:0:0:
370,252,296645,1,0,3:2:0:0:
359,300,296737,1,0,3:2:0:0:
385,342,296830,1,0,3:2:0:0:
303,143,297015,5,2,3:2:0:0:
256,192,297107,12,0,302941,0:0:0:0:
