osu file format v14

[General]
AudioFilename: audio.mp3
AudioLeadIn: 0
PreviewTime: 209334
Countdown: 0
SampleSet: Soft
StackLeniency: 0.7
Mode: 0
LetterboxInBreaks: 0
EpilepsyWarning: 1
WidescreenStoryboard: 1

[Editor]
Bookmarks: 56694,102294,209814,217014
DistanceSpacing: 1.3
BeatDivisor: 4
GridSize: 8
TimelineZoom: 1

[Metadata]
Title:Golden Route
TitleUnicode:Golden Route
Artist:Duca
ArtistUnicode:Duca
Creator:Left
Version:Hard
Source:金色ラブリッチェ -Golden Time-
Tags:Kiniro Kin-iro Kin'iro Loveriche Kinkoi SAGA PLANETS Fandisc Eroge Visual Novel Japanese シルヴィア・ル・クルスクラウン・ソルティレージュ・シスア Sylvia le Cruzcrown Sortilège Sisua OP opening solfa Full version ver Misure Garden
BeatmapID:2393327
BeatmapSetID:1144363

[Difficulty]
HPDrainRate:5.5
CircleSize:3.5
OverallDifficulty:6
ApproachRate:6.5
SliderMultiplier:1.6
SliderTickRate:1

[Events]
//Background and Video events
0,0,"sylviaplayosu.jpg",0,0
//Break Periods
2,102493,116679
2,167774,174159
2,195373,196839
2,199213,200679
2,209814,216039
//Storyboard Layer 0 (Background)
//Storyboard Layer 1 (Fail)
//Storyboard Layer 2 (Pass)
//Storyboard Layer 3 (Foreground)
Sprite,Foreground,Centre,"SB\credit\map.png",320,400 F,0,247854,,0 S,0,247854,,0.5 F,0,247854,248814,0,0.45 MX,0,247854,254814,430,380 F,0,248814,253854,0.45 F,0,253854,254814,0.45,0
Sprite,Foreground,Centre,"SB\credit\left.png",320,385 MX,0,247854,254814,600,550 F,0,249294,,0 S,0,249294,,0.9 F,0,249294,250254,0,0.6 F,0,250254,253854,0.6 F,0,253854,254814,0.6,0
//Storyboard Layer 4 (Overlay)
//Storyboard Sound Samples

[TimingPoints]
534,480,4,2,7,60,1,0
534,-105.263157894737,4,2,7,60,0,0
7974,-105.263157894737,4,2,7,70,0,0
13974,-100,4,2,7,50,0,0
14814,-100,4,2,7,75,0,0
15414,-83.3333333333333,4,2,7,85,0,0
32454,-133.333333333333,4,2,7,55,0,0
33174,-100,4,2,7,65,0,0
46614,-90.9090909090909,4,2,7,70,0,0
47454,-90.9090909090909,4,2,7,75,0,0
75414,-111.111111111111,4,2,7,65,0,0
82134,-97.0873786407767,4,2,7,80,0,0
83094,-97.0873786407767,4,2,7,90,0,1
98454,-86.9565217391304,4,2,7,90,0,1
102294,-100,4,2,7,90,0,0
117654,-90.9090909090909,4,2,7,75,0,0
144534,-111.111111111111,4,2,7,65,0,0
150294,-97.0873786407767,4,2,7,80,0,0
152214,-97.0873786407767,4,2,7,90,0,1
167574,-100,4,2,7,60,0,0
175134,-105.263157894737,4,2,7,70,0,0
181974,-83.3333333333333,4,2,7,90,0,0
188934,-74.0740740740741,4,2,7,90,0,0
190614,-83.3333333333333,4,2,7,90,0,0
194454,-83.3333333333333,4,2,7,80,0,0
197814,-133.333333333333,4,2,7,80,0,0
198294,-83.3333333333333,4,2,7,80,0,0
201654,-133.333333333333,4,2,7,80,0,0
202134,-83.3333333333333,4,2,7,80,0,0
203214,-83.3333333333333,4,2,7,70,0,0
205974,-133.333333333333,4,2,7,70,0,0
207654,-166.666666666667,4,2,7,70,0,0
217014,-166.666666666667,4,2,7,55,0,0
222534,-111.111111111111,4,2,7,75,0,0
223734,-90.9090909090909,4,2,7,75,0,0
224214,-76.9230769230769,4,2,7,85,0,0
224534,-100,4,2,7,95,0,0
224694,-66.6666666666667,4,2,7,95,0,0
224854,-100,4,2,7,100,0,0
225654,-64.5161290322581,4,2,7,100,0,0
227094,-97.0873786407767,4,2,7,90,0,1
243894,-100,4,2,7,90,0,1
246294,-105.263157894737,4,2,7,60,0,0
253854,-105.263157894737,4,2,7,70,0,0
261654,576.923076923077,4,2,7,70,1,0

[Colours]
Combo1 : 221,221,221
Combo2 : 255,255,140
Combo3 : 125,190,255
Combo4 : 170,255,170
Combo5 : 255,208,232
Combo6 : 255,106,181
Combo7 : 255,9,132
Combo8 : 121,121,121

[HitObjects]
2,58,534,101,4,3:2:0:0:
82,23,1374,1,4,3:2:0:0:
170,34,2334,1,4,3:2:0:0:
238,91,3294,1,4,3:2:0:0:
238,91,3654,2,0,P|251:156|250:194,1,75.9999979705811,8|8,0:0|0:0,0:0:0:0:
249,173,4014,1,8,0:0:0:0:
247,179,4134,2,0,P|209:188|187:192,1,37.9999989852906,8|8,0:0|0:0,0:0:0:0:
174,263,5214,5,4,3:2:0:0:
254,298,6174,1,4,3:2:0:0:
342,287,7134,1,4,3:2:0:0:
342,287,7494,2,0,P|355:235|360:192,1,75.9999979705811,8|8,0:0|0:0,0:0:0:0:
432,128,7974,5,8,0:0:0:0:
432,128,8094,2,0,P|383:114|314:108,1,113.999996955872,4|0,3:1|3:0,0:0:0:0:
253,166,8694,2,0,P|239:129|232:81,1,75.9999979705811,10|0,0:0|0:0,0:0:0:0:
232,86,9054,2,0,P|171:93|116:111,1,113.999996955872,6|0,3:2|3:0,0:0:0:0:
54,167,9654,1,10,0:0:0:0:
54,167,9774,2,0,P|38:119|34:88,1,75.9999979705811,0|6,0:0|3:2,0:0:0:0:
34,93,10374,21,0,3:0:0:0:
121,73,10614,2,0,P|136:120|140:151,1,75.9999979705811,10|0,0:0|0:0,0:0:0:0:
139,152,10974,2,0,P|120:233|116:283,1,113.999996955872,6|0,3:2|3:0,0:0:0:0:
228,285,11574,2,0,P|247:204|251:154,1,113.999996955872,12|4,0:1|3:2,0:0:0:0:
340,32,12294,5,0,3:0:0:0:
424,51,12534,2,0,P|436:101|439:140,1,75.9999979705811,10|0,0:0|0:0,0:0:0:0:
437,131,12894,2,0,P|364:140|309:154,1,113.999996955872,2|0,3:2|3:0,0:0:0:0:
356,229,13494,1,8,0:0:0:0:
439,215,13734,1,8,0:0:0:0:
439,215,13854,1,8,0:0:0:0:
439,215,13974,1,10,0:0:0:0:
319,358,14814,37,2,3:1:0:0:
263,293,15054,1,2,3:1:0:0:
187,332,15294,1,2,0:1:0:0:
187,332,15414,2,0,P|163:338|143:347,4,31.9999990234375,8|8|8|8|8,0:0|0:0|0:0|0:0|0:0,0:0:0:0:
158,348,15894,38,0,P|152:288|136:237,1,95.9999970703126,4|8,3:1|0:2,0:0:0:0:
73,188,16374,2,0,P|78:138|94:81,1,95.9999970703126,4|10,3:2|0:0,0:0:0:0:
166,161,16854,2,0,P|280:185|368:189,1,191.999994140625,0|0,0:0|3:0,0:0:0:0:
392,94,17574,1,10,0:2:0:0:
392,94,17694,1,0,0:0:0:0:
392,94,17814,6,0,P|389:53|374:-7,1,95.9999970703126,4|10,3:1|0:0,0:0:0:0:
283,15,18294,2,0,P|289:63|302:112,1,95.9999970703126,2|10,3:2|0:0,0:0:0:0:
304,116,18654,2,0,P|281:220|276:272,1,143.999995605469,0|10,3:0|0:0,0:0:0:0:
349,317,19254,1,4,3:2:0:0:
410,246,19494,1,10,0:0:0:0:
492,291,19734,102,0,P|509:367|512:392,1,95.9999970703126,4|10,3:1|0:0,0:0:0:0:
418,355,20214,1,4,3:2:0:0:
338,308,20454,1,10,0:0:0:0:
338,308,20574,1,2,3:2:0:0:
338,308,20694,2,0,P|245:287|138:277,1,191.999994140625,2|0,0:0|3:0,0:0:0:0:
25,330,21414,6,0,P|38:248|149:178,1,191.999994140625,12|10,0:1|0:0,0:0:0:0:
210,204,22134,2,0,P|224:122|224:94,1,95.9999970703126,2|10,3:2|0:0,0:0:0:0:
222,104,22494,2,0,P|137:84|73:82,1,143.999995605469,0|10,3:0|0:0,0:0:0:0:
7,141,23094,1,4,3:2:0:0:
114,213,23334,1,10,0:0:0:0:
114,213,23454,1,10,0:0:0:0:
114,213,23574,102,0,P|162:206|215:203,1,95.9999970703126,4|10,3:1|0:2,0:0:0:0:
278,268,24054,2,0,P|342:280|378:281,1,95.9999970703126,0|10,3:2|0:2,0:0:0:0:
372,281,24414,1,0,3:0:0:0:
372,281,24534,1,0,0:2:0:0:
445,221,24774,2,0,P|454:163|455:122,1,95.9999970703126,10|0,0:2|3:2,0:0:0:0:
352,17,25254,1,10,0:2:0:0:
352,17,25374,1,0,0:0:0:0:
352,17,25494,6,0,P|278:24|234:35,1,95.9999970703126,4|10,3:1|0:0,0:0:0:0:
273,120,25974,2,0,P|365:111|391:102,1,95.9999970703126,6|10,3:2|0:0,0:0:0:0:
372,104,26334,2,0,P|392:193|398:257,1,143.999995605469,4|10,3:1|0:0,0:0:0:0:
319,295,26934,1,0,3:0:0:0:
338,384,27174,1,10,0:0:0:0:
419,338,27414,102,0,P|482:348|522:361,2,95.9999970703126,4|10|0,3:1|0:0|3:0,0:0:0:0:
319,295,28134,1,10,0:0:0:0:
319,295,28254,2,0,P|259:310|171:317,1,143.999995605469,0|10,3:1|0:0,0:0:0:0:
83,300,28854,1,0,3:0:0:0:
142,226,29094,1,10,0:0:0:0:
142,226,29214,1,8,0:0:0:0:
142,226,29334,54,0,L|152:163,1,47.9999985351563,12|8,0:1|0:0,0:0:0:0:
247,136,29694,2,0,L|256:75,1,47.9999985351563,12|8,0:0|0:0,0:0:0:0:
323,254,30054,2,0,L|332:198,1,47.9999985351563,12|8,0:0|0:0,0:0:0:0:
428,164,30414,2,0,L|437:97,1,47.9999985351563,12|8,0:0|0:0,0:0:0:0:
494,292,30774,1,4,0:3:0:0:
415,307,31014,1,4,0:3:0:0:
367,371,31254,1,4,3:1:0:0:
95,322,32454,5,2,0:0:0:0:
95,322,32694,2,0,P|101:270|112:218,1,90.0000034332277,4|0,0:3|0:0,0:0:0:0:
112,226,33174,6,2,P|73:215|8:216,2,80,6|10|2,3:1|0:1|3:1,0:1:0:0:
112,226,33774,1,0,3:0:0:0:
112,226,33894,1,8,0:0:0:0:
178,170,34134,2,0,P|195:164|239:159,2,40,0|8|8,3:0|0:0|0:0,0:0:0:0:
111,116,34614,2,0,P|94:110|50:105,2,40,0|8|8,3:0|0:0|0:0,0:0:0:0:
165,52,35094,22,0,P|213:42|257:40,1,80,0|8,3:0|0:0,0:0:0:0:
320,78,35574,2,0,P|329:46|331:28,2,40,0|8|8,3:0|0:0|0:0,0:0:0:0:
390,153,36054,1,0,3:0:0:0:
390,153,36174,1,8,0:0:0:0:
390,153,36294,2,0,P|399:185|401:203,2,40,8|4|0,0:0|0:3|3:0,0:0:0:0:
477,153,36774,1,8,0:0:0:0:
463,258,37014,86,2,P|396:278|364:279,2,80,6|10|2,3:1|0:1|3:1,0:1:0:0:
463,258,37614,1,8,0:0:0:0:
463,258,37734,1,8,0:0:0:0:
399,191,37974,2,0,P|404:159|410:139,2,40,0|8|8,3:0|0:0|0:0,0:0:0:0:
320,229,38454,2,0,P|325:261|331:281,2,40,0|8|8,3:0|0:0|0:0,0:0:0:0:
247,184,38934,22,0,P|190:174|157:174,1,80,0|8,3:0|0:0,0:0:0:0:
95,220,39414,2,0,P|71:224|53:226,2,40,0|8|8,3:0|0:0|0:0,0:0:0:0:
156,283,39894,2,0,P|195:285|235:293,1,80,0|8,3:0|0:0,0:0:0:0:
294,358,40374,2,0,P|318:362|336:364,2,40,0|8|8,3:0|0:0|0:0,0:0:0:0:
398,306,40854,86,2,P|411:256|416:210,2,80,6|10|2,3:1|0:1|3:1,0:1:0:0:
398,306,41454,1,8,0:0:0:0:
398,306,41574,1,8,0:0:0:0:
314,288,41814,2,0,P|320:248|330:209,1,80,0|8,3:0|0:0,0:0:0:0:
389,145,42294,2,0,P|382:110|376:84,2,40,0|8|8,3:0|0:0|0:0,0:0:0:0:
326,35,42774,22,2,P|373:23|413:22,2,80,6|10|2,3:1|0:1|3:1,0:1:0:0:
326,35,43374,1,8,0:0:0:0:
326,35,43494,1,8,0:0:0:0:
261,93,43734,2,0,P|221:90|182:79,1,80,0|8,3:0|0:0,0:0:0:0:
110,33,44214,2,0,P|101:65|95:89,2,40,0|8|8,3:0|0:0|0:0,0:0:0:0:
136,154,44694,86,2,P|146:210|148:239,2,80,6|10|2,3:1|0:1|3:1,0:1:0:0:
136,154,45294,1,8,0:0:0:0:
136,154,45414,1,8,0:0:0:0:
51,164,45654,2,0,P|54:203|62:242,1,80,0|8,3:0|0:0,0:0:0:0:
112,314,46134,2,0,P|107:346|101:365,2,40,0|8|8,3:0|0:0|0:0,0:0:0:0:
207,260,46614,22,0,P|264:246|302:244,1,88.000002685547,4|8,3:2|0:0,0:0:0:0:
377,257,47094,1,4,3:2:0:0:
442,333,47334,1,8,0:0:0:0:
442,333,47454,2,0,P|461:245|462:169,1,132.00000402832,4|0,3:1|0:0,0:0:0:0:
397,148,48054,1,0,3:0:0:0:
439,72,48294,1,8,0:3:0:0:
370,20,48534,6,0,P|326:24|276:35,1,88.000002685547,4|8,3:1|0:0,0:0:0:0:
214,88,49014,2,0,P|170:84|120:73,1,88.000002685547,0|8,3:0|0:0,0:0:0:0:
121,72,49374,2,0,P|101:139|91:210,1,132.00000402832,2|10,3:1|0:1,0:0:0:0:
157,259,49974,1,0,3:0:0:0:
130,341,50214,1,8,0:0:0:0:
217,327,50454,86,0,P|270:336|306:347,1,88.000002685547,4|8,3:2|0:2,0:0:0:0:
391,368,50934,2,0,P|381:308|370:271,1,88.000002685547,0|8,3:0|0:0,0:0:0:0:
368,278,51294,2,0,P|378:206|396:143,1,132.00000402832,2|10,3:1|0:1,0:0:0:0:
462,92,51894,1,0,3:0:0:0:
380,62,52134,1,8,0:0:0:0:
314,116,52374,22,0,P|268:127|223:131,1,88.000002685547,4|8,3:1|0:1,0:0:0:0:
154,81,52854,2,0,P|108:70|63:66,1,88.000002685547,0|8,3:0|0:0,0:0:0:0:
63,71,53214,2,0,P|88:154|96:211,1,132.00000402832,2|10,3:1|0:1,0:0:0:0:
41,268,53814,1,0,3:0:0:0:
73,348,54054,1,8,0:0:0:0:
128,280,54294,86,0,P|180:284|215:290,1,88.000002685547,4|8,3:2|0:2,0:0:0:0:
279,351,54774,1,0,3:0:0:0:
359,313,55014,1,8,0:0:0:0:
359,313,55134,2,0,P|374:245|380:176,1,132.00000402832,2|10,3:1|0:1,0:0:0:0:
348,24,55734,1,0,3:0:0:0:
407,97,55974,1,8,0:0:0:0:
407,97,56094,1,8,0:0:0:0:
407,97,56214,22,0,P|357:104|316:116,1,88.000002685547,6|8,3:1|0:0,0:0:0:0:
240,148,56694,2,0,P|190:141|149:129,1,88.000002685547,2|8,3:1|0:0,0:0:0:0:
147,130,57054,2,0,P|130:60|125:-4,1,132.00000402832,4|8,3:2|0:0,0:0:0:0:
42,40,57654,2,0,P|48:90|57:131,1,88.000002685547,0|8,3:0|0:0,0:0:0:0:
100,206,58134,85,6,3:1:0:0:
62,286,58374,1,8,0:0:0:0:
132,340,58614,2,0,P|190:331|225:320,1,88.000002685547,2|8,3:1|0:0,0:0:0:0:
224,318,58974,2,0,P|307:323|384:338,1,132.00000402832,4|8,3:2|0:2,0:0:0:0:
463,366,59574,1,0,3:0:0:0:
503,287,59814,1,8,0:0:0:0:
503,287,59934,1,0,0:0:0:0:
503,287,60054,22,2,P|483:208|385:157,1,176.000005371094,6|2,3:1|3:1,0:1:0:0:
325,191,60774,1,8,0:0:0:0:
325,191,60894,2,0,P|309:129|305:44,1,132.00000402832,0|8,3:0|0:0,0:0:0:0:
392,72,61494,2,0,P|405:128|407:158,1,88.000002685547,0|8,3:0|0:0,0:0:0:0:
325,191,61974,85,4,3:1:0:0:
256,137,62214,1,8,0:0:0:0:
182,181,62454,2,0,P|185:224|197:267,1,88.000002685547,0|8,3:0|0:0,0:0:0:0:
201,273,62814,2,0,P|135:277|53:294,1,132.00000402832,12|8,0:0|0:0,0:0:0:0:
0,344,63414,1,0,3:0:0:0:
0,344,63534,1,8,0:0:0:0:
0,344,63654,1,4,0:3:0:0:
83,375,63894,86,0,P|77:315|61:265,1,88.000002685547,12|8,0:1|0:0,0:0:0:0:
143,237,64854,2,0,P|137:177|121:127,1,88.000002685547,12|8,0:0|0:0,0:0:0:0:
208,103,65814,2,0,P|202:43|186:-7,1,88.000002685547,12|8,0:1|0:0,0:0:0:0:
27,42,66774,2,0,P|33:102|49:152,1,88.000002685547,12|8,0:0|0:2,0:0:0:0:
108,184,67254,1,0,0:0:0:0:
108,184,67374,2,0,P|171:171|224:171,1,88.000002685547,12|0,0:2|0:0,0:0:0:0:
200,173,67734,6,0,P|263:186|302:189,1,88.000002685547,12|8,0:1|0:0,0:0:0:0:
347,123,68694,2,0,P|410:136|449:139,1,88.000002685547,12|8,0:0|0:0,0:0:0:0:
332,268,69654,2,0,P|395:281|434:284,1,88.000002685547,12|8,0:0|0:0,0:0:0:0:
475,215,70614,1,12,0:0:0:0:
433,138,70854,1,0,3:0:0:0:
433,138,70974,2,0,P|437:77|451:3,1,132.00000402832,8|8,0:0|0:0,0:0:0:0:
358,11,71574,22,0,P|347:64|344:102,1,88.000002685547,4|8,3:1|0:0,0:0:0:0:
281,160,72054,1,0,3:0:0:0:
205,115,72294,1,8,0:0:0:0:
205,115,72414,1,0,3:0:0:0:
205,115,72534,2,0,P|140:102|104:103,2,88.000002685547,0|8|0,0:0|0:0|3:0,0:0:0:0:
294,211,73254,1,0,0:0:0:0:
294,211,73374,1,0,0:0:0:0:
294,211,73494,6,0,P|359:224|395:223,2,88.000002685547,4|8|0,3:1|0:0|0:0,0:0:0:0:
211,242,74214,1,8,0:0:0:0:
211,242,74334,2,0,P|194:310|185:374,1,132.00000402832,8|8,0:0|0:0,0:0:0:0:
101,358,74934,1,8,0:3:0:0:
119,277,75174,1,4,0:3:0:0:
119,277,75294,1,0,3:0:0:0:
119,277,75414,70,0,P|92:175|334:43,1,431.999986816407,4|0,3:1|0:0,0:0:0:0:
331,41,77334,2,0,P|358:143|116:275,1,431.999986816407,4|0,3:2|0:0,0:0:0:0:
256,192,79254,12,4,81174,3:1:0:0:
93,105,82134,6,0,P|96:73|103:29,2,54.9333328723145,12|8|4,0:0|0:3|0:3,0:0:0:0:
132,141,82614,1,12,0:1:0:0:
59,298,83094,70,0,P|113:281|156:274,1,82.3999993084717,4|2,3:1|0:1,0:0:0:0:
224,245,83574,1,8,0:0:0:0:
207,337,83814,1,2,0:1:0:0:
207,337,83934,2,0,P|282:352|356:355,1,123.599998962708,4|2,3:2|3:1,0:0:0:0:
441,282,84534,2,0,P|453:235|458:192,1,82.3999993084717,8|2,0:0|0:1,0:0:0:0:
457,201,84894,1,0,0:0:0:0:
457,201,85014,101,0,3:2:0:0:
370,178,85254,1,2,0:1:0:0:
391,90,85494,2,0,P|467:74|525:69,2,123.599998962708,8|4|2,0:0|3:2|3:1,0:0:0:0:
300,117,86454,2,0,P|249:111|200:97,1,82.3999993084717,10|2,0:0|0:1,0:0:0:0:
150,43,86934,101,4,3:1:0:0:
131,130,87174,1,2,0:1:0:0:
61,69,87414,2,0,P|43:131|43:168,1,82.3999993084717,8|2,0:0|0:1,0:0:0:0:
43,155,87774,2,0,P|61:221|70:293,1,123.599998962708,0|2,3:0|3:1,0:0:0:0:
21,358,88374,2,0,P|84:366|120:363,1,82.3999993084717,8|2,0:0|0:1,0:0:0:0:
159,291,88854,37,4,3:1:0:0:
244,307,89094,1,8,0:0:0:0:
244,307,89214,1,8,0:0:0:0:
244,307,89334,1,4,3:1:0:0:
324,281,89574,1,8,0:0:0:0:
324,281,89694,1,8,0:0:0:0:
324,281,89814,1,4,3:1:0:0:
406,305,90054,1,8,0:0:0:0:
406,305,90174,1,8,0:1:0:0:
406,305,90294,2,0,P|417:233|419:197,1,82.3999993084717,8|4,0:0|0:3,0:0:0:0:
481,113,90774,102,0,P|416:97|366:96,1,82.3999993084717,4|2,3:1|0:1,0:0:0:0:
333,163,91254,1,8,0:0:0:0:
309,72,91494,1,2,0:1:0:0:
309,72,91614,2,0,P|231:81|177:96,1,123.599998962708,4|2,3:2|3:1,0:0:0:0:
115,153,92214,2,0,P|97:94|95:59,1,82.3999993084717,8|2,0:0|0:1,0:0:0:0:
95,73,92574,1,0,0:0:0:0:
95,73,92694,101,4,3:1:0:0:
187,92,92934,1,2,0:1:0:0:
173,183,93174,1,12,0:2:0:0:
83,173,93414,1,2,0:1:0:0:
83,173,93534,2,0,P|68:238|68:323,1,123.599998962708,4|2,3:1|3:1,0:0:0:0:
146,341,94134,2,0,P|200:331|238:331,1,82.3999993084717,12|2,0:0|0:1,0:0:0:0:
290,263,94614,102,0,P|344:273|382:273,1,82.3999993084717,4|2,3:1|0:1,0:0:0:0:
454,230,95094,2,0,P|469:299|474:361,2,123.599998962708,8|0|2,0:0|3:0|3:1,0:0:0:0:
378,180,96054,1,8,0:1:0:0:
384,88,96294,1,2,0:1:0:0:
384,88,96414,1,0,0:0:0:0:
384,88,96534,22,0,P|328:79|283:82,1,82.3999993084717,4|2,3:2|0:1,0:0:0:0:
226,134,97014,2,0,P|214:88|212:51,1,82.3999993084717,8|2,0:0|0:1,0:0:0:0:
214,47,97374,2,0,P|146:35|59:34,1,123.599998962708,0|2,3:0|3:1,0:0:0:0:
93,189,97974,2,0,P|144:199|180:200,1,82.3999993084717,12|10,0:0|0:1,0:0:0:0:
174,200,98334,1,8,0:0:0:0:
174,200,98454,86,0,L|202:330,1,92.0000017547608,4|0,3:1|0:0,0:0:0:0:
256,167,98934,6,0,L|283:296,1,92.0000017547608,14|0,0:1|0:0,0:0:0:0:
337,134,99414,6,0,L|364:263,1,92.0000017547608,14|0,0:1|3:0,0:0:0:0:
356,223,99774,1,10,0:1:0:0:
356,223,99894,1,4,0:3:0:0:
447,312,100134,86,2,P|355:268|263:257,1,184.000003509522,6|2,3:1|0:1,0:1:0:0:
195,206,100854,6,0,P|188:231|183:261,1,46.0000008773804,10|10,0:1|0:1,0:0:0:0:
221,330,101094,1,4,3:2:0:0:
221,330,101574,6,0,P|122:352|42:210,1,276.000005264282,4|4,3:1|3:1,0:0:0:0:
386,65,117654,38,0,P|397:107|405:150,1,88.000002685547,4|8,3:1|0:0,0:0:0:0:
317,168,118134,2,0,P|306:126|298:83,1,88.000002685547,0|10,3:0|0:0,0:0:0:0:
299,75,118494,2,0,P|223:63|147:59,1,132.00000402832,2|10,3:2|0:1,0:0:0:0:
101,115,119094,1,0,3:0:0:0:
86,30,119334,1,10,0:1:0:0:
19,84,119574,22,0,P|24:140|32:177,1,88.000002685547,4|8,3:2|0:0,0:0:0:0:
104,223,120054,2,0,P|99:279|91:316,1,88.000002685547,0|10,3:0|0:0,0:0:0:0:
89,315,120414,2,0,P|157:298|253:298,1,132.00000402832,2|10,3:2|0:1,0:0:0:0:
287,345,121014,1,0,3:0:0:0:
346,280,121254,1,10,0:1:0:0:
419,328,121494,86,0,P|464:335|512:337,1,88.000002685547,4|8,3:1|0:0,0:0:0:0:
512,248,121974,2,0,P|467:241|419:239,1,88.000002685547,0|10,3:0|0:0,0:0:0:0:
419,242,122334,2,0,P|397:166|390:96,1,132.00000402832,2|10,3:2|0:1,0:0:0:0:
474,78,122934,1,0,3:0:0:0:
401,25,123174,1,10,0:1:0:0:
319,61,123414,22,0,P|256:68|215:68,1,88.000002685547,4|8,3:2|0:0,0:0:0:0:
162,13,123894,1,0,3:0:0:0:
78,41,124134,1,10,0:1:0:0:
78,41,124254,2,0,P|65:107|63:172,1,132.00000402832,2|10,3:2|0:0,0:0:0:0:
94,332,124854,1,6,3:2:0:0:
31,256,125094,1,10,0:0:0:0:
31,256,125214,1,8,0:2:0:0:
31,256,125334,86,0,P|90:252|129:242,1,88.000002685547,6|10,3:1|0:2,0:0:0:0:
198,211,125814,2,0,P|257:215|296:225,1,88.000002685547,2|8,3:1|0:1,0:0:0:0:
291,224,126174,2,0,P|308:301|316:362,1,132.00000402832,2|10,3:2|0:0,0:0:0:0:
401,314,126774,2,0,P|393:255|380:215,1,88.000002685547,0|8,3:0|0:0,0:0:0:0:
345,150,127254,21,6,3:1:0:0:
436,152,127494,1,10,0:2:0:0:
393,71,127734,2,0,P|328:57|267:56,1,88.000002685547,2|8,3:1|0:0,0:0:0:0:
301,59,128094,2,0,P|209:78|157:82,1,132.00000402832,2|10,3:2|0:0,0:0:0:0:
51,146,128694,1,0,3:0:0:0:
70,59,128934,1,8,0:0:0:0:
70,59,129054,1,0,0:0:0:0:
70,59,129174,86,2,P|131:78|184:194,1,176.000005371094,6|2,3:1|3:1,0:1:0:0:
125,238,129894,1,8,0:0:0:0:
125,238,130014,2,0,P|113:301|110:375,1,132.00000402832,0|8,3:0|0:0,0:0:0:0:
199,360,130614,2,0,P|209:306|211:263,1,88.000002685547,0|8,3:0|0:0,0:0:0:0:
276,213,131094,21,4,3:1:0:0:
357,249,131334,1,8,0:0:0:0:
422,187,131574,2,0,P|489:197|529:213,1,88.000002685547,0|8,3:0|0:0,0:0:0:0:
512,210,131934,2,0,P|494:138|488:71,1,132.00000402832,12|8,0:0|0:0,0:0:0:0:
417,26,132534,1,8,0:0:0:0:
417,26,132654,1,4,0:3:0:0:
417,26,132774,1,0,3:0:0:0:
354,91,133014,54,0,P|299:76|249:76,1,88.000002685547,12|8,0:1|0:0,0:0:0:0:
200,130,133974,2,0,P|145:115|95:115,1,88.000002685547,12|8,0:0|0:0,0:0:0:0:
336,223,134934,2,0,P|281:208|231:208,1,88.000002685547,12|8,0:0|0:0,0:0:0:0:
182,262,135894,2,0,P|127:247|77:247,1,88.000002685547,12|8,0:0|0:0,0:0:0:0:
24,305,136374,1,0,0:0:0:0:
24,305,136494,2,0,P|9:245|6:207,1,88.000002685547,12|0,0:0|0:0,0:0:0:0:
10,213,136854,6,0,P|20:155|24:103,1,88.000002685547,12|8,0:1|0:0,0:0:0:0:
109,102,137814,2,0,P|119:44|123:-8,1,88.000002685547,12|8,0:0|0:0,0:0:0:0:
170,243,138774,2,0,P|180:185|184:133,2,88.000002685547,12|8|0,0:0|0:0|0:0,0:0:0:0:
170,243,139374,1,8,0:0:0:0:
170,243,139494,1,8,0:0:0:0:
133,329,139734,1,8,0:0:0:0:
223,320,139974,2,0,P|276:326|322:340,1,88.000002685547,0|0,3:0|3:0,0:0:0:0:
393,367,140454,1,4,0:3:0:0:
393,367,140574,1,0,3:0:0:0:
393,367,140694,22,0,P|408:296|408:259,1,88.000002685547,4|8,3:1|0:0,0:0:0:0:
358,206,141174,1,0,3:0:0:0:
385,121,141414,1,8,0:0:0:0:
385,121,141534,1,0,3:0:0:0:
385,121,141654,2,0,P|445:110|484:110,2,88.000002685547,0|8|0,0:0|0:0|3:0,0:0:0:0:
275,59,142374,1,8,0:0:0:0:
275,59,142494,1,0,0:0:0:0:
275,59,142614,6,0,P|215:48|176:48,2,88.000002685547,4|8|0,3:1|0:0|3:0,0:0:0:0:
280,154,143334,1,8,0:0:0:0:
280,154,143454,2,0,P|178:137|116:137,1,132.00000402832,0|8,3:0|0:0,0:0:0:0:
66,161,144054,1,8,0:3:0:0:
91,246,144294,1,4,0:3:0:0:
91,246,144414,1,0,3:0:0:0:
91,246,144534,70,0,B|257:179|322:419|510:298,1,431.999986816407,4|0,3:2|0:0,0:0:0:0:
494,307,146454,2,0,B|468:102|243:207|187:37,1,431.999986816407,4|0,3:2|0:0,0:0:0:0:
256,192,148374,12,4,150294,3:1:0:0:
120,254,151254,6,0,P|96:255|70:264,4,27.4666664361572,4|4|4|4|4,0:3|0:3|0:3|0:3|0:3,0:0:0:0:
151,262,151734,1,12,0:0:0:0:
351,349,152214,70,0,P|366:296|373:251,1,82.3999993084717,4|2,3:1|0:1,0:0:0:0:
316,194,152694,1,8,0:0:0:0:
406,181,152934,1,2,0:1:0:0:
406,181,153054,2,0,P|398:102|376:25,1,123.599998962708,4|2,3:2|3:1,0:0:0:0:
305,17,153654,1,8,0:0:0:0:
257,99,153894,1,2,0:1:0:0:
257,99,154014,1,0,0:0:0:0:
257,99,154134,102,0,P|196:91|164:85,1,82.3999993084717,0|2,3:2|0:1,0:0:0:0:
103,24,154614,2,0,P|89:74|84:110,1,82.3999993084717,8|2,0:0|0:1,0:0:0:0:
88,109,154974,2,0,P|108:185|117:247,1,123.599998962708,0|2,3:0|3:1,0:0:0:0:
35,276,155574,2,0,P|21:326|16:362,1,82.3999993084717,14|2,0:0|0:1,0:0:0:0:
106,382,156054,101,4,3:1:0:0:
125,293,156294,1,2,0:1:0:0:
194,356,156534,2,0,P|248:351|287:341,1,82.3999993084717,8|2,0:0|0:1,0:0:0:0:
280,340,156894,2,0,P|294:258|298:191,1,123.599998962708,0|2,3:0|3:1,0:0:0:0:
241,142,157494,2,0,P|307:127|345:128,1,82.3999993084717,8|2,0:0|0:1,0:0:0:0:
386,193,157974,37,4,3:1:0:0:
402,111,158214,1,8,0:0:0:0:
402,111,158334,1,8,0:0:0:0:
402,111,158454,1,4,3:1:0:0:
345,47,158694,1,8,0:0:0:0:
345,47,158814,1,8,0:0:0:0:
345,47,158934,1,4,3:1:0:0:
263,66,159174,1,8,0:0:0:0:
263,66,159294,1,8,0:0:0:0:
263,66,159414,2,0,P|196:75|174:74,1,82.3999993084717,8|4,0:0|0:3,0:0:0:0:
48,11,159894,102,0,P|65:80|67:118,1,82.3999993084717,4|2,3:1|0:1,0:0:0:0:
135,158,160374,1,8,0:0:0:0:
46,183,160614,1,2,0:1:0:0:
46,183,160734,2,0,P|57:256|76:339,1,123.599998962708,4|2,3:2|3:1,0:0:0:0:
151,349,161334,2,0,P|206:336|259:336,1,82.3999993084717,8|2,0:0|0:1,0:0:0:0:
231,334,161694,1,0,0:0:0:0:
231,334,161814,101,4,3:1:0:0:
256,246,162054,1,2,0:1:0:0:
345,269,162294,1,12,0:0:0:0:
320,357,162534,1,2,0:1:0:0:
320,357,162654,2,0,P|411:339|481:339,1,123.599998962708,4|2,3:1|3:1,0:0:0:0:
493,257,163254,2,0,P|506:198|508:151,1,82.3999993084717,8|2,0:0|0:1,0:0:0:0:
455,99,163734,101,4,3:1:0:0:
376,142,163974,1,2,0:1:0:0:
286,126,164214,2,0,P|270:66|261:-8,2,123.599998962708,8|0|2,0:0|3:0|3:1,0:0:0:0:
229,204,165174,2,0,P|178:216|122:220,1,82.3999993084717,8|2,0:0|0:1,0:0:0:0:
148,219,165534,1,0,0:0:0:0:
148,219,165654,21,4,3:2:0:0:
57,198,165894,1,2,0:1:0:0:
82,288,166134,2,0,P|74:339|66:375,1,82.3999993084717,8|2,0:0|0:1,0:0:0:0:
67,369,166494,1,0,3:0:0:0:
67,369,166614,1,0,3:0:0:0:
156,375,166854,1,8,0:0:0:0:
164,350,166974,1,8,0:0:0:0:
165,326,167094,2,0,L|230:313,3,41.1999996542358,8|8|8|8,0:0|0:0|0:0|0:0,0:0:0:0:
243,242,167574,1,4,3:1:0:0:
230,286,175134,37,4,3:1:0:0:
373,303,175494,21,0,3:0:0:0:
373,303,175734,2,0,P|369:266|361:229,1,75.9999979705811,8|0,0:0|0:0,0:0:0:0:
356,224,176094,2,0,P|368:158|387:95,1,113.999996955872,0|0,3:0|3:0,0:0:0:0:
408,29,176694,1,8,0:0:0:0:
408,29,176814,2,0,P|360:32|321:44,1,75.9999979705811,0|0,0:0|3:0,0:0:0:0:
333,39,177414,5,0,3:0:0:0:
293,119,177654,2,0,P|245:116|206:104,1,75.9999979705811,8|0,0:0|0:0,0:0:0:0:
213,110,178014,2,0,P|196:56|189:-10,1,113.999996955872,0|0,3:0|3:0,0:0:0:0:
57,25,178614,2,0,P|74:79|80:135,1,113.999996955872,12|0,0:1|3:0,0:0:0:0:
9,307,179334,85,0,3:0:0:0:
78,361,179574,2,0,P|131:354|166:343,1,75.9999979705811,8|0,0:0|0:0,0:0:0:0:
152,347,179934,1,0,3:0:0:0:
152,347,180054,1,0,3:0:0:0:
197,272,180294,1,8,0:0:0:0:
272,320,180534,2,0,P|293:326|311:326,4,25.3333326568604,8|8|8|8|8,0:0|0:0|0:0|0:0|0:0,0:0:0:0:
320,313,181014,85,12,0:2:0:0:
474,75,181974,6,0,P|444:64|427:62,10,31.9999990234375,12|8|8|8|8|8|8|8|8|8|8,0:1|0:0|0:0|0:0|0:0|0:0|0:0|0:0|0:0|0:0|0:0,0:0:0:0:
436,61,182934,86,0,P|427:109|424:156,1,95.9999970703126,4|10,3:1|0:0,0:0:0:0:
453,245,183414,1,0,3:0:0:0:
363,227,183654,1,10,0:0:0:0:
363,227,183774,1,0,3:0:0:0:
363,227,183894,2,0,P|315:232|268:242,1,95.9999970703126,0|14,0:0|0:0,0:0:0:0:
222,319,184374,1,0,3:0:0:0:
178,237,184614,1,10,0:0:0:0:
132,318,184854,22,0,P|85:327|37:332,1,95.9999970703126,4|10,3:1|0:0,0:0:0:0:
0,245,185334,1,0,3:0:0:0:
15,152,185574,1,10,0:0:0:0:
15,152,185694,1,2,3:2:0:0:
15,152,185814,2,0,P|61:142|109:137,1,95.9999970703126,2|10,0:0|0:0,0:0:0:0:
201,156,186294,2,0,P|215:99|218:43,1,95.9999970703126,0|10,3:0|0:0,0:0:0:0:
299,46,186774,85,4,3:1:0:0:
355,109,187014,1,10,0:0:0:0:
331,188,187254,1,0,3:0:0:0:
384,254,187494,1,8,0:0:0:0:
303,269,187734,21,2,0:1:0:0:
250,203,187974,1,10,0:1:0:0:
274,124,188214,1,2,3:1:0:0:
218,61,188454,2,0,P|164:48|119:49,1,95.9999970703126,10|0,0:1|3:0,0:0:0:0:
39,138,188934,86,0,L|63:255,1,108.000000411987,12|4,0:1|3:0,0:0:0:0:
156,159,189414,2,0,L|180:276,1,108.000000411987,12|4,0:1|3:0,0:0:0:0:
271,185,189894,2,0,L|295:302,1,108.000000411987,12|4,0:1|3:0,0:0:0:0:
292,290,190254,1,10,0:2:0:0:
292,290,190374,1,10,0:0:0:0:
397,322,190614,22,0,P|408:264|408:110,1,191.999994140625,4|0,3:1|3:0,0:0:0:0:
358,50,191334,1,10,0:0:0:0:
358,50,191454,2,0,P|290:70|210:78,1,143.999995605469,0|10,3:0|0:0,0:0:0:0:
151,8,192054,1,0,3:0:0:0:
61,36,192294,1,10,0:0:0:0:
127,101,192534,86,0,P|139:170|142:212,1,95.9999970703126,4|10,3:2|0:0,0:0:0:0:
78,272,193014,1,2,0:2:0:0:
78,272,193134,1,0,0:0:0:0:
78,272,193254,2,0,P|83:319|92:366,1,95.9999970703126,10|4,0:0|3:2,0:0:0:0:
235,348,193734,1,8,0:0:0:0:
235,348,193854,1,8,0:0:0:0:
235,348,193974,2,0,P|229:300|220:253,1,95.9999970703126,4|8,3:2|0:2,0:0:0:0:
141,195,194454,6,0,P|85:179|50:95,2,143.999995605469,4|4|4,3:1|3:2|3:1,0:0:0:0:
405,189,197814,102,0,P|406:147|362:112,1,90.0000034332277,4|0,0:3|0:0,0:0:0:0:
364,112,198294,6,0,P|405:59|494:70,2,143.999995605469,4|4|4,3:1|3:2|3:2,0:0:0:0:
227,290,201654,102,0,P|196:270|184:218,1,90.0000034332277,4|0,0:3|0:0,0:0:0:0:
186,213,202134,6,0,P|126:238|100:314,2,143.999995605469,4|4|4,3:1|3:2|3:2,0:0:0:0:
320,282,203214,102,0,L|335:173,1,95.9999970703126,4|8,0:3|0:0,0:0:0:0:
419,202,203694,2,0,L|405:297,1,95.9999970703126,4|8,0:3|0:0,0:0:0:0:
491,312,204174,2,0,L|504:216,1,95.9999970703126,8|8,0:0|0:0,0:0:0:0:
505,210,204534,1,8,0:0:0:0:
506,204,204654,2,0,L|491:143,1,47.9999985351563,8|8,0:0|0:0,0:0:0:0:
419,202,204894,2,0,L|404:141,1,47.9999985351563,8|4,0:3|0:3,0:0:0:0:
333,186,205134,2,0,L|318:125,1,47.9999985351563,8|8,0:0|0:3,0:0:0:0:
303,57,205374,1,4,0:3:0:0:
303,57,205494,38,0,P|280:52|257:50,4,31.9999990234375,4|0|0|0|0,3:2|3:0|3:0|3:0|3:0,0:0:0:0:
265,47,205974,6,0,P|201:143|86:149,1,240.000009155274,4|0,3:1|0:0,0:0:0:0:
64,71,207174,1,8,0:3:0:0:
21,210,207654,102,0,P|125:204|349:300,1,335.999989746094,4|0,3:1|0:0,0:0:0:0:
118,316,217014,86,0,L|106:240,1,71.9999978027344,2|0,0:0|0:0,0:0:0:0:
106,238,217494,101,4,3:1:0:0:
219,217,217974,1,2,3:2:0:0:
336,242,218454,1,2,3:2:0:0:
426,319,218934,1,2,3:2:0:0:
310,361,219414,5,4,3:2:0:0:
336,242,219894,1,2,3:2:0:0:
300,123,220374,1,2,3:2:0:0:
195,57,220854,1,2,3:2:0:0:
47,153,221334,101,4,3:2:0:0:
256,192,221454,12,4,222774,3:2:0:0:
70,342,223254,22,0,P|129:341|188:315,1,107.999996704102,4|0,3:2|0:0,0:0:0:0:
176,317,223734,22,0,P|172:247|149:178,1,132.00000402832,4|0,3:2|0:0,0:0:0:0:
158,181,224214,6,0,P|193:171|249:170,2,69.3333301595054,12|4|4,0:1|3:2|3:2,0:0:0:0:
290,113,224694,86,0,P|287:67|272:23,2,80.0000030517579,12|4|4,0:1|3:1|3:1,0:0:0:0:
194,9,225174,85,2,0:0:0:0:
194,9,225654,86,0,P|295:42|335:186,1,248.00000189209,12|12,0:1|0:2,0:0:0:0:
337,173,226254,1,8,0:0:0:0:
335,180,226374,86,0,P|294:187|261:187,1,62.0000004730225,8|8,0:0|0:0,0:0:0:0:
230,264,226614,2,0,P|271:271|304:271,1,62.0000004730225,8|8,0:0|0:3,0:0:0:0:
340,340,226854,1,4,0:3:0:0:
448,291,227094,22,0,P|459:233|462:188,1,82.3999993084717,4|2,3:1|0:1,0:0:0:0:
392,147,227574,1,8,0:0:0:0:
411,58,227814,1,2,0:1:0:0:
411,58,227934,2,0,P|328:36|262:32,1,123.599998962708,0|2,3:0|3:1,0:0:0:0:
223,97,228534,2,0,P|174:109|127:112,1,82.3999993084717,10|2,0:0|0:1,0:0:0:0:
68,46,229014,102,0,P|55:82|47:130,1,82.3999993084717,4|2,3:1|0:1,0:0:0:0:
105,200,229494,2,0,P|118:236|126:284,1,82.3999993084717,8|2,0:0|0:1,0:0:0:0:
123,285,229854,2,0,P|50:301|-28:305,1,123.599998962708,4|2,3:2|3:1,0:0:0:0:
5,212,230454,21,8,0:0:0:0:
94,194,230694,1,2,0:1:0:0:
184,214,230934,1,4,3:1:0:0:
255,277,231174,1,8,0:0:0:0:
255,277,231294,1,8,0:0:0:0:
255,277,231414,1,4,3:1:0:0:
338,259,231654,1,8,0:0:0:0:
338,259,231774,1,8,0:0:0:0:
338,259,231894,2,0,P|344:233|346:201,3,41.1999996542358,4|8|8|8,3:1|0:0|0:0|0:0,0:0:0:0:
315,189,232374,2,0,P|309:163|307:131,3,41.1999996542358,4|0|0|0,0:3|3:0|3:0|3:0,0:0:0:0:
328,120,232854,102,0,P|382:113|424:112,1,82.3999993084717,4|2,3:1|0:1,0:0:0:0:
498,141,233334,1,8,0:0:0:0:
488,49,233574,1,2,0:1:0:0:
488,49,233694,2,0,P|404:24|349:24,1,123.599998962708,4|2,3:2|3:1,0:0:0:0:
288,73,234294,2,0,P|280:113|277:154,1,82.3999993084717,8|2,0:0|0:1,0:0:0:0:
277,154,234654,1,0,0:0:0:0:
277,154,234774,101,4,3:1:0:0:
188,171,235014,1,2,0:1:0:0:
204,260,235254,1,12,0:0:0:0:
293,243,235494,1,2,0:1:0:0:
293,243,235614,2,0,P|380:257|445:257,1,123.599998962708,4|2,3:1|3:1,0:0:0:0:
382,350,236214,102,0,P|326:344|264:329,1,82.3999993084717,8|2,0:0|0:1,0:0:0:0:
210,355,236694,2,0,P|193:297|191:254,1,82.3999993084717,4|2,3:1|0:1,0:0:0:0:
129,206,237174,2,0,P|173:159|254:117,2,123.599998962708,8|0|2,0:0|3:0|3:1,0:0:0:0:
76,282,238134,1,8,0:0:0:0:
36,196,238374,1,2,0:1:0:0:
36,196,238494,1,0,0:0:0:0:
36,196,238614,21,4,3:1:0:0:
91,121,238854,2,0,P|84:80|72:40,1,82.3999993084717,2|8,0:1|0:0,0:0:0:0:
157,2,239334,1,2,0:1:0:0:
157,2,239454,2,0,P|176:62|183:138,1,123.599998962708,0|2,3:0|3:1,0:0:0:0:
254,184,240054,2,0,P|308:193|354:191,1,82.3999993084717,8|2,0:0|0:1,0:0:0:0:
335,192,240414,1,0,0:0:0:0:
335,192,240534,101,4,3:1:0:0:
410,153,240774,1,2,0:1:0:0:
369,79,241014,1,10,0:0:0:0:
443,39,241254,1,2,0:1:0:0:
443,39,241374,2,0,P|423:164|425:278,1,205.999998271179,4|12,3:2|0:1,0:0:0:0:
155,356,242454,6,0,P|150:334|147:309,7,27.4666664361572,4|0|4|4|8|8|0|0,3:1|3:3|0:3|0:3|0:3|0:3|3:0|3:0,0:0:0:0:
129,312,243174,102,0,P|130:291|139:260,1,41.1999996542358,8|8,0:0|0:0,0:0:0:0:
212,244,243414,2,0,P|205:190|192:154,1,82.3999993084717,4|4,0:3|0:3,0:0:0:0:
82,77,243894,37,12,1:2:0:0:
56,63,244014,1,8,1:0:0:0:
28,72,244134,1,8,1:0:0:0:
2,58,244254,1,12,1:1:0:0:
2,58,246294,101,4,3:2:0:0:
82,23,247134,1,4,3:2:0:0:
170,34,248094,1,4,3:2:0:0:
238,91,249054,1,4,3:2:0:0:
238,91,249414,2,0,P|251:156|250:194,1,75.9999979705811,8|8,0:0|0:0,0:0:0:0:
249,173,249774,1,8,0:0:0:0:
247,179,249894,2,0,P|209:188|187:192,1,37.9999989852906,8|8,0:0|0:0,0:0:0:0:
174,263,250974,5,4,3:2:0:0:
254,298,251934,1,4,3:2:0:0:
342,287,252894,1,4,3:2:0:0:
342,287,253254,2,0,P|355:235|360:192,1,75.9999979705811,8|8,0:0|0:0,0:0:0:0:
432,128,253734,5,8,0:0:0:0:
432,128,253854,2,0,P|383:114|314:108,1,113.999996955872,4|0,3:1|3:0,0:0:0:0:
253,166,254454,2,0,P|239:129|232:81,1,75.9999979705811,10|0,0:0|0:0,0:0:0:0:
232,86,254814,2,0,P|171:93|116:111,1,113.999996955872,6|0,3:2|3:0,0:0:0:0:
54,167,255414,1,10,0:0:0:0:
54,167,255534,2,0,P|38:119|34:88,1,75.9999979705811,0|6,0:0|3:2,0:0:0:0:
34,93,256134,21,0,3:0:0:0:
121,73,256374,2,0,P|136:120|140:151,1,75.9999979705811,10|0,0:0|0:0,0:0:0:0:
139,152,256734,2,0,P|120:233|116:283,1,113.999996955872,6|0,3:2|3:0,0:0:0:0:
228,285,257334,2,0,P|247:204|251:154,1,113.999996955872,12|4,0:1|3:2,0:0:0:0:
340,32,258054,5,0,3:0:0:0:
424,51,258294,2,0,P|436:101|439:140,1,75.9999979705811,8|0,0:0|0:0,0:0:0:0:
437,131,258654,2,0,P|364:140|309:154,1,113.999996955872,0|0,3:0|3:0,0:0:0:0:
356,229,259254,1,8,0:0:0:0:
439,215,259494,1,8,0:0:0:0:
439,215,259614,1,8,0:0:0:0:
439,215,259734,1,2,0:0:0:0:
241,358,260694,5,12,0:0:0:0:
241,358,260854,1,2,3:2:0:0:
256,280,261094,1,2,3:2:0:0:
217,208,261334,1,2,3:2:0:0:
239,131,261574,1,4,3:2:0:0:
88,34,262230,5,4,3:1:0:0:
256,192,262375,12,4,265512,0:0:0:0:
