osu file format v14

[General]
AudioFilename: audio.mp3
AudioLeadIn: 0
PreviewTime: 61138
Countdown: 1
SampleSet: Soft
StackLeniency: 0.7
Mode: 0
LetterboxInBreaks: 0
WidescreenStoryboard: 0

[Editor]
Bookmarks: 29229
DistanceSpacing: 0.1
BeatDivisor: 4
GridSize: 32
TimelineZoom: 1

[Metadata]
Title:Fate Line
TitleUnicode:Fate Line
Artist:Duca
ArtistUnicode:Duca
Creator:joker-
Version:Fortune
Source:神頼みしすぎて俺の未来がヤバい。
Tags:
BeatmapID:1259903
BeatmapSetID:595738

[Difficulty]
HPDrainRate:6
CircleSize:4
OverallDifficulty:8
ApproachRate:9
SliderMultiplier:1.9
SliderTickRate:1

[Events]
//Background and Video events
0,0,"bg1.jpg",0,0
//Break Periods
//Storyboard Layer 0 (Background)
//Storyboard Layer 1 (Fail)
//Storyboard Layer 2 (Pass)
//Storyboard Layer 3 (Foreground)
//Storyboard Sound Samples

[TimingPoints]
-1332,363.636363636364,4,2,1,40,1,0
122,-100,4,2,1,40,0,0
10122,-166.666666666667,4,2,1,40,0,0
22849,-200,4,2,1,40,0,0
23395,-111.111111111111,4,2,1,40,0,0
33395,-90.9090909090909,4,2,1,40,0,0
34486,-166.666666666667,4,2,1,40,0,0
35031,-100,4,2,1,40,0,0

[HitObjects]
263,258,122,5,0,0:0:0:0:
205,153,304,1,0,0:0:0:0:
263,258,486,2,0,P|310:255|360:245,1,95
438,131,849,1,0,0:0:0:0:
290,42,1031,2,0,L|299:142,1,95
153,236,1395,6,0,P|113:150|183:57,1,190
289,11,1940,1,0,0:0:0:0:
270,156,2122,2,0,L|256:266,1,95
142,87,2486,1,0,0:0:0:0:
270,156,2668,1,0,0:0:0:0:
204,13,2849,1,0,0:0:0:0:
78,163,3031,5,0,0:0:0:0:
233,84,3213,1,0,0:0:0:0:
217,279,3395,2,0,L|226:184,1,95
358,117,3758,2,0,L|370:211,1,95
284,359,4122,1,0,0:0:0:0:
443,300,4304,1,0,2:0:0:0:
443,300,4395,1,0,2:0:0:0:
443,300,4486,5,0,2:0:0:0:
290,246,4668,1,0,0:0:0:0:
453,182,4849,1,0,0:0:0:0:
291,106,5031,2,0,P|218:80|124:142,1,190
42,288,5577,2,0,L|29:192,1,95
160,308,5940,5,0,0:0:0:0:
217,187,6122,1,0,0:0:0:0:
267,321,6304,1,0,0:0:0:0:
128,220,6486,1,0,0:0:0:0:
307,156,6668,1,0,0:0:0:0:
175,49,6849,1,0,0:0:0:0:
128,220,7031,1,0,0:0:0:0:
342,244,7213,1,0,0:0:0:0:
218,47,7395,6,0,P|211:96|217:147,1,95
238,267,7758,1,0,0:0:0:0:
307,156,7940,1,0,0:0:0:0:
128,220,8122,1,0,0:0:0:0:
319,302,8304,1,0,0:0:0:0:
299,69,8486,1,0,0:0:0:0:
424,198,8668,1,0,0:0:0:0:
210,143,8849,6,0,L|222:238,1,95
98,334,9213,1,0,0:0:0:0:
98,334,9395,1,0,0:0:0:0:
57,213,9577,1,0,0:0:0:0:
219,336,9758,1,0,0:0:0:0:
182,151,9940,1,0,0:0:0:0:
328,270,10122,6,0,B|349:283|366:307|366:307|305:313|248:299|195:283|195:283|198:304|218:335,1,284.999991302491
218,335,11122,1,0,0:0:0:0:
218,334,11213,2,0,B|243:244|243:244|224:193,1,142.499995651245
226,198,11758,5,0,0:0:0:0:
455,155,12122,2,0,P|397:157|331:170,1,113.999996520996
165,136,12849,1,0,0:0:0:0:
165,136,13213,6,0,L|182:18,1,113.999996520996
61,66,13758,2,0,L|69:142,1,56.9999982604981
85,229,14122,1,0,0:0:0:0:
85,229,14486,1,0,0:0:0:0:
171,158,14668,6,0,P|232:161|302:187,2,113.999996520996
188,55,15577,1,0,0:0:0:0:
282,0,15758,2,0,P|288:47|286:78,1,56.9999982604981
282,176,16122,6,0,P|281:251|298:302,1,113.999996520996
380,352,16668,1,0,0:0:0:0:
450,265,16849,2,0,L|441:209,1,56.9999982604981
339,156,17213,2,0,L|346:89,1,56.9999982604981
242,234,17577,6,0,P|187:246|128:244,1,113.999996520996
74,155,18122,2,0,L|84:82,1,56.9999982604981
171,27,18486,2,0,L|182:95,1,56.9999982604981
207,193,18849,1,0,0:0:0:0:
210,205,18940,1,0,0:0:0:0:
213,216,19031,6,0,B|206:264|206:264|225:349,1,113.999996520996
430,199,19758,2,0,L|368:206,1,56.9999982604981
285,141,20122,1,0,0:0:0:0:
368,22,20304,2,0,P|369:57|363:90,1,56.9999982604981
285,141,20668,6,0,P|256:140|229:135,1,56.9999982604981
106,68,21031,2,0,P|107:137|117:198,1,113.999996520996
143,293,21577,1,0,0:0:0:0:
143,293,21758,1,0,0:0:0:0:
268,191,21940,5,0,0:0:0:0:
268,191,22304,1,0,0:0:0:0:
339,304,22486,1,0,0:0:0:0:
424,173,22849,6,0,P|364:164|296:180,1,118.75
268,191,23395,6,0,L|279:92,1,85.4999973907472
123,22,23758,2,0,L|133:123,1,85.4999973907472
66,286,24122,2,0,L|54:184,1,85.4999973907472
170,85,24486,1,0,0:0:0:0:
27,122,24668,1,0,0:0:0:0:
193,215,24849,6,0,P|255:193|343:197,1,128.249996086121
356,195,25213,1,0,0:0:0:0:
464,95,25395,2,0,L|456:191,1,85.4999973907472
324,276,25758,2,0,L|316:180,1,85.4999973907472
230,89,26122,1,0,0:0:0:0:
48,171,26304,6,0,P|117:179|224:183,1,170.999994781494
329,93,26849,1,0,0:0:0:0:
421,211,27031,1,0,0:0:0:0:
472,58,27213,1,0,0:0:0:0:
307,100,27395,1,0,0:0:0:0:
497,153,27577,6,0,P|495:269|452:299,1,170.999994781494
341,354,28122,1,0,0:0:0:0:
358,225,28304,1,0,0:0:0:0:
198,269,28486,2,0,P|236:271|297:288,1,85.4999973907472
329,120,28849,2,0,P|286:126|246:140,1,85.4999973907472
119,305,29213,6,0,B|97:257|97:257|121:154,1,128.249996086121
126,143,29577,1,0,0:0:0:0:
227,30,29758,2,0,L|233:124,1,85.4999973907472
396,113,30122,2,0,L|388:205,1,85.4999973907472
206,296,30486,6,0,P|290:314|366:253,1,170.999994781494
396,113,31031,1,0,0:0:0:0:
264,175,31213,1,0,0:0:0:0:
441,222,31395,2,0,P|450:274|448:331,1,85.4999973907472
301,364,31758,1,0,0:0:0:0:
264,175,31940,6,0,B|180:165|180:165|125:190,1,128.249996086121
105,201,32304,2,0,L|116:98,1,85.4999973907472
240,8,32668,2,0,L|253:105,1,85.4999973907472
215,283,33031,1,0,0:0:0:0:
104,200,33213,1,0,0:0:0:0:
323,163,33395,6,0,B|396:149|396:149|472:196,1,156.750004783631
377,266,33758,2,0,B|304:280|304:280|233:236,1,156.750004783631
213,121,34122,2,0,P|187:60|124:117,1,156.750004783631
141,209,34486,6,0,B|150:246|150:246|144:287|144:287|155:326,1,113.999996520996
338,364,35031,5,0,0:0:0:0:
338,364,35213,1,0,0:0:0:0:
153,320,35395,1,0,0:0:0:0:
233,236,35577,2,0,L|328:248,1,95
404,167,35940,1,0,0:0:0:0:
491,291,36122,1,0,0:0:0:0:
500,111,36304,6,0,B|510:182|510:182|479:230|479:230|494:308,1,190
338,364,36849,1,0,0:0:0:0:
363,229,37031,1,0,0:0:0:0:
238,304,37213,2,0,P|236:254|223:204,1,95
62,325,37577,2,0,P|105:348|155:362,1,95
129,162,37940,5,0,0:0:0:0:
321,211,38122,1,0,0:0:0:0:
213,30,38304,2,0,L|220:124,1,95
392,78,38668,2,0,L|380:172,2,95
481,206,39213,6,0,P|421:272|320:260,1,190
184,197,39758,1,0,0:0:0:0:
289,157,39940,1,0,0:0:0:0:
200,334,40122,1,0,0:0:0:0:
79,239,40304,1,0,0:0:0:0:
302,298,40486,2,0,L|287:142,1,142.5
283,114,40849,5,0,0:0:0:0:
461,157,41031,1,0,0:0:0:0:
338,24,41213,1,0,0:0:0:0:
389,221,41395,1,0,0:0:0:0:
208,197,41577,2,0,L|112:216,1,95
212,61,41940,1,0,0:0:0:0:
41,145,42122,6,0,P|13:231|79:312,1,190
206,355,42668,2,0,L|194:251,1,95
344,175,43031,2,0,L|333:293,1,95
176,146,43395,2,0,L|165:51,1,95
344,175,43758,6,0,B|423:207|492:173|492:173|451:130,1,190
375,59,44304,1,0,0:0:0:0:
224,182,44486,2,0,B|125:232|142:126|20:202,1,190
94,305,45031,2,0,L|303:316,1,190
