osu file format v14

[General]
AudioFilename: audio.mp3
AudioLeadIn: 0
PreviewTime: 211055
Countdown: 0
SampleSet: None
StackLeniency: 0.2
Mode: 0
LetterboxInBreaks: 0
WidescreenStoryboard: 1

[Editor]
Bookmarks: 1292,12660,32870,42976,53081,63186,72028,74555,94765,114976,125081,135186,145292,154134,156660,176870,197081,208449,210976,228660,231186,251397,256449,266555
DistanceSpacing: 0.7
BeatDivisor: 4
GridSize: 4
TimelineZoom: 1.9

[Metadata]
Title:Cold Butterfly
TitleUnicode:Cold Butterfly
Artist:Duca
ArtistUnicode:Duca
Creator:Zeonive
Version:
Source:
Tags:
BeatmapID:1299070
BeatmapSetID:615914

[Difficulty]
HPDrainRate:6
CircleSize:4
OverallDifficulty:9
ApproachRate:9.6
SliderMultiplier:1.9
SliderTickRate:1

[Events]
//Background and Video events
//Break Periods
//Storyboard Layer 0 (Background)
//Storyboard Layer 1 (Fail)
//Storyboard Layer 2 (Pass)
//Storyboard Layer 3 (Foreground)
//Storyboard Sound Samples

[TimingPoints]
1292,315.789473684211,4,3,0,0,1,0
21976,-66.6666666666667,4,3,0,0,0,0
22607,-79.9999999999999,4,3,0,0,0,0
32870,-133.333333333333,4,3,0,0,0,0
74555,-100,4,3,0,0,0,1
84581,-100,4,3,0,0,0,0
84660,-100,4,3,0,0,0,1
94765,-100,4,3,0,0,0,0
156660,-100,4,3,0,0,0,1
166686,-100,4,3,0,0,0,0
166765,-100,4,3,0,0,0,1
176792,-100,4,3,0,0,0,0
176870,-100,4,3,0,0,0,1
181844,-100,4,3,0,0,0,0
181923,-100,4,3,0,0,0,1
186897,-100,4,3,0,0,0,0
186976,-100,4,3,0,0,0,1
191949,-100,4,3,0,0,0,0
192028,-100,4,3,0,0,0,1
197081,-100,4,3,0,0,0,0
210976,-100,4,3,0,0,0,1
211055,-100,4,3,0,0,0,0
221081,-100,4,3,0,0,0,1
221160,-100,4,3,0,0,0,0
231186,-100,4,3,0,0,0,1
241213,-100,4,3,0,0,0,0
241292,-100,4,3,0,0,0,1
251318,-100,4,3,0,0,0,0
251397,-100,4,3,0,0,0,1
256449,-100,4,3,0,0,0,0

[Colours]
Combo1 : 240,240,240
Combo2 : 84,131,139
Combo3 : 82,108,79
Combo4 : 112,94,119
Combo5 : 124,124,124
Combo6 : 242,0,0
Combo7 : 213,0,138
Combo8 : 240,240,240

[HitObjects]
270,192,9818,5,8,3:1:0:0:
471,253,9976,6,0,P|422:294|317:275,1,142.5,6|0,3:1|3:1,3:1:0:0:
306,276,10292,1,0,0:0:0:0:
435,169,10449,1,8,3:1:0:0:
253,350,10607,1,0,3:1:0:0:
341,97,10765,1,0,3:1:0:0:
346,138,10844,1,0,3:1:0:0:
353,180,10923,1,2,3:1:0:0:
224,84,11081,1,8,3:1:0:0:
450,51,11239,5,6,3:1:0:0:
170,180,12502,6,0,L|157:34,1,142.5,6|0,3:1|3:1,3:1:0:0:
170,26,12818,1,0,3:1:0:0:
92,230,12976,2,0,P|113:272|107:319,1,95,8|0,3:1|3:1,3:1:0:0:
37,104,13292,1,0,3:1:0:0:
170,180,13449,1,2,3:1:0:0:
37,104,13607,1,8,3:1:0:0:
236,102,13765,70,0,P|295:119|381:61,1,142.5,2|0,3:1|3:1,3:1:0:0:
377,73,14081,1,0,3:1:0:0:
170,180,14239,2,0,L|161:277,1,95,8|0,3:1|3:1,3:1:0:0:
83,220,14555,1,0,3:1:0:0:
247,233,14713,1,2,3:1:0:0:
74,314,14870,1,8,3:1:0:0:
256,139,15028,6,0,B|347:116|347:116|439:139,1,142.5,6|0,3:1|3:1,3:1:0:0:
425,139,15344,1,0,3:1:0:0:
323,300,15502,2,0,P|346:255|323:172,1,95,8|0,3:1|3:1,3:1:0:0:
386,370,15818,1,0,3:1:0:0:
247,233,15976,1,2,3:1:0:0:
253,363,16134,1,8,3:1:0:0:
425,139,16292,6,0,B|435:31|435:31|406:62,1,142.5,6|0,3:1|3:1,3:1:0:0:
278,73,16607,2,0,L|332:68,1,47.5
338,155,16765,2,0,L|290:159,1,47.5
210,125,16923,1,0,0:0:0:0:
254,278,17081,1,0,0:0:0:0:
275,287,17160,2,0,P|310:286|340:271,1,47.5
86,236,17555,6,0,B|52:257|52:257|38:312|67:355,1,142.5
77,371,17870,1,0,0:0:0:0:
33,158,18028,2,0,P|43:108|26:55,1,95
218,274,18344,1,0,0:0:0:0:
184,139,18502,1,0,0:0:0:0:
318,179,18660,1,0,0:0:0:0:
314,374,18818,69,0,0:0:0:0:
414,279,18976,1,0,0:0:0:0:
318,179,19134,1,0,0:0:0:0:
418,84,19292,1,0,0:0:0:0:
415,374,19449,1,0,0:0:0:0:
245,280,19607,1,0,0:0:0:0:
411,179,19765,1,0,0:0:0:0:
311,84,19923,1,0,0:0:0:0:
415,374,20081,6,0,B|325:355|325:355|271:369,1,142.5
257,373,20397,1,0,0:0:0:0:
190,199,20555,1,0,0:0:0:0:
235,379,20713,1,0,0:0:0:0:
306,53,20870,1,0,0:0:0:0:
374,227,21027,1,0,0:0:0:0:
122,26,21186,1,0,0:0:0:0:
490,81,21344,5,0,0:0:0:0:
258,270,21660,1,0,0:0:0:0:
202,94,21818,1,0,0:0:0:0:
386,121,21976,2,0,B|433:230|329:202|388:324,1,213.750008153916
305,122,22292,2,0,P|345:52|469:124,1,213.750008153916
247,179,22607,6,0,B|160:197|160:197|73:179,1,178.125
72,178,22923,1,0,0:0:0:0:
216,314,23081,2,0,P|159:298|103:314,1,118.75
72,178,23397,1,0,0:0:0:0:
216,42,23555,1,0,0:0:0:0:
103,42,23713,1,0,0:0:0:0:
247,177,23870,70,0,P|345:153|428:173,1,178.125
439,178,24186,1,0,0:0:0:0:
281,284,24344,2,0,L|147:274,1,118.75
345,363,24660,1,0,0:0:0:0:
429,177,24818,1,0,0:0:0:0:
382,269,24976,1,0,0:0:0:0:
298,83,25134,6,0,B|259:59|259:59|123:74,1,178.125
104,77,25449,1,0,0:0:0:0:
222,277,25607,2,0,P|242:214|227:163,1,118.75
283,384,25923,1,0,0:0:0:0:
103,217,26081,1,0,0:0:0:0:
347,246,26239,1,0,0:0:0:0:
133,365,26397,6,0,B|12:375|12:375|77:324,1,178.125
18,255,26713,1,0,0:0:0:0:
121,82,26870,1,0,0:0:0:0:
219,257,27028,2,0,P|277:239|331:257,1,118.75
378,169,27344,1,0,0:0:0:0:
275,342,27501,1,0,0:0:0:0:
177,167,27659,6,0,P|86:179|23:112,1,178.125
22,99,27976,1,0,0:0:0:0:
24,357,28134,2,0,L|14:234,1,118.75
121,82,28449,1,0,0:0:0:0:
171,344,28607,1,0,0:0:0:0:
171,344,28765,1,0,0:0:0:0:
277,188,28923,70,0,B|379:157|333:251|481:188,1,178.125
465,201,29239,1,0,0:0:0:0:
288,280,29397,2,0,P|231:275|186:204,1,118.75
360,358,29713,1,0,0:0:0:0:
465,201,29870,1,0,0:0:0:0:
491,332,30028,1,0,0:0:0:0:
308,96,30186,6,0,L|95:77,1,178.125
380,0,30502,1,0,0:0:0:0:
329,213,30660,2,0,B|310:271|310:271|332:341,1,118.75
419,136,30897,1,0,0:0:0:0:
419,136,30976,2,0,L|425:67,1,59.375
217,171,31134,1,0,0:0:0:0:
213,212,31212,1,0,0:0:0:0:
209,253,31291,1,0,0:0:0:0:
42,27,31449,5,0,0:0:0:0:
256,192,31528,12,0,32792,0:0:0:0:
502,373,32870,6,0,B|461:366|414:372|414:372|436:341|488:334,1,142.500005435944
