osu file format v14

[General]
AudioFilename: audio.mp3
AudioLeadIn: 0
PreviewTime: 58331
Countdown: 0
SampleSet: Soft
StackLeniency: 0.5
Mode: 0
LetterboxInBreaks: 0
WidescreenStoryboard: 1

[Editor]
Bookmarks: 972,7732,14493,21253,28014,34774,41535,48295,55056,58436,65197,71957,78718,85479,92239,95619
DistanceSpacing: 1.33
BeatDivisor: 4
GridSize: 4
TimelineZoom: 1.42

[Metadata]
Title:Clover (short ver.)
TitleUnicode:クローバー(short ver.)
Artist:Duca
ArtistUnicode:Duca
Creator:Kencho
Version:Lukas' Normal
Source:your diary+H
Tags:KaedekaShizuru lukas [_l_u_k_a_s_] sahuang My Angel Azusa opening tv size Cuffs Cube eroge visual novel kantoku ANZE HIJIRI
BeatmapID:1427325
BeatmapSetID:668608

[Difficulty]
HPDrainRate:4
CircleSize:3.5
OverallDifficulty:4
ApproachRate:5.5
SliderMultiplier:1
SliderTickRate:1

[Events]
//Background and Video events
Video,172,"video.avi"
0,0,"BG1.jpg",0,0
//Break Periods
//Storyboard Layer 0 (Background)
//Storyboard Layer 1 (Fail)
//Storyboard Layer 2 (Pass)
//Storyboard Layer 3 (Foreground)
//Storyboard Sound Samples

[TimingPoints]
972,422.535211267606,4,2,1,30,1,0
972,-166.666666666667,4,2,1,30,0,0
3929,-166.666666666667,4,2,1,15,0,0
4352,-166.666666666667,4,2,1,40,0,0
4563,-166.666666666667,4,2,1,20,0,0
4774,-166.666666666667,4,2,1,40,0,0
6042,-100,4,2,1,70,0,0
7310,-100,4,2,1,75,0,0
7521,-100,4,2,1,80,0,0
7732,-83.3333333333333,4,2,1,75,0,0
12802,-83.3333333333333,4,2,1,70,0,0
14070,-83.3333333333333,4,2,1,75,0,0
14493,-100,4,2,1,60,0,0
28014,-100,4,2,1,65,0,0
41535,-125,4,2,1,50,0,0
44704,-125,4,2,1,30,0,0
44915,-125,4,2,1,50,0,0
45971,-125,4,2,1,30,0,0
46182,-125,4,2,1,50,0,0
48084,-125,4,2,1,30,0,0
48190,-125,4,2,1,50,0,0
48295,-100,4,2,1,60,0,0
49986,-100,4,2,1,65,0,0
51676,-100,4,2,1,70,0,0
53155,-100,4,2,1,30,0,0
53366,-100,4,2,1,70,0,0
54845,-100,4,2,1,75,0,0
55056,-100,4,2,1,75,0,0
56535,-100,4,2,1,80,0,0
56852,-100,4,2,1,50,0,0
57169,-100,4,2,1,50,0,0
57380,-100,4,2,1,70,0,0
57591,-83.3333333333333,4,2,1,70,0,0
58014,-71.4285714285714,4,2,1,80,0,0
58436,-83.3333333333333,4,2,1,80,0,1
71535,-83.3333333333333,4,2,1,85,0,1
71852,-83.3333333333333,4,2,1,85,0,0
71957,-83.3333333333333,4,2,1,80,0,1
85056,-83.3333333333333,4,2,1,85,0,1
85162,-83.3333333333333,4,2,1,55,0,1
85479,-100,4,2,1,70,0,0
92239,-100,4,2,1,60,0,0
94141,-100,4,2,1,70,0,0
94774,-100,4,2,1,80,0,0

[Colours]
Combo1 : 255,224,128
Combo2 : 255,160,192
Combo3 : 96,96,128
Combo4 : 255,144,64
Combo5 : 160,96,80
Combo6 : 64,144,64
Combo7 : 160,64,160

[HitObjects]
62,252,972,6,0,L|77:382,2,119.999996337891,2|8|2,3:2|3:2|3:2,0:0:0:0:
293,30,3507,1,8,3:2:0:0:
401,332,4352,6,0,B|365:336|365:336|327:323|327:323|284:331,1,119.999996337891,2|8,3:2|3:2,0:0:0:0:
127,360,5619,1,2,0:0:0:0:
217,228,6042,6,0,P|221:198|211:162,1,50,6|2,3:2|3:2,0:0:0:0:
152,131,6464,2,0,P|148:101|158:65,1,50,8|2,0:0|3:2,0:0:0:0:
204,21,6887,2,0,P|248:8|302:32,1,100,8|8,3:2|3:2,0:0:0:0:
393,150,7732,6,0,L|512:138,2,119.999996337891,6|8|2,3:2|0:0|1:1,0:0:0:0:
316,132,8788,1,2,3:2:0:0:
239,110,9000,2,0,P|188:105|164:106,1,59.9999981689454,10|2,1:1|3:3,0:0:0:0:
141,175,9422,6,0,P|90:180|66:179,1,59.9999981689454,2|2,0:0|0:0,0:0:0:0:
8,162,9845,1,10,3:2:0:0:
8,162,10056,2,0,L|-1:243,1,59.9999981689454,2|0,3:2|1:2,0:0:0:0:
23,299,10479,1,2,0:0:0:0:
46,375,10690,1,8,1:2:0:0:
181,290,11112,6,0,L|176:228,2,59.9999981689454,2|2|8,3:2|3:3|0:0,0:0:0:0:
191,369,11746,2,0,P|250:371|307:353,1,119.999996337891,2|2,3:2|3:2,0:0:0:0:
365,297,12380,1,10,1:1:0:0:
365,297,12591,2,0,L|425:302,1,59.9999981689454,2|2,3:3|0:0,0:0:0:0:
468,236,13014,5,8,1:2:0:0:
468,236,13225,2,0,P|473:208|472:177,1,59.9999981689454,8|2,3:2|1:2,0:0:0:0:
454,103,13648,1,8,3:2:0:0:
454,103,13859,1,8,1:2:0:0:
397,47,14070,2,0,P|369:39|336:41,1,59.9999981689454,8|2,3:2|1:2,0:0:0:0:
261,64,14493,6,0,L|161:56,1,100,6|8,3:2|0:0,0:0:0:0:
113,120,15126,2,0,P|109:145|112:172,1,50,2|2,0:0|3:3,0:0:0:0:
179,213,15549,2,0,L|235:203,1,50,2|8,0:0|0:0,0:0:0:0:
307,191,15972,6,0,P|319:236|315:291,1,100,2|2,0:3|3:3,0:0:0:0:
282,361,16605,1,8,3:2:0:0:
282,361,16817,1,2,0:0:0:0:
210,324,17028,2,0,L|154:334,1,50,2|2,3:3|0:0,0:0:0:0:
82,350,17450,1,8,0:0:0:0:
0,212,17873,6,0,P|42:189|93:188,1,100,2|8,3:2|0:0,0:0:0:0:
168,217,18507,1,2,0:0:0:0:
236,176,18718,2,0,B|248:140|248:140|242:116|242:116|253:81,1,100,2|8,3:3|0:0,0:0:0:0:
283,6,19352,1,2,3:3:0:0:
359,30,19563,6,0,P|370:54|370:87,1,50,2|2,3:2|3:3,0:0:0:0:
436,124,19986,2,0,P|424:148|424:181,1,50,8|2,3:2|3:2,0:0:0:0:
450,252,20408,1,2,3:3:0:0:
450,252,20619,1,2,3:2:0:0:
372,232,20831,2,0,L|306:238,1,50,8|2,3:2|3:3,0:0:0:0:
265,292,21253,6,0,L|165:283,1,100,2|8,3:2|0:0,0:0:0:0:
92,316,21887,2,0,B|85:291|85:291|87:265,1,50,2|2,0:0|3:3,0:0:0:0:
122,195,22310,2,0,B|98:187|98:187|72:189,1,50,2|8,0:0|0:0,0:0:0:0:
10,238,22732,6,0,B|18:188|18:188|3:137,1,100,2|2,0:3|3:3,0:0:0:0:
54,79,23366,1,8,3:2:0:0:
54,79,23577,1,2,0:0:0:0:
133,74,23788,2,0,L|182:71,1,50,2|2,3:3|0:0,0:0:0:0:
246,21,24211,2,0,L|315:24,1,50,8|2,0:0|3:3,0:0:0:0:
363,65,24633,6,0,P|373:46|376:18,2,50,2|2|8,3:2|3:3|3:2,0:0:0:0:
314,128,25267,2,0,L|324:196,1,50,2|2,3:2|3:3,0:0:0:0:
397,203,25690,2,0,L|407:135,2,50,2|8|2,0:0|0:0|3:3,0:0:0:0:
385,286,26324,5,2,3:2:0:0:
385,286,26535,1,10,3:3:0:0:
310,259,26746,2,0,L|247:265,1,50,8|2,3:2|3:2,0:0:0:0:
199,315,27169,1,2,3:3:0:0:
199,315,27380,1,2,3:2:0:0:
124,288,27591,2,0,L|61:294,1,50,8|2,3:2|3:3,0:0:0:0:
3,330,28014,6,0,P|21:285|17:231,1,100,6|8,3:2|0:0,0:0:0:0:
0,156,28647,2,0,L|54:147,1,50,2|2,0:0|3:3,0:0:0:0:
125,175,29070,2,0,P|121:205|111:226,1,50,2|8,0:0|0:0,0:0:0:0:
73,292,29493,6,0,P|120:271|173:284,1,100,2|2,0:3|0:3,0:0:0:0:
240,322,30126,1,8,0:0:0:0:
240,322,30338,1,2,0:0:0:0:
306,277,30549,2,0,L|358:272,1,50,2|2,3:3|0:0,0:0:0:0:
424,230,30972,1,8,0:0:0:0:
286,149,31394,6,0,L|186:139,1,100,2|8,3:2|0:0,0:0:0:0:
134,78,32028,2,0,P|112:89|79:89,1,50,2|2,0:0|3:3,0:0:0:0:
9,69,32450,2,0,L|2:131,1,50,2|8,0:0|0:0,0:0:0:0:
42,188,32873,6,0,P|57:238|51:300,1,100,2|2,3:3|3:3,0:0:0:0:
32,365,33507,1,8,3:2:0:0:
32,365,33718,1,2,3:2:0:0:
109,345,33929,2,0,L|175:353,1,50,2|2,3:3|3:2,0:0:0:0:
220,299,34352,2,0,L|286:291,1,50,8|2,3:2|3:3,0:0:0:0:
330,345,34774,6,0,L|432:332,1,100,2|8,3:2|0:0,0:0:0:0:
491,281,35408,2,0,P|513:236|510:177,1,100,2|2,3:2|3:2,0:0:0:0:
479,114,36041,1,8,3:2:0:0:
409,153,36253,6,0,B|377:161|377:161|309:147,1,100,2|2,0:3|0:3,0:0:0:0:
250,96,36887,1,8,0:0:0:0:
189,44,37098,2,0,B|157:36|157:36|89:50,1,100,2|2,3:2|3:2,0:0:0:0:
13,68,37732,1,8,3:2:0:0:
160,129,38154,6,0,P|173:171|164:229,1,100,2|8,3:2|0:0,0:0:0:0:
113,285,38788,1,2,0:0:0:0:
59,344,39000,2,0,P|83:360|112:366,1,50,2|2,0:3|0:0,0:0:0:0:
176,333,39422,1,8,0:0:0:0:
248,368,39633,6,0,L|306:362,1,50,2|2,3:2|0:3,0:0:0:0:
358,310,40056,1,2,0:0:0:0:
420,360,40267,2,0,L|483:369,1,50,8|2,0:0|0:0,0:0:0:0:
505,295,40690,2,0,P|515:244|507:187,1,100,4|12,3:2|3:2,0:0:0:0:
406,75,41535,6,0,L|413:161,1,80,6|2,3:2|0:3,0:0:0:0:
420,239,42169,1,2,0:0:0:0:
420,239,42380,2,0,P|339:232|281:278,1,160,8|2,0:0|3:2,0:0:0:0:
245,352,43436,1,8,0:0:0:0:
245,352,43648,1,2,3:2:0:0:
114,260,44070,2,0,P|123:212|117:173,1,80,8|2,3:2|3:2,0:0:0:0:
84,25,44915,6,0,L|164:28,1,80,2|2,3:2|0:3,0:0:0:0:
248,38,45549,1,2,0:0:0:0:
248,38,45760,2,0,B|262:127|262:127|232:190,1,160,8|2,0:0|3:2,0:0:0:0:
193,262,46817,1,8,0:0:0:0:
193,262,47028,1,2,3:2:0:0:
37,227,47450,2,0,L|41:187,1,40,8|8,3:2|0:0,0:0:0:0:
4,116,47873,2,0,L|8:76,1,40,2|6,3:2|0:3,0:0:0:0:
87,87,48295,6,0,P|142:76|182:40,1,100,6|8,3:2|3:2,0:0:0:0:
316,128,49141,2,0,P|297:181|308:233,1,100,2|8,1:1|3:2,0:0:0:0:
165,305,49986,6,0,P|128:262|77:246,1,100,6|8,3:2|3:2,0:0:0:0:
18,280,50619,1,2,0:0:0:0:
18,280,50831,2,0,B|29:224|29:224|12:172,1,100,2|8,1:1|3:2,0:0:0:0:
37,24,51676,6,0,L|95:13,2,50,6|2|8,3:2|0:3|0:0,0:0:0:0:
43,104,52310,2,0,L|143:85,1,100,2|2,3:2|0:0,0:0:0:0:
215,116,52943,1,8,3:2:0:0:
290,144,53155,6,0,L|390:125,1,100,6|2,3:3|0:3,0:0:0:0:
454,180,53788,1,8,0:0:0:0:
454,180,54000,1,2,0:0:0:0:
417,251,54211,2,0,L|352:263,1,50,0|2,1:0|0:0,0:0:0:0:
289,274,54633,1,8,0:0:0:0:
221,231,54845,6,0,P|188:212|119:222,1,100,6|2,3:3|3:3,0:0:0:0:
54,248,55479,2,0,L|45:199,1,50,8|2,3:2|3:2,0:0:0:0:
30,120,55901,1,2,3:2:0:0:
109,133,56112,2,0,B|107:135|171:120,1,50,2|8,3:2|0:0,0:0:0:0:
217,69,56535,6,0,B|210:117|210:117|226:166,1,100,6|10,3:3|3:3,0:0:0:0:
269,234,57169,2,0,L|326:229,1,50,8|2,3:2|3:2,0:0:0:0:
381,280,57591,2,0,P|357:227|374:167,1,119.999996337891,2|12,1:2|3:2,0:0:0:0:
444,27,58436,6,0,L|376:32,1,59.9999981689454,6|2,1:2|0:3,0:0:0:0:
320,80,58859,2,0,L|252:75,1,59.9999981689454,8|2,1:2|0:0,0:0:0:0:
191,115,59281,1,0,1:2:0:0:
314,234,59704,1,10,1:1:0:0:
314,234,59915,1,2,3:2:0:0:
314,234,60126,6,0,B|366:246|366:246|457:232,1,119.999996337891,2|8,1:2|1:2,0:0:0:0:
472,166,60760,1,2,3:2:0:0:
433,96,60972,2,0,B|381:84|381:84|290:98,1,119.999996337891,0|10,1:2|1:1,0:0:0:0:
239,119,61605,1,2,0:0:0:0:
174,165,61817,6,0,P|165:192|167:224,1,59.9999981689454,2|2,1:2|3:3,0:0:0:0:
186,300,62239,2,0,P|213:291|245:293,1,59.9999981689454,8|2,1:2|0:0,0:0:0:0:
321,313,62662,1,2,1:1:0:0:
372,167,63084,1,10,1:1:0:0:
372,167,63295,1,2,3:2:0:0:
372,167,63507,6,0,L|313:155,1,59.9999981689454,2|2,1:2|0:3,0:0:0:0:
246,198,63929,2,0,L|179:185,1,59.9999981689454,10|2,1:1|0:0,0:0:0:0:
116,150,64352,2,0,P|107:178|109:209,2,59.9999981689454,2|2|10,1:1|0:0|1:1,0:0:0:0:
170,91,64986,1,2,0:0:0:0:
224,32,65197,6,0,P|168:52|105:40,1,119.999996337891,2|10,1:2|1:1,0:0:0:0:
37,8,65831,2,0,P|70:56|75:120,1,119.999996337891,2|2,3:2|0:0,0:0:0:0:
34,184,66464,2,0,L|41:251,1,59.9999981689454,10|2,1:1|3:2,0:0:0:0:
119,231,66887,6,0,L|107:373,1,119.999996337891,2|10,1:2|1:1,0:0:0:0:
184,378,67521,1,2,3:2:0:0:
237,318,67732,2,0,P|314:292|368:305,1,119.999996337891,2|10,1:1|1:1,0:0:0:0:
427,321,68366,1,2,0:0:0:0:
420,242,68577,6,0,L|406:114,1,119.999996337891,2|8,1:2|1:2,0:0:0:0:
399,43,69211,2,0,B|351:56|351:56|259:34,1,119.999996337891,2|2,0:0|0:0,0:0:0:0:
206,15,69845,2,0,L|125:26,1,59.9999981689454,8|2,1:2|0:0,0:0:0:0:
95,84,70267,6,0,L|84:165,1,59.9999981689454,2|2,1:2|0:3,0:0:0:0:
75,222,70690,1,10,1:1:0:0:
149,194,70901,2,0,P|188:191|250:239,1,119.999996337891,2|2,3:2|3:2,0:0:0:0:
267,316,71535,1,14,1:1:0:0:
418,270,71957,6,0,L|479:277,1,59.9999981689454,6|2,1:2|0:3,0:0:0:0:
477,357,72380,2,0,L|418:363,1,59.9999981689454,10|2,1:1|0:0,0:0:0:0:
353,316,72802,1,2,1:1:0:0:
202,345,73225,1,10,1:1:0:0:
202,345,73436,1,2,3:2:0:0:
202,345,73647,6,0,P|183:286|188:221,1,119.999996337891,2|10,1:2|1:1,0:0:0:0:
210,152,74281,1,2,3:2:0:0:
239,77,74493,2,0,B|291:89|291:89|356:78,1,119.999996337891,2|10,1:1|1:1,0:0:0:0:
418,27,75126,1,2,3:2:0:0:
489,64,75338,6,0,P|492:93|489:123,1,59.9999981689454,2|2,1:2|3:3,0:0:0:0:
450,193,75760,2,0,P|448:222|451:252,1,59.9999981689454,8|2,1:2|0:0,0:0:0:0:
475,329,76183,2,0,L|400:333,1,59.9999981689454,2|2,1:1|3:2,0:0:0:0:
352,376,76605,1,10,1:1:0:0:
352,376,76816,1,2,3:2:0:0:
352,376,77028,6,0,L|277:372,1,59.9999981689454,2|2,1:2|3:3,0:0:0:0:
228,325,77450,2,0,L|153:321,1,59.9999981689454,10|2,1:1|0:0,0:0:0:0:
90,337,77873,2,0,P|74:291|75:273,1,59.9999981689454,2|2,1:1|0:0,0:0:0:0:
35,211,78295,2,0,P|66:174|82:166,1,59.9999981689454,10|2,1:1|0:0,0:0:0:0:
111,97,78718,6,0,P|166:81|213:105,2,89.9999972534181,6|2|2,1:2|3:2|3:2,0:0:0:0:
156,163,79563,2,0,P|165:199|166:261,2,89.9999972534181,2|0|2,1:1|3:2|3:2,0:0:0:0:
236,161,80408,6,0,P|260:141|273:113,1,59.9999981689454,2|2,1:2|3:3,0:0:0:0:
296,39,80831,2,0,L|358:46,2,59.9999981689454,10|2|2,1:1|0:0|1:1,0:0:0:0:
218,56,81464,1,2,0:0:0:0:
140,73,81676,2,0,L|78:66,1,59.9999981689454,8|2,1:2|0:0,0:0:0:0:
22,12,82098,6,0,L|35:133,1,119.999996337891,2|8,1:2|1:2,0:0:0:0:
97,181,82732,1,2,3:2:0:0:
162,227,82943,2,0,L|154:299,1,59.9999981689454,2|2,1:1|3:2,0:0:0:0:
144,366,83366,2,0,P|177:366|206:348,1,59.9999981689454,10|2,1:1|0:0,0:0:0:0:
263,304,83788,5,2,1:2:0:0:
317,363,84000,1,10,3:3:0:0:
380,314,84211,2,0,P|413:314|442:332,1,59.9999981689454,8|2,1:2|0:0,0:0:0:0:
484,262,84634,2,0,P|430:236|370:235,1,119.999996337891,2|10,1:2|1:1,0:0:0:0:
305,281,85268,1,8,0:0:0:0:
241,329,85479,6,0,P|191:330|146:309,1,100,6|8,3:2|3:2,0:0:0:0:
115,235,86112,1,2,3:2:0:0:
163,171,86324,2,0,L|227:177,1,50,2|2,1:1|3:2,0:0:0:0:
282,135,86746,2,0,L|346:129,1,50,10|2,1:1|3:2,0:0:0:0:
329,50,87169,6,0,L|265:56,1,50,2|2,3:2|3:3,0:0:0:0:
210,14,87591,2,0,L|146:8,1,50,8|2,3:2|3:2,0:0:0:0:
87,42,88014,1,2,1:1:0:0:
87,42,88225,1,2,3:2:0:0:
97,122,88436,2,0,L|105:188,1,50,10|2,1:1|3:2,0:0:0:0:
64,242,88859,6,0,P|110:222|165:230,1,100,2|8,3:2|3:2,0:0:0:0:
214,285,89493,1,2,3:2:0:0:
270,342,89704,2,0,L|326:332,1,50,2|2,1:1|3:2,0:0:0:0:
361,265,90126,2,0,L|417:275,1,50,10|2,1:1|3:2,0:0:0:0:
482,238,90549,6,0,L|472:182,1,50,2|2,3:2|3:3,0:0:0:0:
405,147,90971,2,0,L|415:91,1,50,8|2,3:2|3:2,0:0:0:0:
434,23,91394,1,2,1:1:0:0:
434,23,91605,1,2,3:2:0:0:
360,46,91817,1,10,1:1:0:0:
360,46,92028,6,0,B|328:50|328:50|299:38|299:38|263:43,1,100,6|2,3:2|0:3,0:0:0:0:
183,52,92662,1,8,0:0:0:0:
58,151,93084,2,0,P|61:215|87:265,1,100,0|8,1:2|1:2,0:0:0:0:
187,362,93929,6,0,L|254:348,1,50,2|2,0:0|3:2,0:0:0:0:
272,280,94352,2,0,L|339:294,1,50,8|2,3:2|3:2,0:0:0:0:
386,337,94774,1,12,3:2:0:0:
438,276,94986,1,12,3:2:0:0:
