osu file format v14

[General]
AudioFilename: audio.mp3
AudioLeadIn: 0
PreviewTime: 58331
Countdown: 0
SampleSet: Soft
StackLeniency: 0.7
Mode: 0
LetterboxInBreaks: 0
WidescreenStoryboard: 1

[Editor]
Bookmarks: 972,7732,14493,21253,28014,34774,41535,48295,55056,58436,65197,71957,78718,85479,92239,95619
DistanceSpacing: 1.2
BeatDivisor: 4
GridSize: 4
TimelineZoom: 1.42

[Metadata]
Title:Clover (short ver.)
TitleUnicode:クローバー(short ver.)
Artist:Duca
ArtistUnicode:Duca
Creator:Kencho
Version:Kaedeka's Easy
Source:your diary+H
Tags:KaedekaShizuru lukas [_l_u_k_a_s_] sahuang My Angel Azusa opening tv size Cuffs Cube eroge visual novel kantoku ANZE HIJIRI
BeatmapID:1422368
BeatmapSetID:668608

[Difficulty]
HPDrainRate:3
CircleSize:3
OverallDifficulty:3
ApproachRate:3.5
SliderMultiplier:0.8
SliderTickRate:1

[Events]
//Background and Video events
0,0,"BG2.jpg",0,0
Video,172,"video.avi"
//Break Periods
//Storyboard Layer 0 (Background)
//Storyboard Layer 1 (Fail)
//Storyboard Layer 2 (Pass)
//Storyboard Layer 3 (Foreground)
//Storyboard Sound Samples

[TimingPoints]
972,422.535211267606,4,2,1,30,1,0
972,-100,4,2,1,30,0,0
3929,-100,4,2,1,15,0,0
4352,-100,4,2,1,40,0,0
4563,-100,4,2,1,20,0,0
4774,-100,4,2,1,40,0,0
6042,-100,4,2,1,70,0,0
7310,-100,4,2,1,75,0,0
7521,-100,4,2,1,80,0,0
7732,-100,4,2,1,75,0,0
12802,-100,4,2,1,70,0,0
14070,-100,4,2,1,75,0,0
14493,-100,4,2,1,60,0,0
28014,-100,4,2,1,65,0,0
41535,-100,4,2,1,50,0,0
44704,-100,4,2,1,30,0,0
44915,-100,4,2,1,50,0,0
45971,-100,4,2,1,30,0,0
46182,-100,4,2,1,50,0,0
48084,-100,4,2,1,30,0,0
48190,-100,4,2,1,50,0,0
48295,-100,4,2,1,60,0,0
49986,-100,4,2,1,65,0,0
51676,-100,4,2,1,70,0,0
53155,-100,4,2,1,30,0,0
53366,-100,4,2,1,70,0,0
54845,-100,4,2,1,75,0,0
56535,-100,4,2,1,80,0,0
56852,-100,4,2,1,50,0,0
57380,-100,4,2,1,70,0,0
58014,-100,4,2,1,80,0,0
58436,-100,4,2,1,80,0,1
71535,-100,4,2,1,85,0,1
71852,-100,4,2,1,85,0,0
71957,-100,4,2,1,80,0,1
85056,-100,4,2,1,85,0,1
85162,-100,4,2,1,55,0,1
85479,-100,4,2,1,70,0,0
92239,-100,4,2,1,60,0,0
94141,-100,4,2,1,70,0,0
94774,-100,4,2,1,80,0,0

[Colours]
Combo1 : 255,224,128
Combo2 : 255,160,192
Combo3 : 96,96,128
Combo4 : 255,144,64
Combo5 : 160,96,80
Combo6 : 64,144,64
Combo7 : 160,64,160

[HitObjects]
424,300,972,6,0,P|452:212|436:144,1,160,2|8,3:2|3:2,0:0:0:0:
282,34,2662,2,0,P|218:82|134:98,1,160,2|8,3:2|3:2,0:0:0:0:
23,250,4352,6,0,P|102:292|172:294,1,160,2|8,3:2|3:2,0:0:0:0:
260,259,5619,1,2,0:0:0:0:
326,189,6042,2,0,P|350:221|356:272,2,80,6|8|8,3:2|0:0|3:2,0:0:0:0:
254,124,7310,1,8,3:2:0:0:
209,208,7732,6,0,P|129:240|57:232,1,160,6|2,3:2|1:1,0:0:0:0:
6,150,9000,1,10,1:1:0:0:
77,86,9422,2,0,L|157:106,1,80,2|10,0:0|3:2,0:0:0:0:
240,149,10267,2,0,P|284:157|316:145,1,80,0|8,1:2|1:2,0:0:0:0:
384,76,11112,6,0,P|432:140|428:216,1,160,2|0,3:2|1:2,0:0:0:0:
361,286,12380,1,10,1:1:0:0:
271,254,12802,2,0,P|266:298|277:332,2,80,2|8|8,0:0|3:2|3:2,0:0:0:0:
336,183,14070,1,8,3:2:0:0:
304,92,14493,6,0,P|224:108|144:112,1,160,6|2,3:2|3:3,0:0:0:0:
71,51,15760,1,8,0:0:0:0:
8,124,16183,2,0,P|24:176|24:212,1,80,2|8,3:2|3:2,0:0:0:0:
7,295,17028,2,0,P|55:311|95:311,1,80,2|8,3:3|0:0,0:0:0:0:
174,343,17873,6,0,P|254:311|342:315,1,160,2|2,3:2|3:3,0:0:0:0:
417,344,19141,1,8,0:0:0:0:
460,258,19563,2,0,P|496:290|512:326,2,80,2|8|2,3:2|3:2|3:3,0:0:0:0:
372,217,20831,1,8,3:2:0:0:
276,224,21253,6,0,P|232:140|248:76,1,160,2|2,3:2|3:3,0:0:0:0:
317,15,22521,1,8,0:0:0:0:
388,80,22943,2,0,P|440:96|480:96,1,80,2|8,3:2|3:2,0:0:0:0:
511,181,23788,2,0,L|427:201,1,80,2|8,3:3|0:0,0:0:0:0:
370,272,24633,6,0,P|286:248|206:248,1,160,2|2,3:2|3:3,0:0:0:0:
120,267,25901,1,8,0:0:0:0:
138,361,26324,2,0,P|90:357|62:341,2,80,2|8|2,3:2|3:2|3:3,0:0:0:0:
224,318,27591,1,8,3:2:0:0:
319,332,28014,6,0,P|363:272|356:186,1,160,6|2,3:2|3:3,0:0:0:0:
304,110,29281,1,8,0:0:0:0:
231,173,29704,2,0,L|151:185,1,80,2|8,3:2|0:0,0:0:0:0:
56,197,30549,2,0,P|36:241|44:281,1,80,2|8,3:3|0:0,0:0:0:0:
124,320,31394,6,0,L|284:340,1,160,2|2,3:2|3:3,0:0:0:0:
374,311,32662,1,8,0:0:0:0:
344,220,33084,2,0,L|260:228,1,80,2|8,3:2|3:2,0:0:0:0:
204,152,33929,2,0,L|120:160,1,80,2|8,3:3|3:2,0:0:0:0:
53,224,34774,6,0,P|45:268|69:308,1,80,2|8,3:2|0:0,0:0:0:0:
100,324,35408,2,0,P|184:308|228:304,1,120,2|8,3:2|3:2,0:0:0:0:
316,300,36464,2,0,P|328:240|322:225,1,80,2|8,3:2|0:0,0:0:0:0:
276,212,37098,2,0,P|200:212|152:200,1,120,2|8,3:2|3:2,0:0:0:0:
76,148,38155,6,0,P|64:108|76:72,1,80,2|8,3:2|0:0,0:0:0:0:
106,36,38788,2,0,P|190:52|242:52,1,120,2|8,0:0|0:0,0:0:0:0:
272,48,39633,2,0,P|312:116|304:160,1,120,2|8,3:2|0:0,0:0:0:0:
239,223,40690,2,0,P|199:211|155:207,1,80,4|12,3:2|3:2,0:0:0:0:
65,210,41535,6,0,P|25:270|57:354,1,160,6|8,3:2|0:0,0:0:0:0:
242,343,43225,2,0,P|318:311|402:303,1,160,2|8,3:2|3:2,0:0:0:0:
471,126,44915,6,0,P|395:158|311:166,1,160,2|8,3:2|0:0,0:0:0:0:
160,57,46605,2,0,P|116:125|124:205,1,160,2|8,3:2|3:2,0:0:0:0:
293,286,48295,6,0,P|349:278|373:278,2,80,6|8|2,3:2|3:2|1:1,0:0:0:0:
200,312,49563,1,8,3:2:0:0:
103,307,49986,2,0,P|87:263|91:231,1,80,6|8,3:2|3:2,0:0:0:0:
145,151,50831,2,0,L|225:167,1,80,2|8,1:1|3:2,0:0:0:0:
284,240,51676,6,0,P|344:288|440:280,1,160,6|2,3:2|1:1,0:0:0:0:
506,238,52943,1,8,3:2:0:0:
472,148,53366,2,0,L|392:156,1,80,2|8,0:0|0:0,0:0:0:0:
330,82,54211,2,0,L|246:90,1,80,0|8,1:0|0:0,0:0:0:0:
209,115,54845,6,0,P|145:121|85:115,1,120,6|8,3:3|3:2,0:0:0:0:
15,176,55901,2,0,P|35:212|47:252,1,80,2|8,3:2|0:0,0:0:0:0:
58,295,56535,2,0,P|130:323|178:315,1,120,6|8,3:3|3:2,0:0:0:0:
255,271,57591,2,0,P|231:223|227:191,1,80,2|12,1:2|3:2,0:0:0:0:
263,108,58436,6,0,P|311:116|351:116,2,80,6|8|0,1:2|1:2|1:2,0:0:0:0:
199,36,59704,1,10,1:1:0:0:
120,90,60126,2,0,P|96:133|96:169,2,80,2|8|0,1:2|1:2|1:2,0:0:0:0:
191,154,61394,1,10,1:1:0:0:
265,214,61817,6,0,L|353:226,1,80,2|8,1:2|1:2,0:0:0:0:
336,320,62662,2,0,L|424:332,1,80,2|10,1:1|1:1,0:0:0:0:
495,278,63507,2,0,P|515:230|507:190,1,80,2|10,1:2|1:1,0:0:0:0:
438,141,64352,2,0,P|386:153|346:153,1,80,2|10,1:1|1:1,0:0:0:0:
308,236,65197,6,0,P|232:212|144:208,1,160,2|2,1:2|1:1,0:0:0:0:
71,258,66464,1,10,1:1:0:0:
20,339,66887,2,0,P|92:355|156:303,1,160,2|2,1:2|1:1,0:0:0:0:
152,208,68155,1,10,1:1:0:0:
90,134,68577,6,0,P|38:142|6:138,2,80,2|8|2,1:2|1:2|1:1,0:0:0:0:
167,77,69845,1,8,1:2:0:0:
239,139,70267,2,0,P|291:147|323:143,1,80,2|10,1:2|1:1,0:0:0:0:
408,112,71112,2,0,P|436:156|440:196,1,80,2|14,1:2|1:1,0:0:0:0:
376,250,71957,6,0,P|412:272|464:274,2,80,6|10|2,1:2|1:1|1:1,0:0:0:0:
306,187,73225,1,10,1:1:0:0:
227,131,73648,2,0,P|175:111|139:111,2,80,2|10|2,1:2|1:1|1:1,0:0:0:0:
214,226,74915,1,10,1:1:0:0:
256,312,75338,6,0,L|344:320,1,80,2|8,1:2|1:2,0:0:0:0:
418,367,76183,2,0,L|498:355,1,80,2|10,1:1|1:1,0:0:0:0:
469,263,77028,2,0,P|445:211|441:187,1,80,2|10,1:2|1:1,0:0:0:0:
421,94,77873,2,0,P|369:82|333:78,1,80,2|10,1:1|1:1,0:0:0:0:
284,156,78718,6,0,P|236:172|128:148,1,160,6|2,1:2|1:1,0:0:0:0:
71,75,79986,1,8,1:2:0:0:
20,156,80408,2,0,P|4:236|48:304,1,160,2|2,1:2|1:1,0:0:0:0:
128,342,81676,1,8,1:2:0:0:
203,282,82098,6,0,P|275:249|354:273,1,160,2|2,1:2|1:1,0:0:0:0:
415,340,83366,1,10,1:1:0:0:
469,260,83788,2,0,L|479:175,1,80,2|8,1:2|1:2,0:0:0:0:
387,151,84633,2,0,P|345:153|311:168,1,80,2|10,1:2|1:1,0:0:0:0:
241,235,85479,6,0,P|161:263|85:251,1,160,6|2,3:2|1:1,0:0:0:0:
34,172,86746,1,10,1:1:0:0:
91,96,87169,2,0,L|176:109,1,80,2|8,3:2|3:2,0:0:0:0:
252,57,88014,2,0,P|299:86|327:92,1,80,2|10,1:1|1:1,0:0:0:0:
418,99,88859,6,0,P|460:182|452:258,1,160,2|2,3:2|1:1,0:0:0:0:
377,303,90126,1,10,1:1:0:0:
284,278,90549,2,0,L|196:261,1,80,2|8,3:2|3:2,0:0:0:0:
136,330,91394,2,0,L|51:312,1,80,2|10,1:1|1:1,0:0:0:0:
29,274,92028,6,0,P|59:210|58:157,1,120,6|8,3:2|0:0,0:0:0:0:
32,69,93084,1,0,1:2:0:0:
125,48,93507,1,8,1:2:0:0:
151,139,93929,2,0,L|240:150,1,80,2|8,0:0|3:2,0:0:0:0:
291,222,94774,2,0,L|346:228,1,40,12|12,3:2|3:2,0:0:0:0:
