osu file format v14

[General]
AudioFilename: audio.mp3
AudioLeadIn: 0
PreviewTime: 58331
Countdown: 0
SampleSet: Soft
StackLeniency: 0.5
Mode: 0
LetterboxInBreaks: 0
WidescreenStoryboard: 1

[Editor]
Bookmarks: 972,7732,14493,21253,28014,34774,41535,48295,55056,58436,65197,71957,78718,85479,92239,95619
DistanceSpacing: 0.83
BeatDivisor: 8
GridSize: 16
TimelineZoom: 1.42

[Metadata]
Title:Clover (short ver.)
TitleUnicode:クローバー(short ver.)
Artist:Duca
ArtistUnicode:Duca
Creator:Kencho
Version:Clover
Source:your diary+H
Tags:KaedekaShizuru lukas [_l_u_k_a_s_] sahuang My Angel Azusa opening tv size Cuffs Cube eroge visual novel kantoku ANZE HIJIRI
BeatmapID:1414429
BeatmapSetID:668608

[Difficulty]
HPDrainRate:5.5
CircleSize:4
OverallDifficulty:7.3
ApproachRate:8.1
SliderMultiplier:1.6
SliderTickRate:1

[Events]
//Background and Video events
0,0,"BG3.jpg",0,0
Video,172,"video.avi"
//Break Periods
//Storyboard Layer 0 (Background)
//Storyboard Layer 1 (Fail)
//Storyboard Layer 2 (Pass)
//Storyboard Layer 3 (Foreground)
//Storyboard Sound Samples

[TimingPoints]
972,422.535211267606,4,2,1,30,1,0
972,-166.666666666667,4,2,1,30,0,0
3929,-166.666666666667,4,2,1,15,0,0
4352,-166.666666666667,4,2,1,40,0,0
4563,-166.666666666667,4,2,1,20,0,0
4774,-166.666666666667,4,2,1,40,0,0
6042,-100,4,2,1,70,0,0
7310,-83.3333333333333,4,2,1,75,0,0
7521,-83.3333333333333,4,2,1,80,0,0
7732,-83.3333333333333,4,2,1,75,0,0
12802,-83.3333333333333,4,2,1,70,0,0
14070,-83.3333333333333,4,2,1,75,0,0
14493,-100,4,2,1,60,0,0
28014,-100,4,2,1,65,0,0
41535,-125,4,2,1,50,0,0
44704,-125,4,2,1,30,0,0
44915,-125,4,2,1,50,0,0
45971,-125,4,2,1,30,0,0
46182,-125,4,2,1,50,0,0
48084,-125,4,2,1,30,0,0
48190,-125,4,2,1,50,0,0
48295,-100,4,2,1,60,0,0
49986,-100,4,2,1,65,0,0
51676,-100,4,2,1,70,0,0
53155,-100,4,2,1,30,0,0
53366,-100,4,2,1,70,0,0
54845,-100,4,2,1,75,0,0
56535,-100,4,2,1,80,0,0
56852,-100,4,2,1,50,0,0
57380,-100,4,2,1,70,0,0
57591,-83.3333333333333,4,2,1,70,0,0
58014,-71.4285714285714,4,2,1,80,0,0
58436,-83.3333333333333,4,2,1,80,0,1
71535,-83.3333333333333,4,2,1,85,0,1
71852,-83.3333333333333,4,2,1,85,0,0
71957,-83.3333333333333,4,2,1,80,0,1
85056,-83.3333333333333,4,2,1,85,0,1
85162,-83.3333333333333,4,2,1,55,0,1
85479,-100,4,2,1,70,0,0
92239,-100,4,2,1,60,0,0
94141,-100,4,2,1,70,0,0
94774,-100,4,2,1,80,0,0

[Colours]
Combo1 : 255,224,128
Combo2 : 255,160,192
Combo3 : 96,96,128
Combo4 : 255,144,64
Combo5 : 160,96,80
Combo6 : 64,144,64
Combo7 : 160,64,160

[HitObjects]
136,154,972,6,0,L|132:106,2,47.9999985351563,2|2|2,3:2|0:3|0:0,0:0:0:0:
143,234,1605,1,2,0:3:0:0:
208,188,1817,2,0,L|256:192,1,47.9999985351563,8|2,3:2|0:3,0:0:0:0:
321,238,2239,2,0,L|369:234,1,47.9999985351563,2|2,0:0|0:3,0:0:0:0:
376,154,2662,6,0,L|380:106,2,47.9999985351563,2|2|2,3:2|0:3|0:0,0:0:0:0:
369,234,3295,1,2,0:3:0:0:
304,188,3507,2,0,L|256:192,1,47.9999985351563,8|2,3:2|0:3,0:0:0:0:
191,238,3929,2,0,L|143:234,1,47.9999985351563,10|10,1:2|0:3,0:0:0:0:
136,154,4352,5,2,3:2:0:0:
187,92,4563,1,10,3:3:0:0:
267,85,4774,1,2,3:2:0:0:
328,136,4986,1,2,3:3:0:0:
335,216,5197,2,0,P|311:215|289:206,1,47.9999985351563,8|2,3:2|0:3,0:0:0:0:
400,170,5619,2,0,P|424:171|446:180,1,47.9999985351563,2|2,0:0|0:3,0:0:0:0:
335,216,6042,5,6,3:2:0:0:
393,90,6253,1,2,3:2:0:0:
472,204,6464,1,8,0:0:0:0:
328,136,6676,1,2,3:2:0:0:
465,124,6887,1,8,3:2:0:0:
407,250,7098,1,2,3:2:0:0:
407,250,7204,1,2,3:2:0:0:
407,250,7310,6,0,L|387:293,1,47.9999985351563,8|0,3:2|3:0,0:0:0:0:
311,257,7521,2,0,L|331:214,1,47.9999985351563,8|0,3:2|3:0,0:0:0:0:
373,127,7732,5,6,3:2:0:0:
236,222,7943,1,2,0:0:0:0:
387,293,8155,1,8,0:0:0:0:
277,135,8366,1,2,0:0:0:0:
277,135,8472,1,2,0:3:0:0:
277,135,8577,2,0,P|230:126|184:141,1,95.9999970703126,2|2,1:1|3:2,0:0:0:0:
331,213,9000,1,10,1:1:0:0:
373,127,9211,6,0,P|357:81|321:49,1,95.9999970703126,2|2,3:3|0:0,0:0:0:0:
331,213,9633,1,2,0:0:0:0:
469,118,9845,1,10,3:2:0:0:
277,135,10056,1,2,3:2:0:0:
277,135,10162,1,2,0:3:0:0:
277,135,10267,2,0,P|246:171|237:218,1,95.9999970703126,0|2,1:2|0:0,0:0:0:0:
373,127,10690,1,8,1:2:0:0:
318,48,10901,2,0,L|270:52,1,47.9999985351563,2|2,3:3|3:3,0:0:0:0:
190,59,11112,5,2,3:2:0:0:
373,127,11324,1,2,3:3:0:0:
397,125,11429,1,2,0:0:0:0:
421,123,11535,1,8,0:0:0:0:
236,222,11746,1,2,3:2:0:0:
212,220,11852,1,2,0:3:0:0:
188,218,11957,1,0,1:2:0:0:
314,287,12169,1,2,3:2:0:0:
229,131,12380,1,10,1:1:0:0:
195,309,12591,6,0,P|241:319|286:304,1,95.9999970703126,2|2,3:3|0:0,0:0:0:0:
314,287,12908,1,8,0:0:0:0:
314,287,13014,2,0,L|318:335,1,47.9999985351563,8|2,1:2|0:0,0:0:0:0:
236,222,13225,5,8,3:2:0:0:
236,222,13331,1,2,3:0:0:0:
236,222,13436,2,0,L|240:174,1,47.9999985351563,2|2,1:2|3:3,0:0:0:0:
286,304,13648,6,0,L|290:352,1,47.9999985351563,8|2,3:2|0:0,0:0:0:0:
208,239,13859,2,0,L|212:191,1,47.9999985351563,8|0,1:2|0:0,0:0:0:0:
88,298,14070,6,0,P|111:301|134:294,3,47.9999985351563,8|2|2|2,3:2|0:0|1:2|0:0,0:0:0:0:
105,218,14493,6,0,L|91:58,1,160,6|8,3:2|0:0,0:0:0:0:
174,10,15126,2,0,L|214:7,2,40,2|2|2,0:0|0:3|3:3,0:0:0:0:
261,83,15549,2,0,L|181:90,1,80,2|8,0:0|0:0,0:0:0:0:
333,38,15972,6,0,P|346:76|340:114,1,80,2|2,0:3|3:2,0:0:0:0:
227,156,16394,1,2,3:3:0:0:
215,17,16605,1,8,3:2:0:0:
273,222,16817,5,2,0:0:0:0:
147,163,17028,1,2,3:3:0:0:
261,83,17239,1,2,0:0:0:0:
193,229,17450,2,0,P|155:244|117:238,1,80,8|2,0:0|3:3,0:0:0:0:
68,175,17767,1,2,0:3:0:0:
68,175,17873,6,0,L|82:335,1,160,2|8,3:2|0:0,0:0:0:0:
193,229,18507,1,2,0:0:0:0:
154,83,18718,2,0,P|148:122|147:163,1,80,2|2,3:3|0:0,0:0:0:0:
272,324,19141,2,0,P|278:285|279:244,1,80,8|2,0:0|3:3,0:0:0:0:
102,229,19563,6,0,P|139:242|179:236,1,80,2|2,3:2|3:3,0:0:0:0:
324,178,19986,2,0,P|287:165|247:171,1,80,8|2,3:2|3:2,0:0:0:0:
235,311,20408,2,0,P|272:324|312:318,1,80,2|2,3:3|3:2,0:0:0:0:
457,260,20831,2,0,P|420:247|380:253,1,80,8|2,3:2|3:3,0:0:0:0:
412,326,21148,1,2,0:3:0:0:
412,326,21253,6,0,L|426:166,1,160,2|8,3:2|0:0,0:0:0:0:
436,47,21887,2,0,L|439:87,2,40,2|2|2,0:0|0:3|3:3,0:0:0:0:
364,115,22310,2,0,L|357:35,1,80,2|8,0:0|0:0,0:0:0:0:
409,187,22732,6,0,P|372:200|332:194,1,80,2|2,0:3|3:2,0:0:0:0:
291,81,23155,1,2,3:3:0:0:
364,115,23366,1,8,3:2:0:0:
211,97,23577,5,2,0:0:0:0:
345,21,23788,1,2,3:3:0:0:
281,161,24000,1,2,0:0:0:0:
250,10,24211,1,8,0:0:0:0:
364,115,24422,1,2,3:3:0:0:
211,97,24633,6,0,P|171:99|135:116,1,80,2|2,3:2|3:3,0:0:0:0:
87,186,25056,1,8,3:2:0:0:
65,68,25267,2,0,L|58:29,2,40,2|2|2,3:2|0:3|3:3,0:0:0:0:
87,186,25690,1,2,0:0:0:0:
135,116,25901,1,8,0:0:0:0:
17,138,26112,1,2,3:3:0:0:
17,138,26218,1,2,0:3:0:0:
17,138,26324,6,0,P|3:175|7:215,1,80,2|10,3:2|3:3,0:0:0:0:
94,299,26746,2,0,P|108:262|104:222,1,80,8|2,3:2|3:2,0:0:0:0:
87,186,27063,1,2,0:3:0:0:
87,186,27169,2,0,L|167:179,1,80,2|2,3:3|3:2,0:0:0:0:
337,236,27591,2,0,L|257:243,1,80,8|2,3:2|3:3,0:0:0:0:
192,197,27908,1,2,0:3:0:0:
192,197,28014,6,0,P|235:262|217:337,1,160,6|8,3:2|0:0,0:0:0:0:
100,286,28648,2,0,L|140:279,2,40,2|2|2,0:0|0:3|3:3,0:0:0:0:
192,197,29070,2,0,P|231:193|268:208,1,80,2|8,0:0|0:0,0:0:0:0:
113,184,29493,6,0,P|89:153|84:113,1,80,2|2,0:3|3:2,0:0:0:0:
215,60,29915,1,2,0:3:0:0:
164,122,30126,1,8,0:0:0:0:
136,47,30338,5,2,0:0:0:0:
243,136,30549,1,2,3:3:0:0:
113,184,30760,1,2,0:0:0:0:
294,74,30972,2,0,P|318:105|323:145,1,80,8|2,0:0|0:3,0:0:0:0:
271,212,31288,1,2,0:3:0:0:
271,212,31394,6,0,P|346:192|412:234,1,160,2|8,3:2|0:0,0:0:0:0:
236,303,32028,2,0,L|196:296,2,40,2|2|2,0:0|0:3|3:3,0:0:0:0:
312,362,32450,2,0,P|330:327|331:287,1,80,2|8,0:0|0:0,0:0:0:0:
290,137,32873,6,0,P|272:172|271:212,1,80,2|2,3:3|3:2,0:0:0:0:
381,94,33295,1,2,3:3:0:0:
226,58,33507,2,0,L|146:65,1,80,8|2,3:2|3:2,0:0:0:0:
78,211,33929,5,2,3:3:0:0:
192,131,34141,1,2,3:2:0:0:
67,72,34352,1,8,3:2:0:0:
192,131,34563,1,2,3:3:0:0:
208,139,34669,1,2,0:3:0:0:
224,147,34774,6,0,P|263:154|300:141,1,80,2|2,3:2|0:3,0:0:0:0:
379,86,35197,1,8,0:0:0:0:
308,237,35408,1,2,3:2:0:0:
308,237,35831,5,2,3:2:0:0:
300,141,36042,1,8,3:2:0:0:
395,278,36253,1,2,0:3:0:0:
395,278,36359,1,2,0:3:0:0:
395,278,36464,6,0,P|434:285|471:272,1,80,2|2,3:2|0:3,0:0:0:0:
381,139,36887,1,8,0:0:0:0:
381,139,37098,2,0,P|355:169|348:207,1,80,2|2,3:2|0:3,0:0:0:0:
395,278,37521,1,2,3:2:0:0:
504,198,37732,2,0,P|465:191|428:204,1,80,8|2,3:2|0:3,0:0:0:0:
315,282,38155,6,0,L|235:275,1,80,2|2,3:2|0:3,0:0:0:0:
249,116,38577,1,8,0:0:0:0:
322,202,38788,1,2,0:0:0:0:
163,188,39000,2,0,L|83:181,1,80,2|2,0:3|0:0,0:0:0:0:
249,116,39422,1,8,0:0:0:0:
235,275,39633,6,0,P|202:296|160:302,1,80,2|2,3:2|0:3,0:0:0:0:
242,195,40056,1,2,0:0:0:0:
315,282,40267,1,8,0:0:0:0:
163,188,40479,1,2,0:0:0:0:
163,188,40584,1,8,0:0:0:0:
163,188,40690,1,4,3:2:0:0:
322,202,40901,1,2,0:0:0:0:
156,268,41112,2,0,P|137:266|119:255,3,40,12|2|2|2,3:2|0:0|0:0|0:0,0:0:0:0:
228,234,41535,5,6,3:2:0:0:
293,280,41746,2,0,L|357:274,2,64,2|2|2,0:3|0:3|0:0,0:0:0:0:
422,228,42380,1,8,0:0:0:0:
429,308,42591,1,2,0:3:0:0:
357,274,42802,1,2,0:0:0:0:
350,194,43014,1,2,0:0:0:0:
415,148,43225,6,0,P|446:150|474:167,1,64,2|8,3:2|0:0,0:0:0:0:
350,194,43648,2,0,P|336:166|337:134,1,64,2|2,3:2|3:3,0:0:0:0:
422,228,44070,1,8,3:2:0:0:
357,274,44281,1,2,3:3:0:0:
285,240,44493,1,2,3:2:0:0:
350,194,44704,1,6,0:3:0:0:
292,320,44915,5,2,3:2:0:0:
220,286,45126,2,0,L|156:280,2,64,2|2|2,0:3|0:3|0:0,0:0:0:0:
91,234,45760,1,8,0:0:0:0:
84,314,45972,1,4,0:3:0:0:
156,280,46183,1,2,3:2:0:0:
163,200,46394,1,2,0:0:0:0:
98,154,46605,6,0,P|67:156|40:173,1,64,2|8,3:2|0:0,0:0:0:0:
163,200,47028,1,2,3:2:0:0:
170,120,47239,1,2,0:3:0:0:
91,234,47450,1,8,3:2:0:0:
227,246,47662,1,8,0:0:0:0:
98,154,47873,1,2,3:2:0:0:
84,314,48084,1,6,0:3:0:0:
84,314,48190,1,2,0:3:0:0:
84,314,48295,6,0,P|123:308|154:283,1,80,6|2,3:2|0:3,0:0:0:0:
181,191,48718,1,8,3:2:0:0:
282,255,48929,1,2,0:0:0:0:
282,255,49035,1,2,3:3:0:0:
282,255,49141,2,0,L|289:335,1,80,2|2,1:1|0:0,0:0:0:0:
181,191,49563,2,0,L|174:111,1,80,8|2,3:2|0:3,0:0:0:0:
250,104,49880,1,2,0:3:0:0:
250,104,49986,6,0,P|213:117|174:111,1,80,6|2,3:2|0:3,0:0:0:0:
284,31,50408,1,8,3:2:0:0:
296,170,50619,2,0,L|299:210,2,40,2|2|2,0:0|0:3|1:1,0:0:0:0:
250,104,51042,1,2,0:0:0:0:
330,97,51253,1,8,3:2:0:0:
216,177,51464,1,2,0:0:0:0:
216,177,51570,1,2,0:3:0:0:
216,177,51676,5,6,3:2:0:0:
250,104,51887,1,2,0:3:0:0:
222,257,52098,1,8,0:0:0:0:
170,111,52310,2,0,L|167:71,2,40,2|2|2,3:2|0:3|1:1,0:0:0:0:
216,177,52732,1,2,0:0:0:0:
136,184,52943,1,8,3:2:0:0:
222,257,53155,6,0,P|260:245|286:216,1,80,6|2,3:3|0:0,0:0:0:0:
277,54,53577,2,0,P|268:93|281:130,1,80,2|8,0:3|0:0,0:0:0:0:
424,204,54000,1,2,0:0:0:0:
424,204,54105,1,2,0:3:0:0:
424,204,54211,2,0,P|395:177|357:169,1,80,0|2,1:0|0:0,0:0:0:0:
286,216,54633,1,8,0:0:0:0:
424,204,54845,6,0,L|504:197,1,80,6|2,3:3|3:2,0:0:0:0:
373,289,55267,1,2,3:3:0:0:
359,130,55479,1,8,3:2:0:0:
293,296,55690,1,2,3:2:0:0:
275,97,55901,1,2,3:2:0:0:
213,303,56112,1,2,3:2:0:0:
192,64,56324,1,8,0:0:0:0:
133,310,56535,5,6,3:3:0:0:
331,224,56746,1,8,3:2:0:0:
359,252,56852,1,8,0:0:0:0:
373,289,56957,1,10,3:3:0:0:
367,328,57063,1,8,0:0:0:0:
344,360,57169,6,0,L|424:353,1,80,8|2,3:2|3:2,0:0:0:0:
293,296,57486,1,2,0:3:0:0:
293,296,57591,6,0,L|245:300,3,47.9999985351563,2|2|2|2,1:2|0:0|0:0|0:0,0:0:0:0:
172,373,58014,6,0,L|144:370,6,27.9999991455078,12|0|0|0|0|0|0,3:2|0:0|3:0|0:0|3:0|0:0|3:0,0:0:0:0:
252,380,58436,5,6,1:2:0:0:
165,293,58648,2,0,L|161:245,1,47.9999985351563,2|2,0:3|0:0,0:0:0:0:
154,165,58859,2,0,P|108:158|70:128,1,95.9999970703126,8|2,1:2|0:0,0:0:0:0:
233,110,59281,2,0,P|239:158|241:206,1,95.9999970703126,0|2,1:2|3:2,0:0:0:0:
146,70,59704,1,10,1:1:0:0:
320,151,59915,1,2,3:2:0:0:
162,261,60126,6,0,P|156:213|154:165,1,95.9999970703126,2|2,1:2|3:3,0:0:0:0:
134,178,60443,1,2,0:0:0:0:
114,191,60549,1,8,1:2:0:0:
233,110,60760,2,0,L|260:149,1,47.9999985351563,2|2,3:2|0:3,0:0:0:0:
306,215,60972,2,0,P|258:221|210:223,1,95.9999970703126,0|2,1:2|3:2,0:0:0:0:
348,129,61394,1,10,1:1:0:0:
362,295,61605,1,2,0:0:0:0:
210,223,61817,5,2,1:2:0:0:
251,330,62028,2,0,L|272:286,1,47.9999985351563,2|2,3:3|0:0,0:0:0:0:
306,215,62239,1,8,1:2:0:0:
164,157,62450,1,2,0:0:0:0:
164,157,62556,1,2,0:3:0:0:
164,157,62662,2,0,P|135:195|132:242,1,95.9999970703126,2|2,1:1|0:0,0:0:0:0:
260,149,63084,1,10,1:1:0:0:
110,78,63295,1,2,3:2:0:0:
306,215,63507,6,0,P|335:177|338:130,1,95.9999970703126,2|2,1:2|0:3,0:0:0:0:
319,52,63824,1,2,0:0:0:0:
319,52,63929,2,0,P|357:81|404:84,1,95.9999970703126,10|2,1:1|0:0,0:0:0:0:
470,38,64352,1,2,1:1:0:0:
423,162,64563,1,2,0:0:0:0:
385,6,64774,1,10,1:1:0:0:
338,130,64986,2,0,L|290:126,1,47.9999985351563,2|2,0:0|0:3,0:0:0:0:
210,119,65197,6,0,P|244:151|253:197,1,95.9999970703126,2|2,1:2|0:3,0:0:0:0:
242,236,65514,1,2,0:0:0:0:
242,236,65619,1,10,1:1:0:0:
126,194,65831,2,0,L|174:190,2,47.9999985351563,2|2|2,3:2|0:3|1:1,0:0:0:0:
92,267,66253,1,2,0:0:0:0:
80,128,66464,1,10,1:1:0:0:
174,190,66676,2,0,L|126:194,1,47.9999985351563,2|2,3:2|0:3,0:0:0:0:
46,201,66887,5,2,1:2:0:0:
160,121,67098,1,2,0:3:0:0:
160,121,67204,1,2,0:0:0:0:
160,121,67310,1,10,1:1:0:0:
92,267,67521,1,2,3:2:0:0:
206,187,67732,2,0,P|254:186|293:214,1,95.9999970703126,2|2,1:1|3:2,0:0:0:0:
172,260,68155,1,10,1:1:0:0:
84,176,68366,2,0,L|80:128,1,47.9999985351563,2|2,0:0|0:3,0:0:0:0:
114,55,68577,6,0,P|153:82|200:81,1,95.9999970703126,2|2,1:2|0:3,0:0:0:0:
217,63,68894,1,2,0:0:0:0:
233,45,69000,1,8,1:2:0:0:
320,86,69211,2,0,L|368:82,2,47.9999985351563,2|2|2,0:0|3:3|1:1,0:0:0:0:
241,141,69633,1,2,0:0:0:0:
328,182,69845,1,8,1:2:0:0:
233,45,70056,1,2,0:0:0:0:
162,196,70267,5,2,1:2:0:0:
189,196,70373,1,8,0:0:0:0:
214,186,70479,1,2,0:3:0:0:
232,167,70584,1,2,0:0:0:0:
241,141,70690,1,10,1:1:0:0:
75,155,70901,5,2,3:2:0:0:
75,155,71007,1,2,0:3:0:0:
75,155,71112,1,2,1:2:0:0:
170,292,71324,1,2,3:2:0:0:
154,100,71535,5,14,1:1:0:0:
151,60,71641,1,8,0:0:0:0:
148,20,71746,1,2,0:0:0:0:
83,251,71957,5,6,1:2:0:0:
162,196,72169,2,0,L|210:200,1,47.9999985351563,2|2,0:3|0:0,0:0:0:0:
290,207,72380,2,0,P|282:160|297:115,1,95.9999970703126,10|2,1:1|0:0,0:0:0:0:
368,265,72802,2,0,P|331:296|284:305,1,95.9999970703126,2|2,1:1|0:0,0:0:0:0:
378,168,73225,1,10,1:1:0:0:
358,361,73436,1,2,3:2:0:0:
202,246,73648,6,0,P|194:199|210:154,1,95.9999970703126,2|2,1:2|0:3,0:0:0:0:
186,156,73964,1,2,0:0:0:0:
162,158,74070,1,10,1:1:0:0:
290,207,74281,2,0,L|338:203,1,47.9999985351563,2|2,3:2|0:3,0:0:0:0:
418,196,74493,1,2,1:1:0:0:
282,304,74704,1,2,0:0:0:0:
282,304,74810,1,0,3:2:0:0:
282,304,74915,1,10,1:1:0:0:
298,112,75126,1,2,3:2:0:0:
368,265,75338,6,0,P|376:312|360:357,1,95.9999970703126,2|2,1:2|3:3,0:0:0:0:
384,355,75655,1,2,0:0:0:0:
408,353,75760,1,8,1:2:0:0:
290,207,75972,2,0,L|242:211,1,47.9999985351563,2|2,0:0|0:3,0:0:0:0:
162,218,76183,1,2,1:1:0:0:
208,284,76394,1,2,3:2:0:0:
196,145,76605,1,10,1:1:0:0:
82,225,76817,1,2,3:2:0:0:
242,211,77028,6,0,P|271:174|274:126,1,95.9999970703126,2|2,1:2|3:3,0:0:0:0:
219,67,77345,1,2,0:0:0:0:
219,67,77450,2,0,P|262:46|308:53,1,95.9999970703126,10|2,1:1|0:0,0:0:0:0:
219,288,77873,2,0,P|178:260|162:218,1,95.9999970703126,2|2,1:1|0:0,0:0:0:0:
412,178,78295,2,0,P|408:227|380:262,1,95.9999970703126,10|2,1:1|0:0,0:0:0:0:
242,211,78718,6,0,L|226:116,1,95.9999970703126,6|2,1:2|3:3,0:0:0:0:
219,77,79035,1,2,3:2:0:0:
219,77,79141,1,8,1:2:0:0:
352,107,79352,2,0,L|400:99,2,47.9999985351563,2|2|2,3:2|0:3|1:1,0:0:0:0:
492,189,79774,2,0,L|484:141,1,47.9999985351563,2|0,0:0|3:2,0:0:0:0:
471,62,79986,1,8,1:2:0:0:
412,178,80197,2,0,L|364:186,1,47.9999985351563,2|2,3:2|0:3,0:0:0:0:
293,223,80408,6,0,L|198:207,1,95.9999970703126,2|2,1:2|3:3,0:0:0:0:
159,200,80725,1,2,0:0:0:0:
159,200,80831,1,10,1:1:0:0:
272,96,81042,2,0,L|280:144,2,47.9999985351563,2|2|2,0:0|0:3|1:1,0:0:0:0:
259,17,81464,1,2,0:0:0:0:
334,45,81676,1,8,1:2:0:0:
197,68,81887,2,0,L|149:76,1,47.9999985351563,2|2,0:0|0:3,0:0:0:0:
70,89,82098,5,2,1:2:0:0:
91,216,82310,1,2,3:3:0:0:
91,216,82415,1,2,0:0:0:0:
91,216,82521,1,8,1:2:0:0:
218,195,82732,2,0,L|210:147,1,47.9999985351563,2|2,3:2|0:3,0:0:0:0:
197,68,82943,5,2,1:1:0:0:
231,274,83155,1,2,3:2:0:0:
267,97,83366,1,10,1:1:0:0:
161,245,83577,1,2,0:0:0:0:
337,126,83788,5,2,1:2:0:0:
91,216,84000,2,0,L|83:168,1,47.9999985351563,10|2,3:3|0:0,0:0:0:0:
70,89,84211,5,8,1:2:0:0:
231,274,84422,1,2,0:0:0:0:
91,216,84633,5,2,1:2:0:0:
61,221,84739,1,8,0:0:0:0:
31,226,84845,1,2,0:0:0:0:
210,147,85056,5,10,1:1:0:0:
250,141,85162,1,8,0:0:0:0:
290,135,85267,1,8,0:0:0:0:
164,224,85479,6,0,P|121:160|144:86,1,160,6|8,3:2|3:2,0:0:0:0:
329,129,86112,2,0,L|290:135,1,40,2|2,3:2|0:3,0:0:0:0:
210,147,86324,1,2,1:1:0:0:
240,72,86535,1,2,3:2:0:0:
260,210,86746,1,10,1:1:0:0:
131,159,86957,1,2,3:2:0:0:
290,135,87169,5,2,3:2:0:0:
131,159,87380,2,0,L|137:198,1,40,2|2,3:3|0:0,0:0:0:0:
198,251,87591,2,0,P|203:290|187:326,1,80,8|2,3:2|3:2,0:0:0:0:
123,278,88014,1,2,1:1:0:0:
273,224,88225,1,2,3:2:0:0:
212,171,88436,2,0,P|207:132|223:96,1,80,10|2,1:1|3:2,0:0:0:0:
338,178,88859,6,0,P|353:215|347:254,1,80,2|2,3:2|3:3,0:0:0:0:
323,286,89176,1,2,0:0:0:0:
323,286,89281,1,8,3:2:0:0:
154,242,89493,2,0,L|193:236,1,40,2|0,3:2|0:0,0:0:0:0:
273,224,89704,1,2,1:1:0:0:
243,299,89915,1,2,3:2:0:0:
223,161,90126,1,10,1:1:0:0:
352,212,90338,1,2,3:2:0:0:
193,235,90549,5,2,3:2:0:0:
352,212,90760,2,0,L|346:173,1,40,2|2,3:3|0:0,0:0:0:0:
285,120,90972,2,0,P|280:81|296:45,1,80,8|2,3:2|3:2,0:0:0:0:
360,93,91394,1,2,1:1:0:0:
210,147,91605,1,2,3:2:0:0:
346,172,91817,1,10,1:1:0:0:
224,68,92028,1,6,3:2:0:0:
346,172,92239,6,0,P|362:209|359:248,1,80,2|2,0:0|0:3,0:0:0:0:
336,280,92556,1,2,0:0:0:0:
336,280,92662,2,0,P|333:319|349:356,1,80,8|2,0:0|0:0,0:0:0:0:
282,222,93084,2,0,L|203:235,1,80,0|0,1:2|0:0,0:0:0:0:
412,306,93507,2,0,L|491:293,1,80,8|2,1:2|0:3,0:0:0:0:
346,172,93929,5,2,0:0:0:0:
282,222,94141,1,2,3:2:0:0:
276,227,94246,1,2,3:2:0:0:
270,232,94352,2,0,L|231:226,1,40,8|2,3:2|3:2,0:0:0:0:
173,170,94563,2,0,L|134:164,1,40,2|2,3:2|3:2,0:0:0:0:
153,283,94774,5,12,3:2:0:0:
250,113,94986,1,12,3:2:0:0:
