osu file format v14

[General]
AudioFilename: audio.mp3
AudioLeadIn: 0
PreviewTime: 58331
Countdown: 0
SampleSet: Soft
StackLeniency: 0.5
Mode: 0
LetterboxInBreaks: 0
WidescreenStoryboard: 1

[Editor]
Bookmarks: 972,7732,14493,20408,21253,28014,41535,48295,55056,58436,65197,71957,78718,85479,92239,95619
DistanceSpacing: 1.1
BeatDivisor: 2
GridSize: 4
TimelineZoom: 2.019999

[Metadata]
Title:Clover (Short Ver.)
TitleUnicode:クローバー (Short Ver.)
Artist:Duca
ArtistUnicode:Duca
Creator:Anze
Version:Normal
Source:your diary+H
Tags:Cellina visual eroge novel opening anze hijiri cube cuffs video game op japanese pop jpop j-pop galge female vocal your's sound diary 安瀬 聖 ショートver.
BeatmapID:2837007
BeatmapSetID:1370434

[Difficulty]
HPDrainRate:3.5
CircleSize:3
OverallDifficulty:4
ApproachRate:5
SliderMultiplier:1.5
SliderTickRate:1

[Events]
//Background and Video events
0,0,"duca.jpg",0,0
//Break Periods
//Storyboard Layer 0 (Background)
//Storyboard Layer 1 (Fail)
//Storyboard Layer 2 (Pass)
//Storyboard Layer 3 (Foreground)
//Storyboard Layer 4 (Overlay)
//Storyboard Sound Samples

[TimingPoints]
972,422.535211267606,4,2,1,30,1,0
972,-142.857142857143,4,2,1,30,0,0
6042,-111.111111111111,4,2,1,70,0,0
14493,-117.647058823529,4,2,1,60,0,0
41535,-142.857142857143,4,2,1,50,0,0
48295,-117.647058823529,4,2,1,60,0,0
51676,-117.647058823529,4,2,1,65,0,0
54845,-117.647058823529,4,2,1,75,0,0
58014,-117.647058823529,4,2,1,75,0,0
58074,-117.647058823529,4,2,1,45,0,0
58436,-100,4,2,1,85,0,1
71852,-100,4,2,1,85,0,0
71957,-100,4,2,1,85,0,1
85479,-111.111111111111,4,2,1,70,0,0
92239,-111.111111111111,4,2,1,55,0,0
94774,-111.111111111111,4,2,1,65,0,0

[Colours]
Combo1 : 255,191,223
Combo2 : 249,254,186
Combo3 : 240,80,80
Combo4 : 248,211,171

[HitObjects]
495,315,972,6,0,B|453:285|406:307|406:307|390:326|390:326|344:348|300:317,1,209.999993591309,2|10,3:2|0:0,0:0:0:0:
52,335,2662,2,0,P|8:231|110:182,1,209.999993591309,2|10,3:2|0:0,0:0:0:0:
261,13,4352,2,0,L|246:222,1,209.999993591309,2|8,3:2|0:0,0:0:0:0:
123,200,5619,1,2,3:2:0:0:
140,325,6042,6,0,P|170:337|203:331,1,67.4999979400635,6|0,3:2|0:0,0:0:0:0:
267,281,6464,2,0,P|297:277|334:302,1,67.4999979400635,10|0,0:0|0:0,0:0:0:0:
377,360,6887,2,0,L|387:225,1,134.999995880127,10|10,0:0|0:0,0:0:0:0:
489,99,7732,6,0,P|460:41|396:41,1,134.999995880127,6|8,0:0|0:0,0:0:0:0:
318,18,8366,1,2,0:0:0:0:
258,73,8577,2,0,L|250:149,2,67.4999979400635,2|2|8,3:2|0:0|0:0,0:0:0:0:
184,37,9211,1,2,0:0:0:0:
24,62,9633,6,0,P|8:96|15:145,1,67.4999979400635,2|8,0:0|0:0,0:0:0:0:
87,147,10056,2,0,B|107:184|107:184|89:280,1,134.999995880127,2|2,0:0|0:0,0:0:0:0:
17,312,10690,1,8,0:0:0:0:
181,337,11112,5,2,3:2:0:0:
181,337,11324,2,0,L|251:347,1,67.4999979400635,2|8,0:0|0:0,0:0:0:0:
307,291,11746,2,0,P|335:348|399:348,1,134.999995880127,2|2,0:0|0:0,0:0:0:0:
475,319,12380,1,8,0:0:0:0:
439,246,12591,6,0,P|449:179|461:112,1,134.999995880127,2|8,3:2|0:0,0:0:0:0:
380,101,13225,2,0,L|366:170,1,67.4999979400635,8|2,0:0|3:2,0:0:0:0:
301,215,13648,2,0,B|221:194|221:194|198:203|198:239,1,134.999995880127,8|8,0:0|3:2,0:0:0:0:
96,361,14493,6,0,L|82:231,1,127.50000243187,6|10,3:2|0:0,0:0:0:0:
12,195,15126,2,0,L|19:132,1,63.7500012159348,2|2,0:0|3:2,0:0:0:0:
95,108,15549,2,0,L|83:39,1,63.7500012159348,2|8,0:0|0:0,0:0:0:0:
159,18,15972,1,2,0:0:0:0:
159,18,16183,6,0,P|214:39|284:28,1,127.50000243187,2|8,3:2|0:0,0:0:0:0:
438,52,17028,2,0,L|513:58,2,63.7500012159348,0|2|10,3:2|0:0|0:0,0:0:0:0:
329,168,17873,6,0,L|192:157,1,127.50000243187,2|8,3:2|0:0,0:0:0:0:
143,102,18507,1,2,0:0:0:0:
68,130,18718,2,0,P|26:172|39:235,1,127.50000243187,2|8,3:2|0:0,0:0:0:0:
131,363,19563,6,0,L|193:349,1,63.7500012159348,0|2,3:2|0:0,0:0:0:0:
219,273,19986,2,0,L|281:287,1,63.7500012159348,8|2,0:0|0:0,0:0:0:0:
340,340,20408,2,0,P|402:330|461:351,1,127.50000243187,0|8,3:2|0:0,0:0:0:0:
483,193,21253,6,0,L|497:64,1,127.50000243187,2|10,3:2|0:0,0:0:0:0:
432,19,21886,2,0,L|369:10,1,63.7500012159348,2|2,0:0|3:2,0:0:0:0:
340,84,22309,2,0,L|276:94,1,63.7500012159348,2|8,0:0|0:0,0:0:0:0:
267,176,22732,1,2,0:0:0:0:
267,176,22943,6,0,P|211:154|144:163,1,127.50000243187,2|8,3:2|0:0,0:0:0:0:
15,72,23788,2,0,L|20:-1,2,63.7500012159348,0|2|10,3:2|0:0|0:0,0:0:0:0:
4,151,24422,1,2,0:0:0:0:
36,223,24633,6,0,P|60:235|97:233,1,63.7500012159348,2|2,3:2|0:0,0:0:0:0:
148,172,25056,2,0,P|172:160|209:162,1,63.7500012159348,8|2,0:0|0:0,0:0:0:0:
366,143,25690,2,0,L|372:80,2,63.7500012159348,2|10|2,0:0|0:0|0:0,0:0:0:0:
425,198,26324,6,0,P|453:184|485:187,1,63.7500012159348,2|8,3:2|0:0,0:0:0:0:
466,265,26746,2,0,L|460:328,1,63.7500012159348,8|2,0:0|3:2,0:0:0:0:
382,307,27169,2,0,L|253:321,1,127.50000243187,0|8,3:2|3:2,0:0:0:0:
97,344,28014,6,0,P|84:284|126:240,1,127.50000243187,2|10,3:2|0:0,0:0:0:0:
164,169,28647,2,0,L|227:176,1,63.7500012159348,2|2,0:0|3:2,0:0:0:0:
306,184,29070,1,2,0:0:0:0:
229,44,29493,1,2,0:0:0:0:
304,17,29704,2,0,L|430:30,1,127.50000243187,2|8,3:2|0:0,0:0:0:0:
499,174,30549,2,0,L|489:241,2,63.7500012159348,2|0|10,3:2|0:0|0:0,0:0:0:0:
341,182,31394,6,0,P|285:160|218:169,1,127.50000243187,2|10,3:2|0:0,0:0:0:0:
167,228,32028,2,0,L|100:240,1,63.7500012159348,2|2,0:0|3:2,0:0:0:0:
51,179,32450,1,2,0:0:0:0:
46,337,32873,1,2,0:0:0:0:
125,328,33084,2,0,P|187:319|246:341,1,127.50000243187,2|8,3:2|0:0,0:0:0:0:
380,254,33929,2,0,L|386:190,2,63.7500012159348,2|2|10,3:2|0:0|0:0,0:0:0:0:
375,334,34563,6,0,L|501:320,1,127.50000243187,2|2,0:0|0:0,0:0:0:0:
493,240,35197,1,10,0:0:0:0:
484,160,35408,1,2,0:0:0:0:
385,34,35831,2,0,L|365:139,1,63.7500012159348,2|8,0:0|0:0,0:0:0:0:
312,147,36253,6,0,P|252:160|208:118,1,127.50000243187,2|2,0:0|0:0,0:0:0:0:
167,48,36887,1,10,0:0:0:0:
88,36,37098,2,0,L|74:162,1,127.50000243187,2|2,0:0|0:0,0:0:0:0:
63,242,37732,1,10,0:0:0:0:
182,348,38155,6,0,P|241:360|285:318,1,127.50000243187,2|8,3:2|0:0,0:0:0:0:
304,240,38788,2,0,L|430:253,1,127.50000243187,2|0,0:0|0:0,0:0:0:0:
488,198,39422,1,8,0:0:0:0:
488,118,39633,6,0,P|443:75|384:88,1,127.50000243187,2|2,0:0|0:0,0:0:0:0:
313,50,40267,2,0,L|305:117,1,63.7500012159348,8|2,0:0|0:0,0:0:0:0:
230,141,40690,1,2,3:2:0:0:
129,17,41112,1,8,0:0:0:0:
120,180,41535,6,0,B|80:207|80:207|45:371,2,209.999993591309,6|8|0,3:2|0:0|3:2,0:0:0:0:
197,212,43436,2,0,L|248:202,1,52.4999983978272,8|0,0:0|0:0,0:0:0:0:
353,333,44070,2,0,L|470:357,1,104.999996795654,8|0,0:0|0:0,0:0:0:0:
490,178,44915,6,0,B|510:60|510:60|473:12|409:40,2,209.999993591309,6|8|0,3:2|0:0|3:2,0:0:0:0:
414,215,46817,2,0,L|407:162,1,52.4999983978272,8|0,0:0|3:2,0:0:0:0:
260,76,47450,2,0,L|266:23,2,52.4999983978272,8|8|2,0:0|0:0|0:0,0:0:0:0:
176,88,48084,1,2,0:0:0:0:
195,170,48295,6,0,L|185:304,1,127.50000243187,6|8,0:0|0:0,0:0:0:0:
36,354,49141,2,0,L|45:226,1,127.50000243187,2|10,3:2|0:0,0:0:0:0:
55,67,49986,6,0,P|99:24|158:37,1,127.50000243187,2|10,3:2|0:0,0:0:0:0:
218,89,50619,2,0,L|368:106,1,127.50000243187,2|2,0:0|0:0,0:0:0:0:
406,52,51253,1,8,0:0:0:0:
482,191,51676,6,0,L|469:320,1,127.50000243187,2|10,3:2|0:0,0:0:0:0:
395,349,52310,1,2,0:0:0:0:
245,351,52732,2,0,L|235:287,1,63.7500012159348,2|10,0:0|0:0,0:0:0:0:
258,210,53155,2,0,P|270:146|281:8,1,191.250003647804,2|8,0:0|0:0,0:0:0:0:
201,28,54000,2,0,L|134:19,2,63.7500012159348,2|2|2,0:0|3:2|0:0,0:0:0:0:
193,107,54633,1,10,0:0:0:0:
121,143,54845,6,0,P|131:205|138:269,1,127.50000243187,4|2,0:0|0:0,0:0:0:0:
175,340,55479,2,0,L|241:348,1,63.7500012159348,10|0,0:0|0:0,0:0:0:0:
283,282,55901,2,0,L|346:273,1,63.7500012159348,2|2,3:2|0:0,0:0:0:0:
485,350,56535,6,0,P|492:286|502:223,1,127.50000243187,2|2,0:0|3:2,0:0:0:0:
462,154,57169,2,0,L|398:162,1,63.7500012159348,8|2,0:0|0:0,0:0:0:0:
357,95,57591,2,0,P|305:61|249:85,1,127.50000243187,2|8,3:2|0:0,0:0:0:0:
96,20,58436,6,0,P|81:54|71:90,1,75,6|2,0:0|0:0,0:0:0:0:
111,162,58859,2,0,P|123:197|132:233,1,75,10|0,0:0|0:0,0:0:0:0:
69,287,59281,1,2,3:2:0:0:
225,340,59704,2,0,L|302:316,1,75,10|2,0:0|0:0,0:0:0:0:
372,348,60126,6,0,P|386:274|404:201,1,150,2|10,3:2|0:0,0:0:0:0:
459,140,60760,1,2,0:0:0:0:
425,64,60972,1,2,3:2:0:0:
262,35,61394,2,0,P|227:49|191:59,1,75,10|2,0:0|0:0,0:0:0:0:
122,13,61817,6,0,P|61:52|58:124,1,150,2|10,3:2|0:0,0:0:0:0:
130,166,62450,2,0,L|211:172,1,75,2|2,0:0|3:2,0:0:0:0:
355,239,63084,2,0,P|340:273|330:309,1,75,10|2,0:0|0:0,0:0:0:0:
250,332,63507,6,0,P|324:342|397:359,2,150,2|10|2,3:2|0:0|3:2,0:0:0:0:
170,352,64563,1,2,0:0:0:0:
100,307,64774,2,0,L|88:224,1,75,10|2,0:0|0:0,0:0:0:0:
39,166,65197,6,0,P|41:93|102:54,1,150,2|8,3:2|0:0,0:0:0:0:
183,71,65831,2,0,L|175:157,1,75,2|2,0:0|3:2,0:0:0:0:
336,108,66464,2,0,P|370:93|406:83,1,75,10|2,0:0|0:0,0:0:0:0:
462,22,66887,6,0,L|450:171,1,150,2|8,3:2|0:0,0:0:0:0:
389,227,67521,2,0,P|297:203|226:171,1,150,2|0,0:0|0:0,0:0:0:0:
209,107,68155,1,10,0:0:0:0:
74,202,68577,6,0,P|146:204|185:265,1,150,2|10,3:2|0:0,0:0:0:0:
133,329,69211,2,0,P|199:293|272:277,1,150,2|2,0:0|0:0,0:0:0:0:
332,333,69845,1,8,0:0:0:0:
486,278,70267,6,0,P|494:314|498:351,2,75,2|2|8,3:2|0:0|0:0,0:0:0:0:
411,241,70901,2,0,P|338:238|299:177,1,150,2|2,3:2|0:0,0:0:0:0:
342,107,71535,1,10,0:0:0:0:
199,24,71957,6,0,P|164:38|128:48,1,75,6|2,0:0|0:0,0:0:0:0:
102,127,72380,2,0,P|66:114|30:105,1,75,10|0,0:0|0:0,0:0:0:0:
4,184,72802,1,2,3:2:0:0:
77,331,73225,2,0,L|154:307,1,75,10|2,0:0|0:0,0:0:0:0:
230,307,73647,6,0,P|302:324|376:339,1,150,2|10,3:2|0:0,0:0:0:0:
458,331,74281,1,2,0:0:0:0:
411,262,74493,1,2,3:2:0:0:
469,107,74915,2,0,L|437:20,1,75,10|2,0:0|0:0,0:0:0:0:
360,36,75338,6,0,P|299:75|296:147,1,150,2|10,3:2|0:0,0:0:0:0:
218,175,75971,2,0,L|143:169,1,75,2|2,0:0|3:2,0:0:0:0:
61,25,76605,2,0,P|46:59|36:95,1,75,10|2,0:0|0:0,0:0:0:0:
34,178,77028,6,0,P|50:251|61:325,2,150,2|10|2,3:2|0:0|3:2,0:0:0:0:
174,263,78295,2,0,L|248:268,1,75,10|2,0:0|0:0,0:0:0:0:
314,318,78718,6,0,P|386:315|425:254,1,150,2|8,3:2|0:0,0:0:0:0:
411,173,79352,1,2,0:0:0:0:
482,132,79563,1,2,3:2:0:0:
327,74,79986,2,0,P|299:80|248:87,1,75,8|2,0:0|0:0,0:0:0:0:
221,162,80408,6,0,P|206:235|188:308,1,150,2|8,3:2|0:0,0:0:0:0:
265,340,81042,2,0,P|337:337|376:276,1,150,2|0,0:0|0:0,0:0:0:0:
455,249,81676,2,0,L|467:166,1,75,8|2,0:0|0:0,0:0:0:0:
456,92,82098,5,2,3:2:0:0:
295,51,82521,2,0,L|205:38,1,75,8|2,0:0|0:0,0:0:0:0:
224,123,82943,2,0,L|141:164,1,75,2|0,3:2|0:0,0:0:0:0:
215,216,83366,2,0,L|186:313,1,75,8|2,0:0|0:0,0:0:0:0:
117,319,83788,6,0,P|82:304|46:294,2,75,2|8|8,3:2|0:0|0:0,0:0:0:0:
280,343,84633,2,0,P|353:326|427:315,1,150,2|10,3:2|0:0,0:0:0:0:
486,164,85479,6,0,P|403:149|355:209,1,134.999995880127,4|8,0:0|0:0,0:0:0:0:
295,214,86112,1,2,0:0:0:0:
244,277,86324,2,0,P|210:275|178:264,1,67.4999979400635,2|2,3:2|0:0,0:0:0:0:
116,316,86746,1,8,0:0:0:0:
29,178,87169,6,0,P|54:81|76:-11,1,134.999995880127,2|8,3:2|0:0,0:0:0:0:
207,119,88014,2,0,P|235:123|274:127,1,67.4999979400635,2|2,3:2|0:0,0:0:0:0:
326,65,88436,2,0,P|355:61|395:54,1,67.4999979400635,8|2,0:0|0:0,0:0:0:0:
457,103,88859,6,0,P|477:165|443:221,1,134.999995880127,2|8,3:2|0:0,0:0:0:0:
363,205,89493,1,2,0:0:0:0:
284,223,89704,2,0,P|291:255|296:289,1,67.4999979400635,2|2,3:2|0:0,0:0:0:0:
237,345,90126,1,8,0:0:0:0:
75,336,90549,6,0,P|38:282|56:189,1,134.999995880127,2|8,3:2|0:0,0:0:0:0:
199,177,91394,2,0,P|190:209|184:242,2,67.4999979400635,2|2|8,3:2|0:0|0:0,0:0:0:0:
164,103,92028,1,2,0:0:0:0:
219,44,92239,6,0,P|274:60|350:54,1,134.999995880127,2|8,3:2|0:0,0:0:0:0:
482,191,93084,2,0,P|416:200|350:214,1,134.999995880127,2|8,3:2|0:0,0:0:0:0:
251,343,93929,2,0,L|87:322,1,134.999995880127,2|8,3:2|0:0,0:0:0:0:
51,277,94563,1,2,0:0:0:0:
81,201,94774,6,0,L|75:130,1,67.4999979400635,4|4,3:2|0:0,0:0:0:0:
