osu file format v14

[General]
AudioFilename: audio.mp3
AudioLeadIn: 0
PreviewTime: 58331
Countdown: 0
SampleSet: Soft
StackLeniency: 0.5
Mode: 0
LetterboxInBreaks: 0
WidescreenStoryboard: 1

[Editor]
Bookmarks: 972,7732,14493,21253,28014,34774,41535,48295,55056,58436,65197,71957,78718,85479,92239,95619
DistanceSpacing: 0.5
BeatDivisor: 4
GridSize: 4
TimelineZoom: 3.419998

[Metadata]
Title:Clover (Short Ver.)
TitleUnicode:クローバー (Short Ver.)
Artist:Duca
ArtistUnicode:Duca
Creator:Anze
Version:Insane
Source:your diary+H
Tags:Cellina visual eroge novel opening anze hijiri cube cuffs video game op japanese pop jpop j-pop galge female vocal your's sound diary 安瀬 聖 ショートver.
BeatmapID:2836119
BeatmapSetID:1370434

[Difficulty]
HPDrainRate:5
CircleSize:3.8
OverallDifficulty:8
ApproachRate:9
SliderMultiplier:2.4
SliderTickRate:1

[Events]
//Background and Video events
0,0,"duca.jpg",0,0
//Break Periods
//Storyboard Layer 0 (Background)
//Storyboard Layer 1 (Fail)
//Storyboard Layer 2 (Pass)
//Storyboard Layer 3 (Foreground)
//Storyboard Layer 4 (Overlay)
//Storyboard Sound Samples

[TimingPoints]
972,422.535211267606,4,2,1,30,1,0
972,-200,4,2,1,30,0,0
6042,-117.647058823529,4,2,1,70,0,0
12591,-108.695652173913,4,2,1,70,0,0
14493,-142.857142857143,4,2,1,60,0,0
41535,-200,4,2,1,50,0,0
48295,-142.857142857143,4,2,1,60,0,0
51676,-133.333333333333,4,2,1,65,0,0
54845,-125,4,2,1,75,0,0
58014,-133.333333333333,4,2,1,75,0,0
58067,-133.333333333333,4,2,1,45,0,0
58436,-83.3333333333333,4,2,1,85,0,1
85479,-100,4,2,1,70,0,0
92239,-166.666666666667,4,2,1,55,0,0
94141,-125,4,2,1,55,0,0
94352,-100,4,2,1,55,0,0
94774,-166.666666666667,4,2,1,65,0,0

[Colours]
Combo1 : 255,191,223
Combo2 : 249,254,186
Combo3 : 240,80,80
Combo4 : 248,211,171

[HitObjects]
470,87,972,6,0,P|427:50|366:63,1,120,2|0,3:2|3:2,0:0:0:0:
281,186,1817,2,0,P|339:172|398:164,1,120,10|0,0:0|3:2,0:0:0:0:
482,199,2450,1,0,0:0:0:0:
457,303,2662,6,0,P|414:339|353:326,1,120,2|0,3:2|3:2,0:0:0:0:
240,279,3507,2,0,P|181:265|122:257,1,120,10|0,0:0|3:2,0:0:0:0:
41,297,4140,1,0,0:0:0:0:
56,130,4352,6,0,L|50:70,1,60,2|0,3:2|0:0,0:0:0:0:
138,60,4774,2,0,L|143:119,1,60,0|0,3:2|0:0,0:0:0:0:
226,106,5197,1,8,0:0:0:0:
286,164,5408,1,0,0:0:0:0:
360,87,5619,2,0,P|393:61|449:91,1,90,2|0,3:2|0:0,0:0:0:0:
461,94,6042,6,0,L|467:195,1,102.000001945496,6|0,3:2|0:0,0:0:0:0:
501,311,6464,2,0,P|449:317|407:293,1,102.000001945496,10|0,0:0|0:0,0:0:0:0:
309,223,6887,2,0,L|312:168,1,51.0000009727478,10|0,0:0|0:0,0:0:0:0:
157,112,7098,1,0,3:2:0:0:
160,135,7204,1,0,3:2:0:0:
164,159,7310,1,10,0:0:0:0:
173,327,7521,1,0,0:0:0:0:
4,268,7732,6,0,P|63:257|122:249,1,102.000001945496,6|0,0:0|0:0,0:0:0:0:
164,159,8155,1,8,0:0:0:0:
178,327,8366,1,2,0:0:0:0:
179,331,8472,1,2,0:0:0:0:
180,335,8577,2,0,P|223:362|271:349,1,102.000001945496,2|2,3:2|0:0,0:0:0:0:
382,290,9000,1,8,0:0:0:0:
330,199,9211,6,0,L|334:148,2,51.0000009727478,2|2|2,0:0|0:0|3:2,0:0:0:0:
360,316,9633,2,0,P|410:323|460:332,1,102.000001945496,2|8,0:0|0:0,0:0:0:0:
507,192,10056,1,2,0:0:0:0:
483,196,10162,1,2,0:0:0:0:
460,199,10268,1,2,3:2:0:0:
331,215,10479,1,2,0:0:0:0:
305,32,10690,1,8,0:0:0:0:
405,73,10901,1,2,0:0:0:0:
401,73,11007,1,2,0:0:0:0:
397,73,11112,6,0,L|296:66,1,102.000001945496,2|2,3:2|0:0,0:0:0:0:
139,128,11535,1,8,0:0:0:0:
195,50,11746,2,0,L|191:-1,2,51.0000009727478,2|0|2,0:0|0:0|3:2,0:0:0:0:
169,204,12169,2,0,P|125:179|75:186,1,102.000001945496,2|8,0:0|0:0,0:0:0:0:
11,287,12591,6,0,L|65:282,1,55.1999981469727,2|0,3:2|0:0,0:0:0:0:
119,363,12802,1,0,3:2:0:0:
119,363,12908,1,8,0:0:0:0:
119,363,13014,2,0,L|174:360,1,55.1999981469727,8|0,0:0|0:0,0:0:0:0:
306,313,13225,6,0,P|303:276|320:248,3,55.1999981469727,8|8|2|0,0:0|0:0|3:2|3:2,0:0:0:0:
392,295,13648,2,0,L|502:302,1,110.399996293945,8|8,0:0|3:2,0:0:0:0:
436,140,14070,2,0,L|448:86,3,55.1999981469727,8|0|0|0,3:2|3:2|3:2|3:2,0:0:0:0:
349,159,14493,6,0,B|329:54|329:54|361:50|386:22,1,167.999994873047,6|10,3:2|0:0,0:0:0:0:
247,13,15126,2,0,P|237:33|238:57,1,41.9999987182618,2|2,0:0|0:0,0:0:0:0:
184,144,15338,2,0,L|100:135,1,83.9999974365235,2|2,3:2|0:0,0:0:0:0:
19,56,15760,1,8,0:0:0:0:
44,247,15972,1,2,0:0:0:0:
45,252,16078,1,2,0:0:0:0:
46,257,16183,6,0,P|96:260|136:215,1,83.9999974365235,2|2,3:2|0:0,0:0:0:0:
184,144,16605,1,8,0:0:0:0:
235,282,16817,1,2,0:0:0:0:
315,73,17028,2,0,L|306:156,1,83.9999974365235,0|2,3:2|0:0,0:0:0:0:
363,316,17450,1,10,0:0:0:0:
504,248,17661,1,2,0:0:0:0:
508,246,17767,1,2,0:0:0:0:
512,244,17873,6,0,P|515:194|471:157,1,83.9999974365235,2|0,3:2|0:0,0:0:0:0:
339,233,18295,2,0,L|431:224,1,83.9999974365235,8|2,0:0|0:0,0:0:0:0:
506,81,18718,2,0,L|414:72,1,83.9999974365235,2|2,3:2|0:0,0:0:0:0:
330,94,19141,2,0,P|327:44|371:7,1,83.9999974365235,8|2,0:0|0:0,0:0:0:0:
422,72,19563,5,0,3:2:0:0:
396,163,19774,1,2,0:0:0:0:
330,94,19986,1,8,0:0:0:0:
304,185,20197,1,2,0:0:0:0:
238,116,20408,1,0,3:2:0:0:
212,207,20619,1,2,0:0:0:0:
146,138,20831,1,8,0:0:0:0:
120,229,21042,2,0,P|114:257|124:293,1,41.9999987182618,2|2,0:0|0:0,0:0:0:0:
27,316,21253,6,0,P|104:316|207:338,1,167.999994873047,2|10,3:2|0:0,0:0:0:0:
320,325,21887,2,0,L|369:314,1,41.9999987182618,2|2,0:0|0:0,0:0:0:0:
288,236,22098,2,0,P|308:196|298:146,1,83.9999974365235,2|2,3:2|0:0,0:0:0:0:
263,33,22521,1,8,0:0:0:0:
197,101,22732,2,0,L|155:96,2,41.9999987182618,2|2|2,0:0|0:0|3:2,0:0:0:0:
73,37,23155,5,0,0:0:0:0:
84,151,23366,1,8,0:0:0:0:
113,24,23577,1,2,0:0:0:0:
24,220,23788,2,0,P|58:242|100:242,1,83.9999974365235,2|2,3:2|0:0,0:0:0:0:
230,137,24211,1,10,0:0:0:0:
186,275,24422,1,2,0:0:0:0:
185,279,24528,1,2,0:0:0:0:
183,283,24633,6,0,P|177:325|174:367,1,83.9999974365235,2|2,3:2|0:0,0:0:0:0:
63,335,25056,1,8,0:0:0:0:
280,352,25267,2,0,P|308:346|344:356,1,41.9999987182618,2|2,0:0|0:0,0:0:0:0:
325,245,25479,2,0,P|366:248|399:273,1,83.9999974365235,2|2,3:2|0:0,0:0:0:0:
452,358,25901,1,10,0:0:0:0:
494,220,26112,1,2,0:0:0:0:
494,220,26218,1,2,0:0:0:0:
494,220,26324,5,2,3:2:0:0:
395,142,26535,1,8,0:0:0:0:
325,245,26746,1,8,0:0:0:0:
244,149,26957,2,0,P|220:141|197:137,1,41.9999987182618,2|2,3:2|3:2,0:0:0:0:
125,179,27169,1,0,3:2:0:0:
50,72,27380,1,2,3:2:0:0:
194,18,27591,1,8,3:2:0:0:
168,251,27802,2,0,P|146:262|123:264,1,41.9999987182618,2|2,0:0|0:0,0:0:0:0:
2,356,28014,6,0,B|30:315|73:322|73:322|105:355|151:343,1,167.999994873047,2|10,3:2|0:0,0:0:0:0:
261,361,28648,2,0,L|267:319,1,41.9999987182618,2|2,0:0|0:0,0:0:0:0:
298,132,28859,2,0,P|304:174|307:216,1,83.9999974365235,2|2,3:2|0:0,0:0:0:0:
363,344,29281,1,8,0:0:0:0:
491,240,29493,1,2,0:0:0:0:
489,236,29599,1,2,0:0:0:0:
487,232,29705,6,0,P|437:229|400:273,1,83.9999974365235,2|2,3:2|0:0,0:0:0:0:
363,344,30126,1,8,0:0:0:0:
244,192,30338,1,2,0:0:0:0:
265,363,30549,2,0,P|270:321|273:279,1,83.9999974365235,2|0,3:2|0:0,0:0:0:0:
337,163,30971,1,10,0:0:0:0:
275,91,31183,2,0,L|224:97,2,41.9999987182618,2|2|2,0:0|0:0|3:2,0:0:0:0:
424,151,31605,5,0,0:0:0:0:
488,38,31817,2,0,P|452:17|411:25,1,83.9999974365235,10|2,0:0|0:0,0:0:0:0:
329,84,32133,1,2,0:0:0:0:
315,82,32239,2,0,L|226:70,1,83.9999974365235,2|2,3:2|0:0,0:0:0:0:
104,148,32662,1,8,0:0:0:0:
135,8,32873,2,0,P|144:26|144:47,1,41.9999987182618,2|2,0:0|0:0,0:0:0:0:
12,138,33084,6,0,L|23:55,1,83.9999974365235,2|2,3:2|0:0,0:0:0:0:
58,236,33507,1,8,0:0:0:0:
104,148,33718,1,0,0:0:0:0:
191,311,33929,1,2,3:2:0:0:
147,223,34140,1,2,0:0:0:0:
5,340,34352,1,10,0:0:0:0:
201,312,34563,1,2,0:0:0:0:
223,314,34669,1,2,0:0:0:0:
247,316,34774,6,0,L|341:323,1,83.9999974365235,2|2,3:2|0:0,0:0:0:0:
434,368,35196,1,10,0:0:0:0:
504,310,35408,2,0,L|498:259,2,41.9999987182618,2|2|2,0:0|0:0|3:2,0:0:0:0:
485,158,35831,1,2,0:0:0:0:
396,270,36042,1,8,0:0:0:0:
307,157,36253,6,0,L|314:61,1,83.9999974365235,2|2,0:0|3:2,0:0:0:0:
211,37,36676,1,2,0:0:0:0:
90,196,36887,1,10,0:0:0:0:
19,99,37098,2,0,B|127:87|127:87|153:123|200:134,1,167.999994873047,2|2,0:0|0:0,0:0:0:0:
239,261,37732,2,0,P|203:240|162:248,1,83.9999974365235,10|2,0:0|0:0,0:0:0:0:
95,296,38049,1,2,0:0:0:0:
89,287,38155,5,2,3:2:0:0:
11,179,38366,1,0,0:0:0:0:
47,333,38577,2,0,P|88:336|130:340,1,83.9999974365235,8|2,0:0|0:0,0:0:0:0:
242,368,39000,1,0,3:2:0:0:
317,188,39211,1,0,0:0:0:0:
199,277,39422,1,8,0:0:0:0:
384,336,39633,6,0,P|424:343|459:322,1,83.9999974365235,2|0,0:0|3:2,0:0:0:0:
502,226,40056,1,2,0:0:0:0:
415,121,40267,1,8,0:0:0:0:
345,179,40479,2,0,L|351:230,2,41.9999987182618,2|2|2,0:0|0:0|3:2,0:0:0:0:
183,103,40901,1,0,0:0:0:0:
262,58,41112,1,8,0:0:0:0:
262,58,41218,1,0,3:2:0:0:
262,58,41324,1,0,0:0:0:0:
239,207,41535,6,0,B|211:209|190:195|190:195|192:242|163:264,1,120,6|2,3:2|0:0,0:0:0:0:
0,250,42380,1,8,0:0:0:0:
77,292,42591,2,0,P|74:321|70:351,2,60,0|2|2,0:0|0:0|0:0,0:0:0:0:
62,189,43225,5,0,3:2:0:0:
20,110,43436,2,0,P|50:97|79:103,1,60,8|0,0:0|0:0,0:0:0:0:
266,41,44070,1,8,0:0:0:0:
349,17,44281,2,0,L|343:77,1,60
409,162,44704,1,2,0:0:0:0:
409,162,44810,1,2,0:0:0:0:
409,162,44915,6,0,B|437:164|458:150|458:150|456:197|485:219,1,120,6|2,3:2|0:0,0:0:0:0:
379,330,45760,1,8,0:0:0:0:
338,255,45972,2,0,P|368:242|397:248,2,60,0|2|0,0:0|0:0|0:0,0:0:0:0:
236,316,46605,5,0,3:2:0:0:
162,355,46816,2,0,L|102:349,1,60,8|0,0:0|3:2,0:0:0:0:
9,202,47450,1,8,0:0:0:0:
78,270,47662,1,8,0:0:0:0:
154,120,47873,1,2,0:0:0:0:
11,178,48084,1,2,0:0:0:0:
9,202,48190,1,2,0:0:0:0:
8,226,48295,6,0,L|2:311,1,83.9999974365235,6|0,0:0|0:0,0:0:0:0:
146,370,48718,2,0,L|151:286,1,83.9999974365235,8|2,0:0|0:0,0:0:0:0:
158,206,49035,1,2,0:0:0:0:
170,198,49141,2,0,P|210:198|242:224,1,83.9999974365235,2|0,3:2|0:0,0:0:0:0:
352,343,49563,2,0,L|440:335,1,83.9999974365235,10|2,0:0|0:0,0:0:0:0:
448,334,49880,1,2,0:0:0:0:
458,333,49986,5,2,3:2:0:0:
505,255,50197,1,0,0:0:0:0:
308,178,50408,1,10,0:0:0:0:
244,306,50619,2,0,L|238:352,1,41.9999987182618,2|2,0:0|0:0,0:0:0:0:
131,319,50831,2,0,P|99:345|58:346,1,83.9999974365235,2|2,3:2|0:0,0:0:0:0:
1,254,51253,1,8,0:0:0:0:
100,166,51464,1,2,0:0:0:0:
116,168,51570,1,2,0:0:0:0:
133,170,51676,5,2,3:2:0:0:
246,140,51886,1,2,0:0:0:0:
216,253,52098,1,10,0:0:0:0:
164,65,52310,2,0,P|165:42|171:21,2,45.0000017166138,2|2|2,0:0|0:0|3:2,0:0:0:0:
280,10,52732,1,2,0:0:0:0:
330,174,52943,1,10,0:0:0:0:
500,79,53155,6,0,P|460:58|416:62,1,90.0000034332277,2|2,0:0|3:2,0:0:0:0:
330,174,53577,1,2,0:0:0:0:
462,236,53788,1,8,0:0:0:0:
344,320,54000,2,0,P|342:342|336:363,2,45.0000017166138,2|2|2,0:0|0:0|3:2,0:0:0:0:
235,196,54422,2,0,P|190:199|145:204,1,90.0000034332277,2|10,0:0|0:0,0:0:0:0:
12,342,54845,6,0,P|55:351|99:318,1,96,4|0,0:0|0:0,0:0:0:0:
145,203,55267,1,2,0:0:0:0:
268,345,55479,1,10,0:0:0:0:
220,101,55690,1,0,0:0:0:0:
234,336,55901,1,2,3:2:0:0:
376,168,56112,2,0,P|381:109|388:58,1,96,2|8,0:0|0:0,0:0:0:0:
205,13,56535,1,2,0:0:0:0:
93,225,56746,5,0,3:2:0:0:
96,248,56852,1,0,3:2:0:0:
99,271,56957,1,2,3:2:0:0:
101,295,57063,1,0,3:2:0:0:
105,318,57169,2,0,P|148:342|201:332,1,96,8|2,0:0|3:2,0:0:0:0:
211,313,57486,1,0,3:2:0:0:
211,313,57591,1,2,3:2:0:0:
380,322,57802,2,0,L|375:274,1,48,0|0,3:2|3:2,0:0:0:0:
468,227,58014,6,0,L|472:198,6,22.5000008583069,8|0|0|0|0|0|0,0:0|0:0|0:0|0:0|0:0|0:0|0:0,0:0:0:0:
458,303,58436,5,6,0:0:0:0:
379,148,58648,2,0,P|345:137|315:155,1,71.9999978027344,2|0,0:0|0:0,0:0:0:0:
174,159,58859,2,0,B|207:160|228:135|228:135|221:189|254:216,1,143.999995605469,10|0,0:0|0:0,0:0:0:0:
150,325,59281,2,0,B|126:311|92:323|92:323|77:345|77:345|45:361|21:354,1,143.999995605469,2|0,3:2|0:0,0:0:0:0:
6,133,59704,1,10,0:0:0:0:
128,222,59915,1,2,0:0:0:0:
128,222,60021,1,0,0:0:0:0:
128,222,60126,6,0,L|140:79,1,143.999995605469,2|0,3:2|0:0,0:0:0:0:
313,19,60549,1,10,0:0:0:0:
317,62,60655,1,0,0:0:0:0:
320,105,60761,1,2,0:0:0:0:
500,258,60972,2,0,P|454:207|389:228,1,143.999995605469,2|0,3:2|0:0,0:0:0:0:
285,346,61394,2,0,L|142:334,1,143.999995605469,10|2,0:0|0:0,0:0:0:0:
25,328,61711,1,0,0:0:0:0:
32,311,61817,6,0,B|129:291|129:291|146:315|140:347,1,143.999995605469,2|0,3:2|0:0,0:0:0:0:
207,258,62133,1,0,0:0:0:0:
211,245,62239,1,10,0:0:0:0:
457,163,62450,1,2,0:0:0:0:
453,120,62556,1,0,0:0:0:0:
448,78,62662,2,0,P|383:56|337:107,1,143.999995605469,2|0,3:2|0:0,0:0:0:0:
389,228,63084,1,10,0:0:0:0:
196,169,63295,2,0,P|167:149|133:156,1,71.9999978027344,2|0,0:0|0:0,0:0:0:0:
35,329,63507,6,0,B|9:244|9:244|61:52,2,287.999991210938,2|10|2,3:2|0:0|3:2,0:0:0:0:
178,367,64563,2,0,L|188:283,1,71.9999978027344,2|0,0:0|0:0,0:0:0:0:
338,249,64774,1,10,0:0:0:0:
305,161,64986,2,0,L|313:232,1,71.9999978027344,2|0,0:0|0:0,0:0:0:0:
483,362,65197,6,0,B|495:262|495:262|468:259|445:241,1,143.999995605469,2|0,3:2|0:0,0:0:0:0:
482,15,65619,2,0,L|465:158,1,143.999995605469,8|2,0:0|0:0,0:0:0:0:
375,168,65936,1,0,0:0:0:0:
371,155,66042,1,2,3:2:0:0:
249,40,66253,2,0,B|284:20|284:20|328:55|387:49,1,143.999995605469,2|10,0:0|0:0,0:0:0:0:
125,92,66676,2,0,P|150:116|148:151,1,71.9999978027344,2|0,0:0|0:0,0:0:0:0:
123,235,66887,6,0,B|92:231|74:206|74:206|46:200|13:217|11:249,1,143.999995605469,2|0,3:2|0:0,0:0:0:0:
76,361,67310,1,8,0:0:0:0:
241,332,67521,1,2,0:0:0:0:
241,332,67627,1,0,0:0:0:0:
241,332,67732,2,0,L|384:344,1,143.999995605469,2|0,3:2|0:0,0:0:0:0:
448,152,68155,1,10,0:0:0:0:
495,238,68366,2,0,P|467:258|432:250,1,71.9999978027344,2|2,0:0|0:0,0:0:0:0:
303,216,68577,6,0,B|291:117|291:117|316:102|348:111,1,143.999995605469,2|0,3:2|0:0,0:0:0:0:
492,49,69000,1,10,0:0:0:0:
278,28,69211,1,2,0:0:0:0:
278,28,69317,1,0,0:0:0:0:
278,28,69422,2,0,B|254:14|220:26|220:26|205:48|205:48|173:64|149:57,1,143.999995605469,2|2,3:2|0:0,0:0:0:0:
59,13,69845,1,8,0:0:0:0:
168,200,70056,1,2,0:0:0:0:
23,209,70267,5,2,3:2:0:0:
32,160,70373,1,8,0:0:0:0:
41,111,70479,1,2,0:0:0:0:
168,200,70690,1,8,0:0:0:0:
97,293,70901,5,2,3:2:0:0:
104,328,71007,1,2,3:2:0:0:
110,363,71112,1,2,3:2:0:0:
1,340,71324,1,2,0:0:0:0:
213,311,71535,5,10,0:0:0:0:
269,320,71641,1,8,0:0:0:0:
325,332,71747,1,2,0:0:0:0:
508,291,71957,5,6,0:0:0:0:
427,341,72169,2,0,P|406:312|414:278,1,71.9999978027344,2|0,0:0|0:0,0:0:0:0:
488,191,72380,2,0,P|416:182|345:170,1,143.999995605469,10|0,0:0|0:0,0:0:0:0:
330,47,72802,2,0,B|306:33|272:45|272:45|257:67|257:67|225:83|201:76,1,143.999995605469,2|0,3:2|0:0,0:0:0:0:
88,14,73225,1,10,0:0:0:0:
18,188,73436,1,2,0:0:0:0:
18,188,73542,1,0,0:0:0:0:
18,188,73647,6,0,L|30:331,1,143.999995605469,2|0,3:2|0:0,0:0:0:0:
221,367,74070,1,10,0:0:0:0:
225,324,74176,1,0,0:0:0:0:
228,281,74282,1,2,0:0:0:0:
307,130,74493,2,0,B|295:31|295:31|320:16|352:25,1,143.999995605469,2|0,3:2|0:0,0:0:0:0:
505,290,74915,2,0,P|459:239|394:260,1,143.999995605469,10|2,0:0|0:0,0:0:0:0:
313,295,75232,1,0,0:0:0:0:
319,312,75338,6,0,B|352:311|373:336|373:336|366:282|399:255,1,143.999995605469,2|0,3:2|0:0,0:0:0:0:
314,207,75654,1,0,0:0:0:0:
295,213,75760,1,10,0:0:0:0:
115,342,75971,1,2,0:0:0:0:
72,333,76077,1,0,0:0:0:0:
30,327,76183,2,0,P|13:260|68:219,1,143.999995605469,2|0,3:2|0:0,0:0:0:0:
22,83,76605,1,10,0:0:0:0:
162,26,76816,2,0,P|181:54|174:89,1,71.9999978027344,2|0,0:0|0:0,0:0:0:0:
229,235,77028,6,0,B|421:183|421:183|506:209,2,287.999991210938,2|10|2,3:2|0:0|3:2,0:0:0:0:
190,351,78084,2,0,L|106:341,1,71.9999978027344,2|0,0:0|0:0,0:0:0:0:
97,190,78295,1,10,0:0:0:0:
9,223,78507,2,0,L|80:215,1,71.9999978027344,2|0,0:0|0:0,0:0:0:0:
183,70,78718,6,0,P|136:21|72:43,1,143.999995605469,2|0,3:2|0:0,0:0:0:0:
11,103,79035,1,0,0:0:0:0:
17,122,79141,1,8,0:0:0:0:
23,332,79352,2,0,B|58:348|58:348|97:339,1,71.9999978027344,2|0,0:0|0:0,0:0:0:0:
217,215,79563,2,0,P|209:299|202:381,1,143.999995605469,2|2,3:2|0:0,0:0:0:0:
327,254,79986,2,0,P|373:204|437:226,1,143.999995605469,8|2,0:0|0:0,0:0:0:0:
503,302,80302,1,0,0:0:0:0:
497,320,80408,6,0,B|397:308|397:308|394:335|376:358,1,143.999995605469,2|0,3:2|0:0,0:0:0:0:
456,180,80831,2,0,L|440:29,1,143.999995605469,8|2,0:0|0:0,0:0:0:0:
331,80,81148,1,0,0:0:0:0:
325,98,81253,2,0,P|260:120|214:70,1,143.999995605469,2|0,3:2|0:0,0:0:0:0:
50,14,81676,1,8,0:0:0:0:
23,191,81887,1,2,0:0:0:0:
22,198,81993,1,0,0:0:0:0:
21,205,82098,6,0,P|85:228|131:178,1,143.999995605469,2|2,3:2|0:0,0:0:0:0:
211,50,82521,1,8,0:0:0:0:
231,229,82732,1,2,0:0:0:0:
235,264,82838,1,2,0:0:0:0:
239,299,82943,1,2,3:2:0:0:
322,133,83155,1,0,0:0:0:0:
151,290,83366,1,8,0:0:0:0:
379,331,83577,1,2,0:0:0:0:
428,340,83683,1,2,0:0:0:0:
477,349,83789,5,2,3:2:0:0:
512,207,84000,2,0,L|440:215,1,71.9999978027344,8|0,0:0|0:0,0:0:0:0:
412,116,84211,2,0,L|341:108,1,71.9999978027344,8|0,0:0|0:0,0:0:0:0:
312,15,84422,1,2,3:2:0:0:
113,54,84633,1,2,3:2:0:0:
78,61,84739,1,8,0:0:0:0:
43,68,84844,1,2,0:0:0:0:
180,148,85056,5,10,0:0:0:0:
96,129,85162,1,8,0:0:0:0:
13,110,85267,1,8,0:0:0:0:
0,326,85479,6,0,P|46:359|100:339,1,120,2|2,3:2|0:0,0:0:0:0:
61,231,85901,1,8,0:0:0:0:
209,304,86112,1,2,0:0:0:0:
227,310,86218,1,2,0:0:0:0:
245,314,86324,6,0,P|304:304|369:293,1,120,2|2,3:2|0:0,0:0:0:0:
471,367,86746,1,8,0:0:0:0:
501,170,86957,1,2,0:0:0:0:
502,163,87063,1,2,0:0:0:0:
503,156,87168,6,0,P|441:127|396:161,1,120,2|2,3:2|0:0,0:0:0:0:
391,302,87591,1,8,0:0:0:0:
320,216,87802,1,2,0:0:0:0:
239,358,88013,1,2,3:2:0:0:
401,151,88225,1,2,0:0:0:0:
205,227,88436,1,8,0:0:0:0:
466,269,88648,1,2,0:0:0:0:
296,84,88859,6,0,P|236:73|177:63,1,120,2|2,3:2|0:0,0:0:0:0:
96,47,89176,1,0,0:0:0:0:
56,58,89281,1,8,0:0:0:0:
0,200,89493,1,2,0:0:0:0:
35,207,89599,1,2,0:0:0:0:
70,214,89704,1,2,3:2:0:0:
204,184,89915,1,2,0:0:0:0:
106,352,90126,1,8,0:0:0:0:
379,306,90338,1,2,0:0:0:0:
361,300,90444,1,2,0:0:0:0:
343,296,90550,6,0,P|284:306|219:317,1,120,2|2,3:2|0:0,0:0:0:0:
106,352,90972,1,8,0:0:0:0:
24,216,91183,1,2,0:0:0:0:
143,253,91394,1,2,3:2:0:0:
213,110,91605,1,2,0:0:0:0:
96,157,91817,1,8,0:0:0:0:
15,13,92028,1,2,0:0:0:0:
290,33,92239,5,2,3:2:0:0:
248,107,92450,2,0,L|213:110,1,35.9999989013672
385,89,92662,1,8,0:0:0:0:
278,186,92873,1,0,0:0:0:0:
290,33,93084,1,2,3:2:0:0:
448,163,93295,1,0,0:0:0:0:
328,112,93507,1,8,0:0:0:0:
426,29,93718,1,0,0:0:0:0:
343,236,93929,1,2,3:2:0:0:
189,160,94141,6,0,L|193:110,1,48,2|2,0:0|0:0,0:0:0:0:
118,63,94352,2,0,L|123:2,3,60,8|0|2|0,0:0|0:0|0:0|0:0,0:0:0:0:
33,93,94774,5,4,3:2:0:0:
96,318,94986,1,4,0:0:0:0:
