osu file format v14

[General]
AudioFilename: audio.mp3
AudioLeadIn: 0
PreviewTime: 58331
Countdown: 0
SampleSet: Soft
StackLeniency: 0.5
Mode: 0
LetterboxInBreaks: 0
WidescreenStoryboard: 1

[Editor]
Bookmarks: 972,7732,14493,21253,28014,34774,41535,48295,55056,58436,65197,71957,78718,85479,92239,95619
DistanceSpacing: 1.1
BeatDivisor: 8
GridSize: 16
TimelineZoom: 3.419998

[Metadata]
Title:Clover (Short Ver.)
TitleUnicode:クローバー (Short Ver.)
Artist:Duca
ArtistUnicode:Duca
Creator:Anze
Version:Expert
Source:your diary+H
Tags:Cellina visual eroge novel opening anze hijiri cube cuffs video game op japanese pop jpop j-pop galge female vocal your's sound diary 安瀬 聖 ショートver.
BeatmapID:2833658
BeatmapSetID:1370434

[Difficulty]
HPDrainRate:5.5
CircleSize:4
OverallDifficulty:9
ApproachRate:9.2
SliderMultiplier:2.8
SliderTickRate:1

[Events]
//Background and Video events
0,0,"duca.jpg",0,0
//Break Periods
//Storyboard Layer 0 (Background)
//Storyboard Layer 1 (Fail)
//Storyboard Layer 2 (Pass)
//Storyboard Layer 3 (Foreground)
//Storyboard Layer 4 (Overlay)
//Storyboard Sound Samples

[TimingPoints]
972,422.535211267606,4,2,1,30,1,0
972,-200,4,2,1,30,0,0
6042,-117.647058823529,4,2,1,70,0,0
12591,-108.695652173913,4,2,1,70,0,0
14493,-142.857142857143,4,2,1,60,0,0
41535,-200,4,2,1,50,0,0
48295,-142.857142857143,4,2,1,60,0,0
51676,-133.333333333333,4,2,1,65,0,0
54845,-125,4,2,1,75,0,0
58014,-133.333333333333,4,2,1,75,0,0
58067,-133.333333333333,4,2,1,45,0,0
58436,-83.3333333333333,4,2,1,85,0,1
85479,-100,4,2,1,70,0,0
92239,-166.666666666667,4,2,1,55,0,0
94774,-166.666666666667,4,2,1,65,0,0

[Colours]
Combo1 : 255,191,223
Combo2 : 249,254,186
Combo3 : 240,80,80
Combo4 : 248,211,171

[HitObjects]
3,101,972,6,0,P|47:47|109:78,1,140,2|0,3:2|3:2,0:0:0:0:
169,241,1817,2,0,P|182:158|203:84,1,140,10|0,0:0|3:2,0:0:0:0:
275,29,2450,1,0,0:0:0:0:
443,121,2662,6,0,P|380:99|341:152,1,140,2|0,3:2|3:2,0:0:0:0:
293,274,3507,2,0,P|376:287|450:308,1,140,10|0,0:0|3:2,0:0:0:0:
512,354,4140,1,0,0:0:0:0:
509,154,4352,6,0,P|467:155|438:181,1,70,2|0,3:2|0:0,0:0:0:0:
358,121,4774,1,0,3:2:0:0:
355,133,4986,1,0,0:0:0:0:
267,129,5197,1,8,0:0:0:0:
270,140,5409,1,0,0:0:0:0:
152,190,5619,2,0,P|105:223|56:219,1,105,2|0,3:2|0:0,0:0:0:0:
24,198,6042,5,6,3:2:0:0:
69,112,6253,1,0,0:0:0:0:
59,220,6464,1,10,0:0:0:0:
19,38,6676,1,0,0:0:0:0:
134,249,6887,2,0,L|201:242,1,59.5000011348725,10|0,0:0|0:0,0:0:0:0:
154,49,7098,1,0,3:2:0:0:
130,45,7204,1,0,3:2:0:0:
107,42,7310,1,10,0:0:0:0:
54,209,7521,1,0,0:0:0:0:
268,125,7732,6,0,P|327:114|390:105,1,119.000002269745,6|0,0:0|0:0,0:0:0:0:
475,29,8155,1,8,0:0:0:0:
493,251,8366,1,2,0:0:0:0:
492,255,8472,1,2,0:0:0:0:
493,261,8577,2,0,P|449:295|381:272,1,119.000002269745,2|2,3:2|0:0,0:0:0:0:
349,175,9000,1,8,0:0:0:0:
266,347,9211,6,0,P|266:317|257:289,1,59.5000011348725,2|2,0:0|0:0,0:0:0:0:
174,125,9422,2,0,P|217:90|285:113,1,119.000002269745,2|2,3:2|0:0,0:0:0:0:
349,175,9845,1,8,0:0:0:0:
165,315,10056,1,2,0:0:0:0:
141,311,10162,1,2,0:0:0:0:
118,308,10268,1,2,3:2:0:0:
97,202,10479,1,2,0:0:0:0:
15,351,10690,1,8,0:0:0:0:
30,134,10901,1,2,0:0:0:0:
29,128,11007,1,2,0:0:0:0:
28,122,11112,6,0,P|17:63|8:0,1,119.000002269745,2|2,3:2|0:0,0:0:0:0:
90,18,11429,1,0,0:0:0:0:
100,16,11535,1,8,0:0:0:0:
231,143,11746,2,0,L|222:200,1,59.5000011348725,2|0,0:0|0:0,0:0:0:0:
169,333,11957,2,0,B|185:309|214:307|214:307|237:337|279:341,1,119.000002269745,2|2,3:2|0:0,0:0:0:0:
512,270,12380,1,8,0:0:0:0:
386,366,12591,6,0,L|394:300,1,64.3999978381348,2|0,3:2|0:0,0:0:0:0:
481,195,12802,1,0,3:2:0:0:
476,163,12908,1,8,0:0:0:0:
470,131,13014,2,0,L|404:123,1,64.3999978381348,8|0,0:0|0:0,0:0:0:0:
278,260,13225,2,0,P|247:259|215:276,2,64.3999978381348,8|8|2,0:0|0:0|3:2,0:0:0:0:
265,341,13542,1,0,3:2:0:0:
229,176,13648,6,0,P|213:146|216:97,1,64.3999978381348,8|0,0:0|3:2,0:0:0:0:
327,23,13859,2,0,P|312:53|318:102,1,64.3999978381348,8|0,3:2|0:0,0:0:0:0:
410,73,14070,1,8,3:2:0:0:
386,69,14176,1,0,3:2:0:0:
363,66,14282,1,0,3:2:0:0:
339,62,14387,1,0,3:2:0:0:
261,49,14493,6,0,B|139:27|139:27|136:68|105:99,1,195.999994018555,6|10,3:2|0:0,0:0:0:0:
11,35,15126,2,0,P|39:29|77:43,1,48.9999985046387,2|2,0:0|0:0,0:0:0:0:
91,176,15338,2,0,P|86:223|82:276,1,97.9999970092774,2|2,3:2|0:0,0:0:0:0:
4,358,15760,1,8,0:0:0:0:
183,285,15972,1,2,0:0:0:0:
184,280,16078,1,2,0:0:0:0:
185,275,16183,6,0,P|235:272|279:318,1,97.9999970092774,2|2,3:2|0:0,0:0:0:0:
453,195,16605,1,8,0:0:0:0:
340,353,16817,1,2,0:0:0:0:
466,211,17028,2,0,P|471:258|475:311,1,97.9999970092774,0|2,3:2|0:0,0:0:0:0:
364,371,17450,1,10,0:0:0:0:
317,198,17662,1,2,0:0:0:0:
320,175,17768,1,2,0:0:0:0:
322,152,17873,6,0,P|275:157|222:161,1,97.9999970092774,2|0,3:2|0:0,0:0:0:0:
38,50,18295,2,0,P|88:47|132:93,1,97.9999970092774,8|2,0:0|0:0,0:0:0:0:
199,38,18612,1,2,0:0:0:0:
208,39,18718,2,0,L|334:45,1,97.9999970092774,2|2,3:2|0:0,0:0:0:0:
482,8,19141,1,8,0:0:0:0:
357,117,19352,1,2,0:0:0:0:
391,16,19563,5,0,3:2:0:0:
451,163,19774,1,2,0:0:0:0:
357,117,19986,1,8,0:0:0:0:
298,274,20197,1,2,0:0:0:0:
326,198,20408,1,0,3:2:0:0:
385,355,20619,1,2,0:0:0:0:
489,225,20831,1,8,0:0:0:0:
298,274,21042,2,0,L|249:282,1,48.9999985046387,2|2,0:0|0:0,0:0:0:0:
62,335,21253,6,0,B|107:286|170:312|170:312|195:362|254:363,1,195.999994018555,2|10,3:2|0:0,0:0:0:0:
3,263,21887,2,0,P|-3:235|11:197,1,48.9999985046387,2|2,0:0|0:0,0:0:0:0:
153,35,22098,2,0,P|148:82|144:135,1,97.9999970092774,2|2,3:2|0:0,0:0:0:0:
136,229,22521,1,8,0:0:0:0:
367,263,22732,1,2,0:0:0:0:
366,258,22838,1,2,0:0:0:0:
365,253,22943,6,0,P|315:250|271:296,1,97.9999970092774,2|0,3:2|0:0,0:0:0:0:
233,351,23366,1,8,0:0:0:0:
188,233,23577,1,2,0:0:0:0:
98,338,23788,1,2,3:2:0:0:
278,278,24000,1,2,0:0:0:0:
71,224,24211,1,10,0:0:0:0:
27,324,24423,1,2,0:0:0:0:
50,321,24529,1,2,0:0:0:0:
73,319,24633,6,0,P|121:315|170:310,1,97.9999970092774,2|2,3:2|0:0,0:0:0:0:
378,343,25056,1,8,0:0:0:0:
294,204,25267,2,0,P|282:225|279:249,1,48.9999985046387,2|2,0:0|0:0,0:0:0:0:
394,356,25479,2,0,P|444:359|488:313,1,97.9999970092774,2|2,3:2|0:0,0:0:0:0:
410,247,25901,1,10,0:0:0:0:
197,363,26112,1,2,0:0:0:0:
173,361,26218,1,2,0:0:0:0:
149,359,26324,5,2,3:2:0:0:
210,211,26535,1,8,0:0:0:0:
116,257,26746,1,8,0:0:0:0:
57,100,26957,2,0,P|50:75|39:42,1,48.9999985046387,2|2,3:2|3:2,0:0:0:0:
83,177,27169,1,0,3:2:0:0:
144,19,27380,1,2,3:2:0:0:
248,149,27591,1,8,3:2:0:0:
78,93,27802,2,0,P|53:95|32:107,1,48.9999985046387,2|2,0:0|0:0,0:0:0:0:
128,325,28014,6,0,B|150:203|150:203|109:200|78:169,1,195.999994018555,2|10,3:2|0:0,0:0:0:0:
36,309,28648,2,0,L|46:388,1,48.9999985046387,2|2,0:0|0:0,0:0:0:0:
221,311,28859,2,0,P|268:307|307:336,1,97.9999970092774,2|2,3:2|0:0,0:0:0:0:
512,292,29281,1,8,0:0:0:0:
412,366,29493,1,2,0:0:0:0:
411,361,29599,1,2,0:0:0:0:
409,356,29704,6,0,P|413:308|418:259,1,97.9999970092774,2|2,3:2|0:0,0:0:0:0:
473,179,30126,1,8,0:0:0:0:
330,314,30338,1,2,0:0:0:0:
377,185,30549,1,2,3:2:0:0:
409,356,30760,1,0,0:0:0:0:
438,102,30971,1,10,0:0:0:0:
283,245,31183,1,2,0:0:0:0:
259,247,31289,1,2,0:0:0:0:
235,249,31395,5,2,3:2:0:0:
159,75,31605,1,0,0:0:0:0:
8,189,31816,2,0,P|48:164|96:172,1,97.9999970092774,10|2,0:0|0:0,0:0:0:0:
139,248,32133,1,2,0:0:0:0:
138,258,32239,2,0,L|131:355,1,97.9999970092774,2|2,3:2|0:0,0:0:0:0:
37,306,32662,1,8,0:0:0:0:
232,229,32873,2,0,P|256:230|277:242,1,48.9999985046387,2|2,0:0|0:0,0:0:0:0:
348,332,33084,6,0,P|395:340|436:315,1,97.9999970092774,2|2,3:2|0:0,0:0:0:0:
463,150,33507,1,8,0:0:0:0:
378,253,33718,1,0,0:0:0:0:
512,217,33929,1,2,3:2:0:0:
317,103,34140,1,2,0:0:0:0:
318,330,34351,1,10,0:0:0:0:
452,152,34563,1,2,0:0:0:0:
450,128,34669,1,2,0:0:0:0:
448,104,34774,6,0,L|441:7,1,97.9999970092774,2|2,3:2|0:0,0:0:0:0:
294,222,35197,1,10,0:0:0:0:
320,89,35408,2,0,P|348:83|386:97,1,48.9999985046387,2|2,0:0|0:0,0:0:0:0:
405,235,35620,2,0,P|400:282|396:335,1,97.9999970092774,2|2,3:2|0:0,0:0:0:0:
318,314,35936,1,0,0:0:0:0:
308,316,36042,1,8,0:0:0:0:
485,355,36253,1,2,0:0:0:0:
332,179,36464,6,0,P|285:170|244:195,1,97.9999970092774,2|2,3:2|0:0,0:0:0:0:
157,344,36887,1,10,0:0:0:0:
38,198,37098,2,0,B|19:73|19:73|55:47|66:0,1,195.999994018555,2|2,0:0|0:0,0:0:0:0:
152,159,37732,2,0,L|143:256,1,97.9999970092774,10|2,0:0|0:0,0:0:0:0:
134,340,38049,1,2,0:0:0:0:
133,350,38155,5,2,3:2:0:0:
53,285,38366,1,0,0:0:0:0:
235,192,38577,2,0,P|282:183|322:207,1,97.9999970092774,8|2,0:0|0:0,0:0:0:0:
350,125,38894,1,2,0:0:0:0:
349,115,39000,1,0,3:2:0:0:
430,203,39211,1,0,0:0:0:0:
471,59,39422,1,8,0:0:0:0:
509,293,39633,6,0,P|462:288|409:284,1,97.9999970092774,2|0,0:0|3:2,0:0:0:0:
246,342,40056,1,2,0:0:0:0:
381,265,40267,1,8,0:0:0:0:
244,173,40479,1,2,0:0:0:0:
220,175,40585,1,2,0:0:0:0:
196,177,40691,1,2,3:2:0:0:
109,287,40901,1,0,0:0:0:0:
28,123,41112,2,0,P|26:98|36:76,2,48.9999985046387,8|0|0,0:0|3:2|0:0,0:0:0:0:
108,117,41535,5,6,3:2:0:0:
150,190,41746,1,0,0:0:0:0:
94,253,41957,1,2,0:0:0:0:
136,326,42169,2,0,L|205:333,1,70,0|8,0:0|0:0,0:0:0:0:
283,361,42591,1,0,0:0:0:0:
335,295,42802,1,2,0:0:0:0:
288,225,43014,1,2,0:0:0:0:
260,90,43225,5,0,3:2:0:0:
334,47,43436,2,0,L|340:116,1,70,8|0,0:0|0:0,0:0:0:0:
414,156,43858,1,0,0:0:0:0:
475,98,44069,1,8,0:0:0:0:
475,98,44493,1,0,0:0:0:0:
414,156,44704,1,2,0:0:0:0:
412,170,44810,1,2,0:0:0:0:
410,183,44915,5,6,3:2:0:0:
471,241,45126,1,0,0:0:0:0:
435,318,45338,1,2,0:0:0:0:
351,308,45549,2,0,L|282:315,1,70,0|8,0:0|0:0,0:0:0:0:
205,355,45971,1,0,0:0:0:0:
144,297,46182,1,2,0:0:0:0:
180,220,46394,1,0,0:0:0:0:
61,60,46605,5,0,3:2:0:0:
17,134,46816,2,0,L|86:140,1,70,8|0,0:0|3:2,0:0:0:0:
162,176,47239,1,2,0:0:0:0:
220,115,47450,1,8,0:0:0:0:
236,215,47662,1,8,0:0:0:0:
302,64,47873,1,2,0:0:0:0:
329,235,48084,1,2,0:0:0:0:
353,237,48190,1,2,0:0:0:0:
377,238,48295,6,0,P|425:241|474:246,1,97.9999970092774,6|0,0:0|0:0,0:0:0:0:
504,346,48718,1,8,0:0:0:0:
478,134,48929,1,2,0:0:0:0:
477,129,49035,1,2,0:0:0:0:
476,124,49140,2,0,P|426:121|382:167,1,97.9999970092774,2|0,3:2|0:0,0:0:0:0:
239,158,49563,2,0,L|248:255,1,97.9999970092774,10|2,0:0|0:0,0:0:0:0:
257,339,49880,1,2,0:0:0:0:
258,349,49986,5,2,3:2:0:0:
338,284,50197,1,0,0:0:0:0:
156,191,50408,1,10,0:0:0:0:
68,338,50619,2,0,L|19:344,1,48.9999985046387,2|2,0:0|0:0,0:0:0:0:
20,159,50830,2,0,P|16:112|45:73,1,97.9999970092774,2|2,3:2|0:0,0:0:0:0:
137,12,51253,1,8,0:0:0:0:
228,143,51464,1,2,0:0:0:0:
262,148,51570,1,2,0:0:0:0:
298,153,51676,5,2,3:2:0:0:
416,84,51887,1,2,0:0:0:0:
298,16,52098,1,10,0:0:0:0:
401,195,52310,2,0,P|401:225|389:260,1,52.5000020027161,2|2,0:0|0:0,0:0:0:0:
337,336,52521,2,0,P|377:362|433:343,1,105.000004005432,2|2,3:2|0:0,0:0:0:0:
507,264,52943,1,10,0:0:0:0:
285,234,53155,1,2,0:0:0:0:
251,240,53260,1,2,0:0:0:0:
215,245,53366,5,2,3:2:0:0:
30,274,53577,1,2,0:0:0:0:
169,337,53788,1,8,0:0:0:0:
189,147,54000,1,2,0:0:0:0:
194,111,54106,1,2,0:0:0:0:
199,77,54212,1,2,3:2:0:0:
14,7,54422,2,0,P|19:55|22:111,1,105.000004005432,2|10,0:0|0:0,0:0:0:0:
96,310,54845,6,0,P|149:322|193:291,1,112,4|0,0:0|0:0,0:0:0:0:
462,264,55267,1,2,0:0:0:0:
250,215,55479,1,10,0:0:0:0:
475,290,55690,1,0,0:0:0:0:
262,368,55901,1,2,3:2:0:0:
408,130,56112,2,0,P|413:71|421:18,1,112,2|8,0:0|0:0,0:0:0:0:
163,51,56535,1,2,0:0:0:0:
246,188,56746,5,0,3:2:0:0:
251,226,56852,1,0,3:2:0:0:
256,264,56957,1,2,3:2:0:0:
262,302,57063,1,0,3:2:0:0:
267,340,57168,1,8,0:0:0:0:
138,265,57380,5,2,3:2:0:0:
94,250,57486,1,0,3:2:0:0:
51,261,57591,1,2,3:2:0:0:
385,313,57802,5,0,3:2:0:0:
399,304,57908,1,0,3:2:0:0:
414,304,58014,2,0,L|410:333,6,26.2500010013581,8|0|0|0|0|0|0,0:0|0:0|0:0|0:0|0:0|0:0|0:0,0:0:0:0:
425,227,58436,5,6,0:0:0:0:
314,47,58648,2,0,P|355:41|392:71,1,83.9999974365235,2|0,0:0|0:0,0:0:0:0:
483,115,58859,2,0,B|437:126|405:93|405:93|362:86|334:127,1,167.999994873047,10|0,0:0|0:0,0:0:0:0:
214,350,59281,2,0,B|191:239|191:239|218:234|239:214,1,167.999994873047,2|0,3:2|0:0,0:0:0:0:
88,49,59704,1,10,0:0:0:0:
69,330,59915,2,0,B|52:290|52:290|64:238,1,83.9999974365235,2|0,0:0|0:0,0:0:0:0:
173,140,60126,6,0,P|89:148|5:155,1,167.999994873047,2|0,3:2|0:0,0:0:0:0:
323,327,60549,1,10,0:0:0:0:
404,339,60655,1,0,0:0:0:0:
485,351,60761,1,2,0:0:0:0:
474,107,60972,2,0,P|429:44|361:81,1,167.999994873047,2|0,3:2|0:0,0:0:0:0:
244,212,61288,1,0,0:0:0:0:
226,128,61394,2,0,B|271:112|316:135|289:157|335:182|387:164,1,167.999994873047,10|2,0:0|0:0,0:0:0:0:
464,196,61711,1,0,0:0:0:0:
489,316,61817,6,0,P|415:360|324:317,1,167.999994873047,2|0,3:2|0:0,0:0:0:0:
361,252,62133,1,0,0:0:0:0:
379,166,62239,1,10,0:0:0:0:
414,26,62450,2,0,P|373:18|339:41,1,83.9999974365235,2|0,0:0|0:0,0:0:0:0:
287,171,62662,2,0,B|175:148|175:148|158:172|164:204,1,167.999994873047,2|0,3:2|0:0,0:0:0:0:
29,25,63084,1,10,0:0:0:0:
48,180,63295,2,0,L|58:263,1,83.9999974365235,2|0,0:0|0:0,0:0:0:0:
172,314,63507,6,0,B|259:295|259:295|511:355,2,335.999989746094,2|10|2,3:2|0:0|3:2,0:0:0:0:
18,351,64563,2,0,P|1:314|8:267,1,83.9999974365235,2|0,0:0|0:0,0:0:0:0:
42,60,64774,1,10,0:0:0:0:
195,227,64986,2,0,P|163:201|116:195,1,83.9999974365235,2|0,0:0|0:0,0:0:0:0:
42,60,65197,6,0,B|153:37|153:37|158:64|178:85,1,167.999994873047,2|0,3:2|0:0,0:0:0:0:
320,122,65514,1,0,0:0:0:0:
287,19,65619,2,0,L|268:185,1,167.999994873047,8|2,0:0|0:0,0:0:0:0:
256,272,65936,1,0,0:0:0:0:
245,359,66042,1,2,3:2:0:0:
181,217,66253,1,2,0:0:0:0:
367,57,66464,1,10,0:0:0:0:
479,266,66676,2,0,P|445:242|404:248,1,83.9999974365235,2|0,0:0|0:0,0:0:0:0:
270,347,66887,6,0,B|298:306|341:313|341:313|373:346|419:335,1,167.999994873047,2|0,3:2|0:0,0:0:0:0:
510,354,67204,1,0,0:0:0:0:
479,266,67310,1,8,0:0:0:0:
497,82,67521,2,0,P|481:43|444:26,1,83.9999974365235,2|0,0:0|0:0,0:0:0:0:
313,172,67732,2,0,P|390:179|413:105,1,167.999994873047,2|0,3:2|0:0,0:0:0:0:
257,29,68155,1,10,0:0:0:0:
71,114,68366,1,2,0:0:0:0:
61,101,68472,1,2,0:0:0:0:
96,28,68577,6,0,L|111:205,1,167.999994873047,2|0,3:2|0:0,0:0:0:0:
16,359,69000,1,10,0:0:0:0:
2,260,69211,2,0,P|39:254|76:278,1,83.9999974365235,2|0,0:0|0:0,0:0:0:0:
195,323,69422,2,0,L|27:337,1,167.999994873047,2|2,3:2|0:0,0:0:0:0:
154,203,69845,1,8,0:0:0:0:
337,371,70056,1,2,0:0:0:0:
286,202,70267,5,2,3:2:0:0:
409,170,70373,1,8,0:0:0:0:
489,268,70479,1,2,0:0:0:0:
344,356,70690,1,8,0:0:0:0:
308,172,70901,5,2,3:2:0:0:
421,141,71007,1,2,3:2:0:0:
492,233,71112,1,2,3:2:0:0:
351,340,71324,1,2,0:0:0:0:
217,61,71535,5,10,0:0:0:0:
94,29,71641,1,8,0:0:0:0:
14,127,71747,1,2,0:0:0:0:
194,346,71957,5,6,0:0:0:0:
272,157,72169,2,0,P|305:133|346:139,1,83.9999974365235,2|0,0:0|0:0,0:0:0:0:
405,40,72380,2,0,P|391:122|383:206,1,167.999994873047,10|0,0:0|0:0,0:0:0:0:
506,320,72802,2,0,P|428:293|373:361,1,167.999994873047,2|0,3:2|0:0,0:0:0:0:
128,167,73225,1,10,0:0:0:0:
191,343,73436,2,0,P|224:319|265:325,1,83.9999974365235,2|0,0:0|0:0,0:0:0:0:
212,221,73648,6,0,B|231:109|231:109|203:105|182:85,1,167.999994873047,2|0,3:2|0:0,0:0:0:0:
35,195,74070,1,10,0:0:0:0:
23,276,74176,1,0,0:0:0:0:
11,357,74282,1,2,0:0:0:0:
182,85,74493,2,0,B|202:42|245:32|275:38|275:38|288:69|325:82,1,167.999994873047,2|0,3:2|0:0,0:0:0:0:
351,0,74810,1,0,0:0:0:0:
252,156,74915,2,0,P|265:238|273:322,1,167.999994873047,10|2,0:0|0:0,0:0:0:0:
341,374,75232,1,0,0:0:0:0:
356,291,75338,6,0,B|397:276|397:276|448:316|513:316,1,167.999994873047,2|0,3:2|0:0,0:0:0:0:
501,230,75654,1,0,0:0:0:0:
487,143,75760,1,10,0:0:0:0:
464,4,75972,2,0,P|423:-4|389:19,1,83.9999974365235,2|0,0:0|0:0,0:0:0:0:
211,158,76183,2,0,B|222:142|222:142|386:124,1,167.999994873047,2|0,3:2|0:0,0:0:0:0:
403,348,76605,1,10,0:0:0:0:
153,260,76816,2,0,L|70:270,1,83.9999974365235,2|0,0:0|0:0,0:0:0:0:
46,29,77028,6,0,B|65:116|65:116|5:368,2,335.999989746094,2|10|2,3:2|0:0|3:2,0:0:0:0:
165,72,78084,2,0,P|202:89|249:82,1,83.9999974365235,2|0,0:0|0:0,0:0:0:0:
348,39,78295,1,10,0:0:0:0:
255,233,78507,2,0,P|296:226|328:200,1,83.9999974365235,2|0,0:0|0:0,0:0:0:0:
348,39,78718,6,0,B|371:38|393:24|393:24|440:64|505:64,1,167.999994873047,2|0,3:2|0:0,0:0:0:0:
495,153,79035,1,0,0:0:0:0:
484,241,79141,1,8,0:0:0:0:
280,353,79352,2,0,B|263:313|263:313|275:261,1,83.9999974365235,2|0,0:0|0:0,0:0:0:0:
384,163,79563,2,0,P|300:171|216:178,1,167.999994873047,2|2,3:2|0:0,0:0:0:0:
6,299,79986,2,0,P|80:271|141:327,1,167.999994873047,8|2,0:0|0:0,0:0:0:0:
64,362,80302,1,0,0:0:0:0:
36,188,80408,6,0,B|21:79|21:79|43:62|57:24,1,167.999994873047,2|0,3:2|0:0,0:0:0:0:
136,26,80725,1,0,0:0:0:0:
147,146,80831,2,0,L|329:165,1,167.999994873047,8|2,0:0|0:0,0:0:0:0:
401,170,81148,1,0,0:0:0:0:
486,180,81253,2,0,B|501:221|501:221|461:272|461:337,1,167.999994873047,2|0,3:2|0:0,0:0:0:0:
246,320,81676,1,8,0:0:0:0:
351,331,81887,2,0,P|314:350|274:343,1,83.9999974365235,2|0,0:0|0:0,0:0:0:0:
133,303,82098,5,2,3:2:0:0:
300,237,82310,1,2,0:0:0:0:
196,375,82521,1,8,0:0:0:0:
272,139,82732,1,2,0:0:0:0:
197,164,82838,1,2,0:0:0:0:
122,188,82943,1,2,3:2:0:0:
271,334,83155,1,0,0:0:0:0:
31,258,83366,1,8,0:0:0:0:
307,314,83577,1,2,0:0:0:0:
405,324,83683,1,2,0:0:0:0:
503,333,83788,5,2,3:2:0:0:
487,130,84000,2,0,P|446:126|404:149,1,83.9999974365235,8|0,0:0|0:0,0:0:0:0:
347,9,84211,2,0,P|310:29|289:64,1,83.9999974365235,8|0,0:0|0:0,0:0:0:0:
263,224,84422,1,2,3:2:0:0:
91,132,84633,5,2,3:2:0:0:
83,221,84739,1,8,0:0:0:0:
71,311,84845,1,2,0:0:0:0:
6,84,85056,5,10,0:0:0:0:
33,206,85162,1,8,0:0:0:0:
62,326,85267,1,8,0:0:0:0:
300,131,85479,5,4,0:0:0:0:
459,182,85690,1,2,0:0:0:0:
424,18,85901,1,8,0:0:0:0:
326,233,86112,1,2,0:0:0:0:
330,267,86218,1,2,0:0:0:0:
335,301,86324,1,2,3:2:0:0:
459,182,86535,1,2,0:0:0:0:
248,294,86746,1,8,0:0:0:0:
488,346,86957,1,2,0:0:0:0:
493,312,87063,1,2,0:0:0:0:
497,278,87169,5,2,3:2:0:0:
438,151,87380,1,2,0:0:0:0:
299,168,87591,1,8,0:0:0:0:
272,306,87803,1,2,0:0:0:0:
395,374,88014,5,2,3:2:0:0:
438,151,88225,1,2,0:0:0:0:
272,306,88436,1,8,0:0:0:0:
497,278,88648,1,2,0:0:0:0:
299,168,88859,5,2,3:2:0:0:
169,352,89070,1,2,0:0:0:0:
92,344,89176,1,0,0:0:0:0:
15,337,89281,1,8,0:0:0:0:
75,196,89493,1,2,0:0:0:0:
109,192,89599,1,2,0:0:0:0:
143,187,89705,1,2,3:2:0:0:
24,63,89916,1,2,0:0:0:0:
136,274,90127,1,8,0:0:0:0:
249,30,90338,1,2,0:0:0:0:
215,26,90444,1,2,0:0:0:0:
181,21,90549,5,2,3:2:0:0:
252,188,90761,1,2,0:0:0:0:
361,43,90972,1,8,0:0:0:0:
166,124,91183,1,2,0:0:0:0:
455,152,91394,1,2,3:2:0:0:
249,30,91605,1,2,0:0:0:0:
356,261,91817,1,8,0:0:0:0:
505,57,92028,1,2,0:0:0:0:
236,130,92239,5,2,3:2:0:0:
322,103,92450,2,0,L|319:144,1,41.9999987182618
191,32,92662,1,8,0:0:0:0:
150,122,92873,1,0,0:0:0:0:
58,65,93084,1,2,3:2:0:0:
108,201,93295,1,0,0:0:0:0:
9,202,93507,1,8,0:0:0:0:
172,273,93718,1,0,0:0:0:0:
54,350,93929,5,2,3:2:0:0:
361,289,94141,1,2,0:0:0:0:
362,283,94246,1,2,0:0:0:0:
362,277,94352,2,0,L|369:213,1,41.9999987182618,8|0,0:0|0:0,0:0:0:0:
376,156,94563,2,0,L|383:92,1,41.9999987182618,2|0,0:0|0:0,0:0:0:0:
391,34,94774,5,4,3:2:0:0:
353,364,94986,1,4,0:0:0:0:
