osu file format v14

[General]
AudioFilename: audio.mp3
AudioLeadIn: 0
PreviewTime: 58331
Countdown: 0
SampleSet: Soft
StackLeniency: 0.5
Mode: 0
LetterboxInBreaks: 0
WidescreenStoryboard: 1

[Editor]
Bookmarks: 972,7732,14493,21253,28014,34774,41535,48295,55056,58436,58859,65197,71957,78718,85479,88436,90126,92239,95619
DistanceSpacing: 0.6
BeatDivisor: 8
GridSize: 4
TimelineZoom: 2.119999

[Metadata]
Title:Clover (Short Ver.)
TitleUnicode:クローバー (Short Ver.)
Artist:Duca
ArtistUnicode:Duca
Creator:Anze
Version:Cellina's Hard
Source:your diary+H
Tags:Cellina visual eroge novel opening anze hijiri cube cuffs video game op japanese pop jpop j-pop galge female vocal your's sound diary 安瀬 聖 ショートver.
BeatmapID:2836733
BeatmapSetID:1370434

[Difficulty]
HPDrainRate:4
CircleSize:3.5
OverallDifficulty:5.8
ApproachRate:7.5
SliderMultiplier:1.5
SliderTickRate:1

[Events]
//Background and Video events
0,0,"duca.jpg",0,0
//Break Periods
//Storyboard Layer 0 (Background)
//Storyboard Layer 1 (Fail)
//Storyboard Layer 2 (Pass)
//Storyboard Layer 3 (Foreground)
//Storyboard Layer 4 (Overlay)
//Storyboard Sound Samples

[TimingPoints]
972,422.535211267606,4,2,1,30,1,0
972,-125,4,2,1,30,0,0
6042,-100,4,2,1,70,0,0
14493,-100,4,2,1,60,0,0
41535,-100,4,2,1,50,0,0
48295,-100,4,2,1,60,0,0
51676,-100,4,2,1,65,0,0
54845,-100,4,2,1,75,0,0
58436,-90.9090909090909,4,2,1,85,0,1
85479,-90.9090909090909,4,2,1,70,0,0
92239,-90.9090909090909,4,2,1,55,0,0
94774,-90.9090909090909,4,2,1,65,0,0

[Colours]
Combo1 : 255,191,223
Combo2 : 249,254,186
Combo3 : 240,80,80
Combo4 : 248,211,171

[HitObjects]
58,22,972,6,0,P|88:138|102:211,1,180,2|0,3:2|0:0,0:0:0:0:
169,255,1817,2,0,P|116:244|49:290,1,120,10|0,0:0|3:2,0:0:0:0:
236,330,2662,2,0,B|367:309|314:400|471:367,1,240,2|10,3:2|0:0,0:0:0:0:
333,239,3929,1,0,3:2:0:0:
475,111,4352,6,0,P|463:206|461:256,1,120,2|0,3:2|3:2,0:0:0:0:
402,291,4986,1,0,0:0:0:0:
333,239,5197,2,0,P|325:207|306:166,1,60,8|0,0:0|0:0,0:0:0:0:
370,114,5619,2,0,P|343:100|314:91,1,60,2|0,3:2|0:0,0:0:0:0:
242,29,6042,6,0,P|122:61|70:68,2,150,6|10|10,3:2|0:0|0:0,0:0:0:0:
314,91,7098,1,0,3:2:0:0:
314,91,7204,1,0,3:2:0:0:
314,91,7310,2,0,P|302:150|299:180,1,75,10|0,0:0|0:0,0:0:0:0:
372,230,7732,6,0,P|283:217|223:264,1,150,6|8,0:0|0:0,0:0:0:0:
189,333,8366,1,2,0:0:0:0:
98,297,8577,2,0,P|105:252|108:210,1,75,2|2,3:2|0:0,0:0:0:0:
141,94,9000,5,8,0:0:0:0:
66,128,9211,2,0,P|154:125|202:177,1,150,2|2,0:0|0:0,0:0:0:0:
300,127,9845,2,0,P|290:176|287:227,1,75,8|2,0:0|0:0,0:0:0:0:
287,200,10162,1,2,0:0:0:0:
287,200,10267,2,0,P|347:189|369:185,1,75,2|2,3:2|0:0,0:0:0:0:
433,226,10690,1,8,0:0:0:0:
489,127,10901,5,2,0:0:0:0:
489,127,11007,1,2,0:0:0:0:
489,127,11112,2,0,P|442:116|407:105,1,75,2|2,3:2|0:0,0:0:0:0:
376,36,11535,1,8,0:0:0:0:
311,87,11746,2,0,P|232:85|189:23,1,150,2|2,0:0|0:0,0:0:0:0:
228,120,12379,1,8,0:0:0:0:
156,169,12591,6,0,P|120:162|83:156,1,75,2|0,3:2|3:2,0:0:0:0:
57,176,12908,1,8,0:0:0:0:
57,176,13014,1,8,0:0:0:0:
128,256,13225,2,0,L|83:262,2,37.5,8|8|2,0:0|0:0|3:2,0:0:0:0:
209,302,13648,6,0,P|202:344|192:378,1,75,8|8,0:0|3:2,0:0:0:0:
300,270,14070,2,0,P|289:234|284:197,1,75,8|0,3:2|3:2,0:0:0:0:
349,147,14493,6,0,P|414:185|489:168,1,150,6|10,3:2|0:0,0:0:0:0:
486,77,15126,1,2,0:0:0:0:
486,77,15232,1,2,0:0:0:0:
486,77,15338,2,0,P|437:63|391:44,1,75,2|2,3:2|0:0,0:0:0:0:
330,75,15760,1,8,0:0:0:0:
256,28,15972,6,0,P|140:44|87:49,1,150,2|2,0:0|0:0,0:0:0:0:
28,85,16605,2,0,P|19:128|9:167,1,75,8|2,0:0|0:0,0:0:0:0:
64,227,17028,1,0,3:2:0:0:
149,212,17239,1,2,0:0:0:0:
201,145,17450,2,0,P|253:156|295:157,1,75,10|2,0:0|0:0,0:0:0:0:
274,157,17767,1,2,0:0:0:0:
274,157,17873,6,0,P|315:93|297:26,1,150,2|8,3:2|0:0,0:0:0:0:
229,81,18507,1,2,0:0:0:0:
274,157,18718,2,0,P|291:200|302:250,1,75,2|2,3:2|0:0,0:0:0:0:
377,265,19141,2,0,P|364:326|343:370,1,75,8|2,0:0|0:0,0:0:0:0:
272,344,19563,6,0,P|215:352|189:357,1,75,0|2,3:2|0:0,0:0:0:0:
40,301,19986,2,0,P|76:306|113:313,1,75,8|2,0:0|0:0,0:0:0:0:
153,223,20408,2,0,P|175:195|174:151,1,75,0|2,3:2|0:0,0:0:0:0:
70,58,20831,2,0,P|70:94|93:124,1,75,8|2,0:0|0:0,0:0:0:0:
93,124,21148,1,2,0:0:0:0:
93,124,21253,6,0,P|162:114|246:101,1,150,2|10,3:2|0:0,0:0:0:0:
327,148,21887,1,2,0:0:0:0:
327,148,21993,1,2,0:0:0:0:
327,148,22098,2,0,P|320:197|315:236,1,75,2|2,3:2|0:0,0:0:0:0:
391,266,22521,2,0,P|398:315|403:354,1,75,8|2,0:0|0:0,0:0:0:0:
316,360,22943,6,0,P|232:341|160:334,1,150,2|8,3:2|0:0,0:0:0:0:
84,356,23577,1,2,0:0:0:0:
84,356,23683,1,0,0:0:0:0:
84,356,23788,2,0,P|72:303|64:274,1,75,2|2,3:2|0:0,0:0:0:0:
122,215,24211,1,10,0:0:0:0:
87,135,24422,1,2,0:0:0:0:
147,67,24633,6,0,P|130:159|120:223,2,150,2|8|2,3:2|0:0|3:2,0:0:0:0:
222,23,25690,2,0,P|271:33|300:37,1,75,2|10,0:0|0:0,0:0:0:0:
390,47,26112,1,2,0:0:0:0:
390,47,26218,1,2,0:0:0:0:
390,47,26324,6,0,P|362:99|354:149,1,75,2|8,3:2|0:0,0:0:0:0:
426,166,26746,1,8,0:0:0:0:
356,218,26957,2,0,L|317:206,2,37.5,2|2|0,3:2|3:2|3:2,0:0:0:0:
433,258,27380,1,2,3:2:0:0:
393,335,27591,2,0,P|348:341|303:353,1,75,8|2,3:2|0:0,0:0:0:0:
319,347,27908,1,2,0:0:0:0:
319,347,28014,6,0,P|237:342|165:336,1,150,2|10,3:2|0:0,0:0:0:0:
89,371,28648,1,2,0:0:0:0:
89,371,28753,1,2,0:0:0:0:
89,371,28859,2,0,P|77:320|65:286,1,75,2|2,3:2|0:0,0:0:0:0:
136,242,29281,1,8,0:0:0:0:
80,174,29493,6,0,P|162:215|234:199,1,150,2|2,0:0|0:0,0:0:0:0:
296,263,30126,2,0,P|301:315|306:352,1,75,8|2,0:0|0:0,0:0:0:0:
303,338,30443,1,0,0:0:0:0:
303,338,30549,2,0,P|346:327|395:316,1,75,2|0,3:2|0:0,0:0:0:0:
459,347,30972,1,10,0:0:0:0:
499,250,31183,1,2,0:0:0:0:
499,250,31288,1,2,0:0:0:0:
499,250,31394,6,0,P|479:174|464:97,1,150,2|10,3:2|0:0,0:0:0:0:
390,60,32028,2,0,L|397:16,2,37.5,2|2|2,0:0|0:0|3:2,0:0:0:0:
329,122,32450,1,2,0:0:0:0:
302,39,32662,1,8,0:0:0:0:
229,87,32873,6,0,P|119:65|61:53,1,150,2|2,0:0|0:0,0:0:0:0:
29,128,33507,2,0,P|39:183|47:223,1,75,8|0,0:0|0:0,0:0:0:0:
101,323,33929,2,0,P|108:286|115:250,1,75,2|2,3:2|0:0,0:0:0:0:
188,181,34352,1,10,0:0:0:0:
260,132,34563,1,2,0:0:0:0:
260,132,34669,1,2,0:0:0:0:
260,132,34774,6,0,P|344:167|411:158,1,150,2|10,3:2|0:0,0:0:0:0:
464,220,35408,2,0,P|496:175|506:131,1,75,2|2,0:0|3:2,0:0:0:0:
379,252,35831,1,2,0:0:0:0:
379,252,35936,1,0,0:0:0:0:
379,252,36042,2,0,P|396:294|412:335,1,75,8|2,0:0|0:0,0:0:0:0:
331,365,36464,6,0,P|246:341|173:330,1,150,2|10,3:2|0:0,0:0:0:0:
184,243,37098,2,0,P|138:255|90:281,1,75,2|0,0:0|0:0,0:0:0:0:
31,236,37521,1,2,0:0:0:0:
31,236,37626,1,0,0:0:0:0:
31,236,37732,2,0,P|22:188|18:140,1,75,10|2,0:0|0:0,0:0:0:0:
14,74,38155,6,0,P|70:121|166:111,1,150,2|8,3:2|0:0,0:0:0:0:
215,170,38788,2,0,P|231:117|231:75,1,75,2|0,0:0|3:2,0:0:0:0:
170,44,39211,1,0,0:0:0:0:
170,44,39422,1,8,0:0:0:0:
144,123,39633,6,0,P|256:141|321:160,1,150,2|2,0:0|0:0,0:0:0:0:
377,137,40267,2,0,P|388:192|397:227,1,75,8|2,0:0|0:0,0:0:0:0:
387,244,40584,1,2,0:0:0:0:
387,244,40690,5,2,3:2:0:0:
377,384,41112,1,8,0:0:0:0:
377,384,41218,1,0,3:2:0:0:
377,384,41324,1,0,0:0:0:0:
286,327,41535,6,0,P|218:336|140:373,1,150,6|2,3:2|0:0,0:0:0:0:
63,337,42169,1,0,0:0:0:0:
63,337,42380,2,0,P|48:293|39:249,1,75,8|0,0:0|0:0,0:0:0:0:
107,208,42802,2,0,P|119:172|128:136,1,75,2|2,0:0|0:0,0:0:0:0:
82,46,43225,6,0,P|134:97|208:100,1,150,0|0,3:2|0:0,0:0:0:0:
323,230,44070,2,0,P|335:186|346:141,1,75,8|0,0:0|0:0,0:0:0:0:
429,162,44493,2,0,P|419:126|409:90,1,75,0|2,0:0|0:0,0:0:0:0:
302,78,44915,6,0,P|231:104|159:124,1,150,6|2,3:2|0:0,0:0:0:0:
22,143,45549,1,0,0:0:0:0:
22,143,45760,2,0,P|77:186|88:193,1,75,8|0,0:0|0:0,0:0:0:0:
134,258,46183,2,0,P|177:267|213:275,1,75,2|0,0:0|0:0,0:0:0:0:
257,345,46605,6,0,P|301:327|351:310,1,75,0|8,3:2|0:0,0:0:0:0:
408,352,47028,1,0,3:2:0:0:
408,352,47239,2,0,P|432:315|457:274,1,75,2|8,0:0|0:0,0:0:0:0:
403,215,47662,1,8,0:0:0:0:
490,101,47873,2,0,P|485:140|479:176,1,75,2|2,0:0|0:0,0:0:0:0:
403,215,48295,6,0,P|335:155|269:140,1,150,6|8,0:0|0:0,0:0:0:0:
225,86,48929,1,2,0:0:0:0:
225,86,49035,1,2,0:0:0:0:
225,86,49141,2,0,P|174:102|141:110,1,75,2|0,3:2|0:0,0:0:0:0:
122,188,49563,2,0,P|87:176|51:166,1,75,10|2,0:0|0:0,0:0:0:0:
212,191,49986,6,0,P|196:264|177:336,1,150,2|10,3:2|0:0,0:0:0:0:
280,346,50619,1,2,0:0:0:0:
280,346,50725,1,2,0:0:0:0:
280,346,50831,2,0,P|336:335|365:332,1,75,2|2,3:2|0:0,0:0:0:0:
433,369,51253,1,8,0:0:0:0:
488,300,51464,1,2,0:0:0:0:
431,234,51676,6,0,P|419:187|409:146,1,75,2|2,3:2|0:0,0:0:0:0:
330,137,52098,1,10,0:0:0:0:
436,13,52310,2,0,P|421:103|412:172,1,150,2|2,0:0|0:0,0:0:0:0:
330,137,52943,2,0,L|328:100,2,37.5,10|0|2,0:0|0:0|0:0,0:0:0:0:
242,137,53366,6,0,P|258:210|268:284,1,150,2|8,3:2|0:0,0:0:0:0:
360,312,54000,1,2,0:0:0:0:
360,312,54105,1,2,0:0:0:0:
360,312,54211,2,0,P|368:258|379:218,1,75,2|2,3:2|0:0,0:0:0:0:
338,163,54633,1,10,0:0:0:0:
509,261,54845,6,0,P|497:323|492:349,1,75,4|0,0:0|0:0,0:0:0:0:
348,185,55267,1,2,0:0:0:0:
348,185,55479,2,0,P|387:178|427:169,1,75,10|0,0:0|0:0,0:0:0:0:
326,319,55900,1,2,3:2:0:0:
326,319,56112,2,0,P|277:310|241:307,1,75,2|8,0:0|0:0,0:0:0:0:
176,349,56535,1,2,0:0:0:0:
90,343,56746,5,0,3:2:0:0:
75,326,56852,1,0,3:2:0:0:
69,304,56957,1,2,3:2:0:0:
71,281,57063,1,0,3:2:0:0:
80,260,57169,2,0,P|87:208|96:160,1,75,8|2,0:0|0:0,0:0:0:0:
159,134,57591,2,0,P|154:96|148:59,1,75,2|0,3:2|3:2,0:0:0:0:
69,22,58014,2,0,L|15:29,2,37.5,8|0|0,0:0|0:0|0:0,0:0:0:0:
148,59,58436,6,0,P|199:52|256:43,1,82.5000025177003,6|2,0:0|0:0,0:0:0:0:
318,105,58859,2,0,P|358:111|399:116,1,82.5000025177003,10|0,0:0|0:0,0:0:0:0:
400,116,59176,1,0,0:0:0:0:
400,116,59281,2,0,P|388:172|384:219,1,82.5000025177003,2|0,3:2|0:0,0:0:0:0:
468,244,59704,1,10,0:0:0:0:
417,325,59915,1,2,0:0:0:0:
328,288,60126,6,0,P|250:300|205:375,1,165.000005035401,2|10,3:2|0:0,0:0:0:0:
118,325,60760,1,2,0:0:0:0:
118,325,60866,1,0,0:0:0:0:
118,325,60972,2,0,P|62:338|35:346,1,82.5000025177003,2|0,3:2|0:0,0:0:0:0:
167,205,61394,2,0,P|179:165|187:125,1,82.5000025177003,10|2,0:0|0:0,0:0:0:0:
73,227,61817,6,0,P|154:235|214:291,1,165.000005035401,2|10,3:2|0:0,0:0:0:0:
303,347,62450,1,2,0:0:0:0:
303,347,62556,1,0,0:0:0:0:
303,347,62662,2,0,P|354:335|416:312,1,82.5000025177003,2|0,3:2|0:0,0:0:0:0:
474,350,63084,2,0,P|486:310|495:270,1,82.5000025177003,10|2,0:0|0:0,0:0:0:0:
414,219,63507,6,0,P|327:229|249:288,2,165.000005035401,2|10|2,3:2|0:0|3:2,0:0:0:0:
376,111,64563,1,2,0:0:0:0:
466,143,64774,1,10,0:0:0:0:
455,48,64986,1,2,0:0:0:0:
455,48,65091,1,0,0:0:0:0:
455,48,65197,6,0,P|363:62|287:66,1,165.000005035401,2|8,3:2|0:0,0:0:0:0:
224,134,65831,1,2,0:0:0:0:
224,134,65936,1,0,0:0:0:0:
224,134,66042,2,0,P|210:196|206:241,1,82.5000025177003,2|2,3:2|0:0,0:0:0:0:
207,314,66464,1,10,0:0:0:0:
207,314,66676,6,0,P|294:328|356:280,1,165.000005035401,2|0,0:0|0:0,0:0:0:0:
406,205,67310,2,0,P|349:196|308:192,1,82.5000025177003,8|2,0:0|0:0,0:0:0:0:
329,199,67626,1,0,0:0:0:0:
325,195,67732,1,2,3:2:0:0:
247,138,67943,1,0,0:0:0:0:
159,178,68155,2,0,P|149:216|142:257,1,82.5000025177003,10|2,0:0|0:0,0:0:0:0:
68,338,68577,6,0,P|54:251|10:176,1,165.000005035401,2|10,3:2|0:0,0:0:0:0:
38,97,69211,1,2,0:0:0:0:
38,97,69317,1,0,0:0:0:0:
38,97,69422,2,0,P|80:66|133:43,1,82.5000025177003,2|2,3:2|0:0,0:0:0:0:
198,80,69845,2,0,P|211:138|223:194,1,82.5000025177003,8|2,0:0|0:0,0:0:0:0:
291,235,70267,5,2,3:2:0:0:
291,235,70373,1,8,0:0:0:0:
291,235,70479,2,0,P|351:222|374:218,1,82.5000025177003,2|8,0:0|0:0,0:0:0:0:
377,313,70901,2,0,P|417:320|457:329,1,82.5000025177003,2|2,3:2|3:2,0:0:0:0:
481,236,71324,1,2,0:0:0:0:
461,160,71535,1,10,0:0:0:0:
461,160,71641,1,8,0:0:0:0:
461,160,71746,1,2,0:0:0:0:
461,160,71852,1,0,0:0:0:0:
461,160,71957,6,0,P|456:107|449:62,1,82.5000025177003,6|2,0:0|0:0,0:0:0:0:
360,49,72380,2,0,P|354:89|350:130,1,82.5000025177003,10|0,0:0|0:0,0:0:0:0:
261,165,72802,2,0,P|292:240|285:321,1,165.000005035401,2|10,3:2|0:0,0:0:0:0:
191,339,73436,1,2,0:0:0:0:
106,292,73648,6,0,P|58:303|19:313,1,82.5000025177003,2|0,3:2|0:0,0:0:0:0:
6,217,74070,1,10,0:0:0:0:
60,141,74281,1,2,0:0:0:0:
60,141,74387,1,0,0:0:0:0:
60,141,74493,2,0,P|108:128|146:114,1,82.5000025177003,2|0,3:2|0:0,0:0:0:0:
225,158,74915,1,10,0:0:0:0:
269,73,75126,1,2,0:0:0:0:
318,155,75338,6,0,P|396:179|476:201,1,165.000005035401,2|10,3:2|0:0,0:0:0:0:
481,113,75972,1,2,0:0:0:0:
481,113,76077,1,0,0:0:0:0:
481,113,76183,2,0,P|436:101|386:90,1,82.5000025177003,2|0,3:2|0:0,0:0:0:0:
323,36,76605,1,10,0:0:0:0:
228,50,76817,1,2,0:0:0:0:
192,138,77028,6,0,P|109:147|28:158,2,165.000005035401,2|10|2,3:2|0:0|3:2,0:0:0:0:
222,228,78084,1,2,0:0:0:0:
165,304,78295,1,10,0:0:0:0:
255,361,78507,5,2,0:0:0:0:
255,361,78612,1,0,0:0:0:0:
255,361,78718,2,0,P|321:337|347:329,1,82.5000025177003,2|0,3:2|0:0,0:0:0:0:
332,333,79035,1,0,0:0:0:0:
332,333,79141,2,0,P|314:282|302:239,1,82.5000025177003,8|2,0:0|0:0,0:0:0:0:
334,163,79563,2,0,P|245:179|168:188,1,165.000005035401,2|8,3:2|0:0,0:0:0:0:
89,147,80197,1,2,0:0:0:0:
89,147,80408,6,0,P|75:90|69:57,1,82.5000025177003,2|0,3:2|0:0,0:0:0:0:
159,29,80831,1,8,0:0:0:0:
258,62,81042,1,2,0:0:0:0:
258,62,81148,1,0,0:0:0:0:
258,62,81253,2,0,P|319:72|367:76,1,82.5000025177003,2|0,3:2|0:0,0:0:0:0:
397,150,81676,1,8,0:0:0:0:
424,58,81887,6,0,P|450:136|467:216,1,165.000005035401,2|2,0:0|0:0,0:0:0:0:
364,347,82521,2,0,P|374:286|381:246,1,82.5000025177003,8|2,0:0|0:0,0:0:0:0:
382,270,82838,1,2,0:0:0:0:
378,266,82943,1,2,3:2:0:0:
331,155,83155,1,0,0:0:0:0:
257,215,83366,2,0,P|260:256|263:297,1,82.5000025177003,8|2,0:0|0:0,0:0:0:0:
170,278,83788,5,2,3:2:0:0:
104,347,84000,1,8,0:0:0:0:
42,275,84211,2,0,P|51:220|56:165,1,82.5000025177003,8|2,0:0|3:2,0:0:0:0:
63,100,84633,1,2,3:2:0:0:
63,100,84739,1,8,0:0:0:0:
63,100,84845,1,2,0:0:0:0:
63,100,84950,1,0,0:0:0:0:
63,100,85056,2,0,L|23:94,3,41.2500012588501,10|8|8|0,0:0|0:0|0:0|0:0,0:0:0:0:
86,107,85479,6,0,P|166:89|248:75,1,165.000005035401,4|8,0:0|0:0,0:0:0:0:
328,24,86112,1,2,0:0:0:0:
339,120,86324,2,0,P|332:174|322:222,1,82.5000025177003,2|2,3:2|0:0,0:0:0:0:
420,202,86746,2,0,P|427:243|432:284,1,82.5000025177003,8|2,0:0|0:0,0:0:0:0:
348,330,87169,6,0,P|309:318|269:306,1,82.5000025177003,2|2,3:2|0:0,0:0:0:0:
157,245,87591,2,0,P|196:234|235:221,1,82.5000025177003,8|2,0:0|0:0,0:0:0:0:
235,221,87908,1,0,0:0:0:0:
235,221,88014,2,0,P|256:172|271:127,1,82.5000025177003,2|2,3:2|0:0,0:0:0:0:
329,49,88436,2,0,P|344:87|361:125,1,82.5000025177003,8|2,0:0|0:0,0:0:0:0:
446,169,88859,6,0,P|427:249|397:325,1,165.000005035401,2|8,3:2|0:0,0:0:0:0:
304,350,89493,1,2,0:0:0:0:
225,295,89704,2,0,P|185:307|145:317,1,82.5000025177003,2|2,3:2|0:0,0:0:0:0:
45,249,90126,2,0,P|84:236|124:226,1,82.5000025177003,8|2,0:0|0:0,0:0:0:0:
218,205,90549,6,0,P|227:164|234:123,1,82.5000025177003,2|2,3:2|0:0,0:0:0:0:
312,247,90972,2,0,P|321:288|328:329,1,82.5000025177003,8|2,0:0|0:0,0:0:0:0:
328,329,91288,1,0,0:0:0:0:
328,329,91394,1,2,3:2:0:0:
417,362,91605,1,2,0:0:0:0:
489,299,91817,1,8,0:0:0:0:
446,213,92028,6,0,P|492:147|474:69,1,165.000005035401,2|0,0:0|0:0,0:0:0:0:
474,69,92556,1,0,0:0:0:0:
474,69,92662,1,8,0:0:0:0:
383,38,92873,1,0,0:0:0:0:
318,108,93084,2,0,P|277:101|236:96,1,82.5000025177003,2|0,3:2|0:0,0:0:0:0:
177,20,93507,2,0,P|136:24|95:32,1,82.5000025177003,8|0,0:0|0:0,0:0:0:0:
150,109,93929,5,2,3:2:0:0:
214,183,94141,1,2,0:0:0:0:
214,183,94246,1,2,0:0:0:0:
214,183,94352,2,0,L|271:177,3,41.2500012588501,8|0|2|0,0:0|0:0|0:0|0:0,0:0:0:0:
175,216,94774,5,4,3:2:0:0:
144,376,94986,1,4,0:0:0:0:
