osu file format v14

[General]
AudioFilename: audio.mp3
AudioLeadIn: 0
PreviewTime: 68441
Countdown: 0
SampleSet: Soft
StackLeniency: 0.4
Mode: 0
LetterboxInBreaks: 0
WidescreenStoryboard: 1

[Editor]
Bookmarks: 5704,11671,12711,26726,40740,54317,54755,68770,82784,95047,96799
DistanceSpacing: 2.4
BeatDivisor: 4
GridSize: 4
TimelineZoom: 1.6

[Metadata]
Title:Clearly (Short Ver.)
TitleUnicode:Clearly (Short Ver.)
Artist:Duca
ArtistUnicode:Duca
Creator:Riana
Version:KoldNoodl's Insane
Source:俺の姿が、透明に!? 不可視の薬と数奇な運命
Tags:俺不可視 ore no sugata ga toumei ni !? invisible to suuki na unmei japanese eroge galge visual novel vn video game pop jpop j-pop -luminate luminate hulotte len fast koldnoodl hoto cocoa lude interlude- seonah op opening galgame Puyo Suzuki 鈴木ぷよ
BeatmapID:3377510
BeatmapSetID:1104252

[Difficulty]
HPDrainRate:5.3
CircleSize:4
OverallDifficulty:7.5
ApproachRate:9
SliderMultiplier:1.8
SliderTickRate:1

[Events]
//Background and Video events
0,0,"20437ed9e2e56d5a01ec3487fde8bd1365d34283c145ffb43b7c7ebfa3431c4c.jpg",0,0
//Break Periods
//Storyboard Layer 0 (Background)
//Storyboard Layer 1 (Fail)
//Storyboard Layer 2 (Pass)
//Storyboard Layer 3 (Foreground)
//Storyboard Layer 4 (Overlay)
//Storyboard Sound Samples

[TimingPoints]
449,437.956204379562,4,2,1,45,1,0
1324,-125,4,2,1,45,0,0
2200,-111.111111111111,4,2,1,45,0,0
7565,-111.111111111111,4,2,1,45,0,0
9208,-111.111111111111,4,2,1,65,0,0
10959,-100,4,2,1,65,0,0
11835,-100,4,2,1,50,0,0
12711,-90.9090909090909,4,2,1,70,0,0
25084,-90.9090909090909,4,2,1,70,0,0
25850,-90.9090909090909,4,2,1,70,0,0
26726,-90.9090909090909,4,2,1,50,0,0
27383,-125,4,2,1,40,0,0
27602,-125,4,2,1,40,0,0
40740,-111.111111111111,4,2,1,60,0,0
54755,-111.111111111111,4,2,1,65,0,0
61324,-222.222222222222,4,2,1,65,0,0
61762,-111.111111111111,4,2,1,70,0,0
66142,-111.111111111111,4,2,1,75,0,0
68770,-90.9090909090909,4,2,1,80,0,0
82018,-90.9090909090909,4,2,1,80,0,0
82784,-90.9090909090909,4,2,1,80,0,0
89025,-90.9090909090909,4,2,1,80,0,0
89792,-90.9090909090909,4,2,1,80,0,0
95266,-90.9090909090909,4,2,1,80,0,0
96799,-90.9090909090909,4,2,1,70,0,0
109171,-90.9090909090909,4,2,1,70,0,0
111470,-90.9090909090909,4,2,1,70,0,0
112565,-90.9090909090909,4,2,1,70,0,0
114317,-90.9090909090909,4,2,1,70,0,0
116069,-90.9090909090909,4,2,1,70,0,0
117821,-90.9090909090909,4,2,1,5,0,0

[Colours]
Combo1 : 255,234,170
Combo2 : 204,221,221
Combo3 : 170,255,255
Combo4 : 251,174,186

[HitObjects]
39,292,1324,6,0,P|106:277|154:330,1,144
154,327,2200,6,0,P|201:318|254:308,1,80.9999975280762,6|0,2:2|0:0,0:0:0:0:
254,288,2529,1,2,0:0:0:0:
254,288,2638,2,0,P|301:297|354:307,1,80.9999975280762,0|2,0:0|0:0,0:0:0:0:
429,165,3076,2,0,P|371:154|324:190,1,121.499996292114,2|2,2:2|0:0,0:0:0:0:
151,155,3733,5,2,0:0:0:0:
254,288,3952,2,0,P|247:243|231:127,1,161.999995056153,2|0,2:2|0:0,0:0:0:0:
323,16,4609,2,0,P|401:7|454:65,1,161.999995056153,2|2,2:2|2:2,0:0:0:0:
324,190,5266,1,2,2:2:0:0:
372,89,5485,1,2,0:0:0:0:
215,42,5704,6,0,P|168:51|115:61,1,80.9999975280762,2|0,2:2|0:0,0:0:0:0:
115,81,6033,1,2,0:0:0:0:
115,81,6142,2,0,P|68:72|15:62,1,80.9999975280762,0|2,0:0|0:0,0:0:0:0:
144,174,6580,2,0,P|155:233|164:293,1,121.499996292114,2|2,2:2|0:0,0:0:0:0:
302,208,7237,1,2,0:0:0:0:
227,384,7456,6,0,P|229:364|232:344,5,40.4999987640381,2|0|0|0|0|0,3:2|3:3|3:3|3:3|3:3|3:3,0:0:0:0:
293,286,8113,1,0,3:3:0:0:
293,286,8222,2,0,P|332:286|367:261,1,80.9999975280763,0|0,3:3|3:3,0:0:0:0:
377,188,8551,5,0,3:3:0:0:
377,188,8660,1,0,3:3:0:0:
377,188,8770,2,0,P|422:203|429:207,1,40.4999987640381,2|0,3:2|3:3,0:0:0:0:
497,79,8989,1,0,3:3:0:0:
497,79,9208,6,0,P|457:74|423:94,1,80.9999975280763,6|0,3:2|0:2,0:0:0:0:
350,49,9536,1,2,0:0:0:0:
349,49,9646,2,0,P|309:42|269:36,1,80.9999975280763,0|2,3:0|0:2,0:0:0:0:
161,10,10084,6,0,P|170:50|178:99,1,80.9999975280763,2|2,3:2|0:2,0:0:0:0:
109,153,10412,2,0,P|102:113|93:73,1,80.9999975280763,2|0,0:2|0:2,0:0:0:0:
250,152,10740,1,2,0:2:0:0:
250,152,10959,6,0,P|219:169|201:182,1,45,2|0,3:2|0:0,0:0:0:0:
381,187,11178,2,0,P|381:151|379:129,1,45,0|8,3:2|0:0,0:0:0:0:
285,282,11397,2,0,P|316:300|336:309,1,45,2|0,3:2|0:0,0:0:0:0:
431,297,11616,5,8,2:2:0:0:
431,297,11689,1,8,2:2:0:0:
431,297,11762,1,8,2:2:0:0:
431,297,11835,2,0,P|365:302|332:362,2,135,2|2|2,3:2|3:2|3:2,0:0:0:0:
253,377,12711,6,0,B|211:376|188:339|188:339|152:330|117:358,1,148.50000453186,6|8,3:2|2:2,0:0:0:0:
40,384,13149,2,0,P|49:335|57:286,1,99.0000030212403,2|8,3:2|2:2,0:0:0:0:
45,260,13478,1,2,0:0:0:0:
45,260,13587,1,2,3:2:0:0:
262,184,13806,1,0,3:0:0:0:
159,262,14025,2,0,P|149:213|141:164,1,99.0000030212403,2|8,3:2|2:2,0:0:0:0:
246,26,14463,6,0,P|337:4|404:70,1,198.000006042481,2|2,3:2|3:2,0:0:0:0:
512,156,15120,1,10,2:2:0:0:
443,298,15339,5,2,3:2:0:0:
438,259,15448,1,2,2:2:0:0:
413,231,15557,1,2,0:2:0:0:
376,222,15667,1,10,2:2:0:0:
357,149,15777,5,2,3:2:0:0:
310,144,15886,1,2,0:2:0:0:
268,167,15995,1,10,2:2:0:0:
246,209,16105,1,10,2:2:0:0:
290,279,16215,6,0,B|208:269|246:213|161:210,1,148.50000453186,2|8,3:2|2:2,0:0:0:0:
65,149,16653,2,0,P|80:208|95:289,1,99.0000030212403,2|8,3:2|2:2,0:0:0:0:
52,313,16981,1,0,0:0:0:0:
52,313,17091,1,2,3:2:0:0:
242,384,17310,1,0,3:0:0:0:
242,384,17419,1,8,2:2:0:0:
242,384,17529,1,2,3:2:0:0:
159,287,17748,2,0,P|154:311|151:335,1,49.5000015106202,8|2,2:2|0:0,0:0:0:0:
302,199,17967,6,0,P|349:191|390:217,1,99.0000030212403,2|0,3:2|3:0,0:0:0:0:
373,297,18295,1,8,2:2:0:0:
373,297,18405,2,0,P|325:304|284:278,1,99.0000030212403,2|8,3:2|2:2,0:0:0:0:
306,87,18843,2,0,P|233:103|161:121,1,148.50000453186,2|8,3:2|2:2,0:0:0:0:
89,164,19281,2,0,P|84:141|75:112,1,49.5000015106202,2|0,3:2|0:0,0:0:0:0:
0,251,19500,1,8,2:2:0:0:
0,251,19719,6,0,B|85:257|35:311|140:324,1,148.50000453186,6|8,3:2|2:2,0:0:0:0:
183,377,20157,2,0,P|203:323|178:259,1,99.0000030212403,2|8,3:2|2:2,0:0:0:0:
172,260,20485,1,2,0:0:0:0:
172,260,20594,1,2,3:2:0:0:
328,185,20813,1,0,3:0:0:0:
328,185,20923,1,8,2:2:0:0:
328,185,21032,2,0,L|311:306,1,99.0000030212403,2|8,3:2|2:2,0:0:0:0:
375,101,21470,6,0,B|294:101|325:160|245:156,1,148.50000453186,2|8,3:2|2:2,0:0:0:0:
188,96,21908,2,0,P|166:147|176:199,1,99.0000030212403,2|10,3:2|2:2,0:0:0:0:
22,318,22346,5,2,3:2:0:0:
20,269,22455,1,2,0:2:0:0:
53,230,22564,1,2,0:2:0:0:
103,222,22674,1,10,2:2:0:0:
167,279,22784,5,2,3:2:0:0:
185,294,22893,1,2,0:2:0:0:
188,319,23002,1,10,2:2:0:0:
173,339,23112,1,10,2:2:0:0:
100,369,23222,6,0,P|91:296|75:212,1,148.50000453186,6|8,3:2|2:2,0:0:0:0:
11,173,23660,2,0,P|49:144|100:144,1,99.0000030212403,2|8,3:2|2:2,0:0:0:0:
308,203,24098,1,6,3:2:0:0:
308,203,24208,2,0,P|333:161|327:113,1,99.0000030212403,0|8,0:0|2:2,0:0:0:0:
389,66,24536,2,0,P|350:36|301:37,1,99.0000030212403,2|8,3:2|2:2,0:0:0:0:
218,243,24974,6,0,P|209:169|200:95,1,148.50000453186,6|2,3:2|3:2,0:0:0:0:
160,24,25412,2,0,P|141:40|128:62,1,49.5000015106202,2|2,3:2|3:2,0:0:0:0:
51,62,25631,2,0,P|54:86|64:108,1,49.5000015106202,8|2,2:2|3:2,0:0:0:0:
12,221,25850,5,6,3:2:0:0:
43,211,25959,1,8,2:2:0:0:
75,218,26068,1,8,2:2:0:0:
100,239,26178,1,8,2:2:0:0:
167,324,26288,5,2,3:2:0:0:
214,336,26397,1,8,2:2:0:0:
261,323,26507,1,8,2:2:0:0:
297,290,26616,1,8,2:2:0:0:
304,295,26726,5,4,0:0:0:0:
474,52,27383,5,2,0:0:0:0:
474,52,27602,2,0,P|468:97|464:147,1,72,2|2,2:2|0:0,0:0:0:0:
368,182,28040,1,2,0:0:0:0:
293,96,28259,2,0,P|227:113|208:179,1,144,2|0,2:2|0:0,0:0:0:0:
271,238,28916,1,2,0:0:0:0:
126,150,29135,2,0,P|88:164|48:177,2,72,2|2|2,0:0|2:2|0:0,0:0:0:0:
271,238,29792,2,0,P|265:288|261:329,1,72,2|2,2:2|0:0,0:0:0:0:
86,332,30230,6,0,P|117:270|186:266,1,144,2|2,2:2|0:0,0:0:0:0:
280,158,30886,2,0,P|341:189|345:258,1,144,2|2,2:2|0:0,0:0:0:0:
262,309,31543,1,2,0:0:0:0:
458,358,31762,2,0,P|444:287|431:216,1,144,2|2,2:2|0:0,0:0:0:0:
501,111,32419,1,2,0:0:0:0:
430,216,32638,2,0,P|395:215|366:194,1,72,2|0,2:2|0:0,0:0:0:0:
250,203,33076,2,0,P|258:139|268:48,1,144,2|2,0:0|2:2,0:0:0:0:
147,1,33733,6,0,P|83:5|56:94,1,144,6|2,2:2|0:0,0:0:0:0:
16,230,34390,2,0,P|77:209|166:190,1,144,2|2,2:2|2:2,0:0:0:0:
235,115,35047,1,2,0:0:0:0:
389,263,35266,2,0,P|376:205|350:98,1,144,2|2,2:2|0:0,0:0:0:0:
421,48,35923,1,2,0:0:0:0:
512,170,36142,2,0,P|476:162|442:152,1,72,2|0,2:2|0:0,0:0:0:0:
308,223,36580,2,0,B|273:244|237:218|237:218|217:180|170:183,1,144,2|2,2:2|2:2,0:0:0:0:
86,97,37237,6,0,P|100:165|116:260,1,144,2|2,2:2|0:0,0:0:0:0:
35,368,37894,2,0,P|58:335|161:333,1,144,2|2,2:2|0:0,0:0:0:0:
318,271,38551,1,2,0:0:0:0:
261,373,38770,5,2,3:2:0:0:
410,172,39208,1,2,3:2:0:0:
437,310,39646,2,0,P|367:318|317:270,1,144,2|2,3:2|2:2,0:0:0:0:
197,170,40303,2,0,P|232:162|267:155,1,72,2|2,2:2|3:2,0:0:0:0:
290,129,40594,5,2,3:2:0:0:
290,129,40667,1,2,3:2:0:0:
290,129,40740,2,0,P|329:137|369:144,1,80.9999975280763,6|0,3:2|0:0,0:0:0:0:
333,41,41178,1,8,2:2:0:0:
180,90,41397,1,2,3:2:0:0:
180,90,41507,1,2,3:2:0:0:
180,90,41616,2,0,P|189:131|198:178,2,80.9999975280763,2|2|10,3:2|2:2|2:2,0:0:0:0:
310,267,42273,6,0,P|229:260|179:320,1,161.999995056153,2|0,2:2|0:0,0:0:0:0:
0,262,42930,1,8,2:2:0:0:
94,384,43149,1,2,3:2:0:0:
94,384,43259,1,0,3:2:0:0:
94,384,43368,2,0,P|88:338|80:279,1,80.9999975280763,2|2,3:2|3:2,0:0:0:0:
196,169,43806,1,10,2:2:0:0:
35,111,44025,1,2,3:2:0:0:
115,229,44244,6,0,P|177:246|259:272,1,121.499996292114,2|0,3:2|0:0,0:0:0:0:
299,217,44682,1,10,2:2:0:0:
210,89,44901,2,0,P|202:133|193:181,1,80.9999975280763,2|0,3:2|3:2,0:0:0:0:
313,85,45339,1,2,2:2:0:0:
393,242,45558,1,10,2:2:0:0:
470,126,45777,6,0,P|393:151|341:166,1,121.499996292114,2|0,3:2|0:0,0:0:0:0:
299,217,46215,2,0,L|249:201,2,40.4999987640381,2|2|10,0:0|2:2|2:2,0:0:0:0:
487,306,46653,1,2,3:2:0:0:
486,278,46763,1,2,2:2:0:0:
470,260,46872,2,0,L|431:272,1,40.4999987640381,2|2,3:2|0:0,0:0:0:0:
309,368,47091,2,0,P|270:355|231:344,1,80.9999975280763,2|10,2:2|2:2,0:0:0:0:
105,198,47529,5,2,2:2:0:0:
105,198,47638,1,2,2:2:0:0:
105,198,47748,2,0,P|161:182|228:255,1,161.999995056153,6|8,3:2|2:2,0:0:0:0:
124,384,48405,1,2,3:2:0:0:
124,384,48514,1,2,3:2:0:0:
124,384,48624,2,0,P|136:323|143:284,1,80.9999975280763,2|2,3:2|2:2,0:0:0:0:
302,220,49062,1,10,2:2:0:0:
202,89,49281,6,0,P|213:156|227:249,1,161.999995056153,2|2,2:2|0:0,0:0:0:0:
282,316,49828,1,2,0:0:0:0:
282,316,49938,2,0,P|332:298|371:290,1,80.9999975280763,8|2,2:2|3:2,0:0:0:0:
451,137,50376,2,0,P|443:171|444:210,1,40.4999987640381,2|0,3:2|0:0,0:0:0:0:
493,264,50594,2,0,B|404:249|450:189|360:179,1,161.999995056153,2|2,3:2|3:2,0:0:0:0:
264,46,51251,6,0,P|206:70|119:92,1,121.499996292114,2|0,3:2|0:0,0:0:0:0:
149,86,51689,1,8,2:2:0:0:
33,249,51908,2,0,P|91:240|135:278,1,121.499996292114,2|0,3:2|0:0,0:0:0:0:
135,278,52346,2,0,P|178:268|214:255,1,80.9999975280763,2|8,3:2|2:2,0:0:0:0:
353,164,52784,6,0,P|339:223|328:282,1,121.499996292114,6|0,3:2|0:0,0:0:0:0:
373,351,53222,2,0,P|386:354|403:360,3,26.9999991760254,2|2|2|10,3:2|0:0|0:0|2:2,0:0:0:0:
271,166,53660,1,2,0:0:0:0:
271,166,53770,1,2,0:0:0:0:
271,166,53879,2,0,P|222:156|177:143,1,80.9999975280763,6|0,3:2|0:0,0:0:0:0:
116,375,54317,2,0,P|120:335|127:295,1,80.9999975280763,12|8,2:2|2:2,0:0:0:0:
67,245,54645,5,8,2:2:0:0:
67,245,54755,2,0,P|62:205|88:175,1,80.9999975280763,6|0,3:2|3:0,0:0:0:0:
66,104,55084,1,2,2:2:0:0:
66,104,55193,2,0,P|115:121|162:129,1,80.9999975280763,8|2,2:2|2:2,0:0:0:0:
336,218,55631,2,0,P|385:201|432:193,1,80.9999975280763,2|0,3:2|3:0,0:0:0:0:
490,177,55959,1,2,0:0:0:0:
490,177,56069,2,0,P|464:214|471:260,1,80.9999975280763,8|2,2:2|2:2,0:0:0:0:
512,369,56507,6,0,B|470:360|460:316|460:316|435:275|378:281,1,161.999995056153,2|10,3:2|2:2,0:0:0:0:
214,367,57164,1,2,0:2:0:0:
214,367,57273,1,2,0:0:0:0:
215,367,57383,2,0,P|253:357|278:326,1,80.9999975280763,2|2,3:2|0:2,0:0:0:0:
185,133,57821,2,0,P|196:192|206:252,1,121.499996292114,10|0,2:2|0:0,0:0:0:0:
206,252,58259,6,0,P|159:243|121:234,1,80.9999975280763,6|0,3:2|3:0,0:0:0:0:
57,270,58587,1,2,2:2:0:0:
56,269,58697,2,0,P|44:230|59:194,1,80.9999975280763,8|2,2:2|2:2,0:0:0:0:
59,45,59135,2,0,P|98:47|128:74,1,80.9999975280763,2|0,3:2|3:0,0:0:0:0:
185,133,59464,1,2,0:0:0:0:
185,133,59573,2,0,P|250:118|293:112,1,80.9999975280763,8|2,2:2|2:2,0:0:0:0:
399,27,60011,6,0,B|446:34|449:79|449:79|431:59|406:49,1,121.499996292114,2|0,3:2|0:0,0:0:0:0:
318,22,60448,2,0,P|332:72|351:145,1,121.499996292114,10|2,2:2|0:0,0:0:0:0:
336,215,60886,1,2,3:2:0:0:
336,215,60996,2,0,P|379:212|409:183,1,80.9999975280763,2|0,0:0|0:0,0:0:0:0:
277,299,61324,6,0,P|245:282|214:285,1,60.7499981460572,12|8,2:2|2:2,0:0:0:0:
117,212,61762,6,0,P|129:266|141:362,1,121.499996292114,6|2,3:2|3:2,0:0:0:0:
76,375,62200,2,0,P|50:330|64:288,1,80.9999975280763,8|2,2:2|0:0,0:0:0:0:
29,97,62638,2,0,P|103:76|156:132,1,161.999995056153,2|12,3:2|2:2,0:0:0:0:
324,97,63295,5,2,2:2:0:0:
258,172,63514,2,0,P|244:113|221:30,1,121.499996292114,6|2,3:2|3:2,0:0:0:0:
289,5,63952,2,0,P|350:16|402:25,1,80.9999975280763,8|2,2:2|0:0,0:0:0:0:
327,213,64390,2,0,P|282:252|223:248,1,121.499996292114,2|0,3:2|0:0,0:0:0:0:
145,267,64828,2,0,P|144:227|164:192,1,80.9999975280763,14|2,2:2|2:2,0:0:0:0:
206,332,65266,5,6,3:2:0:0:
241,160,65485,1,2,3:2:0:0:
80,120,65704,1,2,3:2:0:0:
145,267,65923,1,2,3:2:0:0:
198,57,66142,5,2,3:2:0:0:
234,41,66251,1,2,3:2:0:0:
274,44,66360,1,2,3:2:0:0:
309,64,66470,1,2,3:2:0:0:
331,98,66580,2,0,P|324:144|321:166,1,40.4999987640381,2|2,3:2|3:2,0:0:0:0:
145,267,66799,6,0,P|93:252|-8:231,1,121.499996292114,6|0,3:2|0:0,0:0:0:0:
138,354,67237,2,0,P|179:342|205:340,1,40.4999987640381,8|0,2:2|0:0,0:0:0:0:
161,184,67456,2,0,P|202:196|228:198,1,40.4999987640381,8|0,2:2|0:0,0:0:0:0:
389,272,67675,1,8,2:2:0:0:
389,272,67894,5,2,3:2:0:0:
344,249,68003,1,2,3:2:0:0:
295,257,68112,1,2,3:2:0:0:
259,292,68222,1,2,3:2:0:0:
250,341,68331,1,8,2:2:0:0:
469,226,68551,5,2,2:2:0:0:
469,226,68660,1,2,2:2:0:0:
469,226,68770,2,0,P|457:177|449:130,1,99.0000030212403,6|0,3:2|3:0,0:0:0:0:
388,71,69098,1,8,2:2:0:0:
388,71,69208,2,0,P|336:75|311:134,1,99.0000030212403,2|8,3:2|2:2,0:0:0:0:
161,216,69646,2,0,P|169:167|176:107,1,99.0000030212403,2|0,3:2|3:0,0:0:0:0:
102,54,69974,1,8,2:2:0:0:
102,54,70084,2,0,P|96:103|88:151,1,99.0000030212403,2|8,3:2|2:2,0:0:0:0:
268,354,70521,6,0,P|217:307|135:332,1,148.50000453186,10|8,2:2|2:2,0:0:0:0:
144,322,70959,1,2,3:2:0:0:
322,213,71178,2,0,P|329:236|335:261,1,49.5000015106202,8|2,2:2|0:0,0:0:0:0:
447,339,71397,2,0,P|455:288|475:180,1,148.50000453186,2|8,3:2|2:2,0:0:0:0:
472,192,71835,1,2,3:2:0:0:
281,19,72054,5,2,3:2:0:0:
256,60,72163,1,8,2:2:0:0:
267,107,72273,2,0,B|302:141|346:125|346:125|362:88|421:73,1,148.50000453186,6|10,3:2|2:2,0:0:0:0:
404,10,72711,2,0,P|447:32|465:77,1,99.0000030212403,0|10,3:2|2:2,0:0:0:0:
359,206,73149,1,2,3:2:0:0:
267,107,73368,2,0,P|253:140|249:175,1,49.5000015106202,2|8,0:0|2:2,0:0:0:0:
128,259,73587,2,0,P|94:202|146:131,1,148.50000453186,2|0,3:2|0:0,0:0:0:0:
98,70,74025,6,0,P|158:86|215:98,1,99.0000030212403,6|0,3:2|3:0,0:0:0:0:
250,153,74354,1,8,2:2:0:0:
250,153,74463,1,2,3:2:0:0:
128,259,74682,1,8,2:2:0:0:
239,384,74901,2,0,P|230:331|212:232,1,148.50000453186,2|2,3:2|3:2,0:0:0:0:
213,237,75339,2,0,P|267:249|312:252,1,99.0000030212403,8|8,2:2|2:2,0:0:0:0:
373,298,75667,5,8,2:2:0:0:
373,298,75777,2,0,P|423:282|482:270,1,99.0000030212403,6|2,3:2|3:2,0:0:0:0:
480,162,76105,1,8,2:2:0:0:
480,162,76215,2,0,P|422:162|391:231,1,99.0000030212403,0|2,3:0|3:2,0:0:0:0:
231,124,76653,2,0,P|224:77|261:30,1,99.0000030212403,6|0,3:2|3:0,0:0:0:0:
341,8,76981,1,2,3:2:0:0:
341,8,77091,2,0,P|330:59|327:82,1,49.5000015106202,8|0,2:2|0:0,0:0:0:0:
395,189,77310,2,0,P|371:186|348:176,1,49.5000015106202,10|0,2:2|0:0,0:0:0:0:
156,61,77529,6,0,P|111:105|39:86,1,99.0000030212403,6|2,3:2|2:2,0:0:0:0:
10,73,77857,1,2,3:2:0:0:
10,73,77967,2,0,P|27:129|33:177,1,99.0000030212403,6|10,3:2|0:2,0:0:0:0:
205,218,78405,2,0,P|188:274|182:322,1,99.0000030212403,6|8,3:2|2:2,0:0:0:0:
133,373,78733,1,8,2:2:0:0:
133,373,78843,1,2,3:2:0:0:
376,246,79062,5,8,2:2:0:0:
376,246,79171,1,8,2:2:0:0:
376,246,79281,1,2,3:2:0:0:
455,372,79500,1,10,2:2:0:0:
296,308,79719,2,0,P|287:275|277:246,1,49.5000015106202,2|2,3:2|0:2,0:0:0:0:
476,189,79938,2,0,P|468:212|462:236,1,49.5000015106202,10|10,2:2|2:2,0:0:0:0:
356,141,80157,2,0,P|345:91|331:39,1,99.0000030212403,2|2,3:2|0:0,0:0:0:0:
268,0,80485,2,0,P|214:5|186:50,1,99.0000030212403,2|0,3:2|0:0,0:0:0:0:
179,132,80813,2,0,P|231:116|254:110,1,49.5000015106202,10|0,2:2|0:0,0:0:0:0:
105,207,81032,6,0,P|86:138|70:68,1,99.0000030212403,6|0,3:2|3:0,0:0:0:0:
198,216,81361,1,2,3:2:0:0:
198,216,81470,2,0,P|185:264|172:311,1,99.0000030212403,8|2,2:2|3:2,0:0:0:0:
0,100,81908,5,6,3:2:0:0:
17,54,82017,1,8,2:2:0:0:
56,25,82126,1,8,2:2:0:0:
105,23,82236,1,8,2:2:0:0:
154,84,82346,5,8,2:2:0:0:
195,133,82455,1,8,2:2:0:0:
258,148,82564,1,8,2:2:0:0:
317,121,82674,1,8,2:2:0:0:
381,73,82784,6,0,P|436:86|485:95,1,99.0000030212403,6|0,3:2|3:0,0:0:0:0:
512,169,83113,1,8,2:2:0:0:
512,169,83222,2,0,P|484:213|482:270,1,99.0000030212403,2|8,3:2|2:2,0:0:0:0:
346,374,83660,2,0,P|331:312|314:271,1,99.0000030212403,2|0,3:2|3:0,0:0:0:0:
244,242,83989,1,8,2:2:0:0:
244,242,84098,2,0,P|192:262|139:277,1,99.0000030212403,2|8,3:2|2:2,0:0:0:0:
39,129,84536,6,0,P|107:111|159:160,1,148.50000453186,10|8,2:2|2:2,0:0:0:0:
159,160,84974,1,2,3:2:0:0:
266,86,85193,2,0,P|260:61|255:37,1,49.5000015106202,8|2,2:2|0:0,0:0:0:0:
384,189,85412,2,0,P|397:129|415:70,1,99.0000030212403,2|0,3:2|3:0,0:0:0:0:
367,33,85740,1,8,2:2:0:0:
367,33,85850,1,2,3:2:0:0:
503,143,86069,5,2,3:2:0:0:
503,143,86178,1,8,2:2:0:0:
503,143,86288,2,0,P|441:133|380:212,1,148.50000453186,6|8,3:2|2:2,0:0:0:0:
233,267,86726,2,0,B|322:282|271:340|369:352,1,148.50000453186,2|0,3:2|0:0,0:0:0:0:
512,284,87164,2,0,P|482:245|435:243,1,99.0000030212403,2|2,3:2|0:0,0:0:0:0:
363,269,87492,1,8,2:2:0:0:
363,269,87602,1,2,3:2:0:0:
225,353,87821,1,8,2:2:0:0:
138,232,88040,6,0,P|185:250|232:266,1,99.0000030212403,6|0,3:2|3:0,0:0:0:0:
297,207,88368,1,8,2:2:0:0:
297,207,88478,2,0,P|287:156|280:97,1,99.0000030212403,2|8,3:2|2:2,0:0:0:0:
144,22,88916,1,2,3:2:0:0:
70,168,89135,1,2,0:0:0:0:
149,142,89354,1,8,2:2:0:0:
128,111,89463,1,8,2:2:0:0:
97,91,89572,1,8,2:2:0:0:
61,85,89682,1,8,2:2:0:0:
25,95,89792,6,0,P|-6:131|-11:180,1,99.0000030212403,6|2,3:2|3:2,0:0:0:0:
0,270,90120,1,10,2:2:0:0:
0,270,90230,2,0,P|39:241|87:243,1,99.0000030212403,0|2,3:0|3:2,0:0:0:0:
221,341,90667,5,6,3:2:0:0:
167,226,90886,1,0,3:0:0:0:
324,122,91105,1,8,2:2:0:0:
277,252,91324,2,0,P|267:230|258:207,1,49.5000015106202,10|0,2:2|0:0,0:0:0:0:
424,84,91543,2,0,P|412:133|403:181,1,99.0000030212403,6|2,3:2|2:2,0:0:0:0:
366,253,91872,1,2,3:2:0:0:
366,253,91981,2,0,P|417:263|469:277,1,99.0000030212403,6|10,3:2|0:2,0:0:0:0:
355,45,92419,6,0,P|284:42|239:98,1,148.50000453186,6|8,3:2|2:2,0:0:0:0:
171,184,92857,2,0,P|163:135|151:87,1,99.0000030212403,2|8,3:2|2:2,0:0:0:0:
272,198,93295,5,6,3:2:0:0:
82,142,93514,1,8,2:2:0:0:
216,25,93733,1,2,3:2:0:0:
171,184,93952,2,0,P|159:228|155:255,1,49.5000015106202,8|8,2:2|0:0,0:0:0:0:
279,350,94171,5,2,3:2:0:0:
321,358,94281,1,2,3:2:0:0:
362,341,94389,1,2,3:2:0:0:
385,305,94499,1,2,3:2:0:0:
462,279,94609,5,8,2:2:0:0:
464,199,94718,1,8,2:2:0:0:
407,142,94827,1,8,2:2:0:0:
327,143,94938,1,0,3:0:0:0:
272,198,95047,1,6,3:2:0:0:
323,275,96799,6,0,P|275:264|155:247,1,148.50000453186,6|8,3:2|2:2,0:0:0:0:
105,270,97237,2,0,P|135:233|132:185,1,99.0000030212403,2|8,3:2|2:2,0:0:0:0:
85,122,97565,1,2,0:0:0:0:
85,122,97675,1,2,3:2:0:0:
325,55,97894,1,0,3:0:0:0:
184,25,98113,2,0,P|202:92|216:158,1,99.0000030212403,2|8,3:2|2:2,0:0:0:0:
445,241,98551,6,0,P|379:171|286:192,1,198.000006042481,2|2,3:2|3:2,0:0:0:0:
160,304,99208,1,10,2:2:0:0:
257,311,99427,5,2,3:2:0:0:
256,281,99536,1,2,2:2:0:0:
243,254,99645,1,2,0:2:0:0:
221,235,99755,1,10,2:2:0:0:
166,176,99865,5,2,3:2:0:0:
113,178,99974,1,2,0:2:0:0:
74,212,100083,1,10,2:2:0:0:
65,263,100193,1,10,2:2:0:0:
133,327,100303,6,0,B|175:344|208:304|208:304|210:265|268:240,1,148.50000453186,2|8,3:2|2:2,0:0:0:0:
276,185,100740,2,0,P|310:221|316:270,1,99.0000030212403,2|8,3:2|2:2,0:0:0:0:
302,308,101069,1,2,0:0:0:0:
302,308,101178,1,2,3:2:0:0:
505,244,101397,1,0,3:0:0:0:
505,244,101507,1,8,2:2:0:0:
505,244,101616,1,2,3:2:0:0:
420,351,101835,2,0,P|409:313|406:275,1,49.5000015106202,8|2,2:2|0:0,0:0:0:0:
512,145,102054,6,0,P|504:196|500:265,1,99.0000030212403,2|0,3:2|3:0,0:0:0:0:
421,204,102383,1,8,2:2:0:0:
421,204,102492,2,0,P|428:155|432:105,1,99.0000030212403,2|8,3:2|2:2,0:0:0:0:
270,0,102930,2,0,P|195:-4|144:81,1,148.50000453186,2|8,3:2|2:2,0:0:0:0:
64,49,103368,2,0,P|71:72|77:96,1,49.5000015106202,2|0,3:2|0:0,0:0:0:0:
189,159,103587,1,8,2:2:0:0:
189,159,103806,6,0,P|179:222|166:328,1,148.50000453186,6|8,3:2|2:2,0:0:0:0:
190,384,104244,2,0,P|141:385|101:351,1,99.0000030212403,2|8,3:2|2:2,0:0:0:0:
89,326,104573,1,2,0:0:0:0:
89,326,104682,1,2,3:2:0:0:
1,188,104901,1,0,3:0:0:0:
1,188,105011,1,8,2:2:0:0:
1,188,105120,2,0,P|62:199|103:210,1,99.0000030212403,2|8,3:2|2:2,0:0:0:0:
256,304,105558,6,0,B|341:295|297:238|408:232,1,148.50000453186,2|8,3:2|2:2,0:0:0:0:
432,175,105996,2,0,P|460:239|447:279,1,99.0000030212403,2|10,3:2|2:2,0:0:0:0:
284,181,106434,5,2,3:2:0:0:
289,131,106543,1,2,0:2:0:0:
295,82,106652,1,2,0:2:0:0:
302,33,106762,1,10,2:2:0:0:
381,2,106872,5,2,3:2:0:0:
419,0,106981,1,2,0:2:0:0:
452,22,107090,1,10,2:2:0:0:
468,57,107200,1,10,2:2:0:0:
489,132,107310,6,0,B|440:125|417:154|417:154|411:195|354:220,1,148.50000453186,6|8,3:2|2:2,0:0:0:0:
302,278,107748,2,0,P|292:220|281:169,1,99.0000030212403,2|8,3:2|2:2,0:0:0:0:
169,21,108186,1,6,3:2:0:0:
169,21,108295,2,0,P|96:20|68:74,1,99.0000030212403,0|8,0:0|2:2,0:0:0:0:
2,32,108624,2,0,P|12:80|20:129,1,99.0000030212403,2|8,3:2|2:2,0:0:0:0:
139,258,109062,5,6,3:2:0:0:
139,258,109171,1,2,3:2:0:0:
139,258,109281,1,8,0:2:0:0:
139,258,109390,1,2,3:2:0:0:
139,258,109500,1,2,3:2:0:0:
116,300,109609,1,2,3:2:0:0:
70,316,109718,1,8,2:2:0:0:
26,297,109828,1,2,3:2:0:0:
6,253,109938,1,6,3:2:0:0:
15,188,110047,1,8,2:2:0:0:
60,141,110156,1,8,2:2:0:0:
124,129,110266,1,8,2:2:0:0:
195,145,110375,1,2,3:2:0:0:
242,201,110484,1,8,2:2:0:0:
316,241,110594,1,8,2:2:0:0:
407,209,110704,1,8,2:2:0:0:
339,78,111032,5,8,3:2:0:0:
339,78,111142,1,0,3:0:0:0:
339,78,111251,1,6,3:2:0:0:
256,192,111361,12,0,117821,0:0:0:0:
