osu file format v14

[General]
AudioFilename: audio.mp3
AudioLeadIn: 0
PreviewTime: 64921
Countdown: 0
SampleSet: Soft
StackLeniency: 0.7
Mode: 0
LetterboxInBreaks: 0
WidescreenStoryboard: 0

[Editor]
DistanceSpacing: 0.8
BeatDivisor: 4
GridSize: 32
TimelineZoom: 1.9

[Metadata]
Title:Brightest star
TitleUnicode:Brightest star
Artist:Duca
ArtistUnicode:Duca
Creator:Shunao
Version:Sparkling Star
Source:星の乙女と六華の姉妹
Tags:Hoshi no Otome to Rikka no Shimai ensemble game ANZIE visual novel vn opening op japanese video game jpop pop j-pop eroge shogunmoon
BeatmapID:3411152
BeatmapSetID:1670126

[Difficulty]
HPDrainRate:6
CircleSize:4
OverallDifficulty:8.5
ApproachRate:9
SliderMultiplier:1.9
SliderTickRate:1

[Events]
//Background and Video events
0,0,"1.jpg",0,0
//Break Periods
//Storyboard Layer 0 (Background)
//Storyboard Layer 1 (Fail)
//Storyboard Layer 2 (Pass)
//Storyboard Layer 3 (Foreground)
//Storyboard Layer 4 (Overlay)
//Storyboard Sound Samples

[TimingPoints]
263,372.670807453416,4,2,2,35,1,0
1753,-166.666666666667,4,2,2,35,0,0
7716,-111.111111111111,4,2,2,50,0,0
13679,-100,4,2,2,60,0,0
25511,-100,4,2,2,5,0,0
25604,-142.857142857143,4,2,2,45,0,0
36039,-111.111111111111,4,2,2,50,0,0
37530,-100,4,2,2,55,0,0
49455,-125,4,2,2,50,0,0
55418,-100,4,2,2,50,0,0
61381,-100,4,2,2,60,0,0
64362,-100,4,2,2,45,0,0
65107,-125,4,2,2,50,0,0
65387,-100,4,2,2,5,0,0
65480,-100,4,2,2,50,0,0
65853,-83.3333333333333,4,2,2,80,0,1
89703,-100,4,2,2,60,0,0
101629,-250,4,2,2,50,0,0
107592,-250,4,2,2,5,0,0

[Colours]
Combo1 : 255,128,192
Combo2 : 206,9,68
Combo3 : 131,167,252
Combo4 : 185,118,245

[HitObjects]
74,348,1753,6,0,P|101:338|128:259,1,113.999996520996,2|2,1:3|1:3,0:0:0:0:
226,353,2312,2,0,P|254:346|283:346,1,56.9999982604981,0|2,0:0|1:3,0:0:0:0:
289,255,2685,1,0,0:0:0:0:
289,255,2871,2,0,P|324:267|347:288,1,56.9999982604981,2|0,1:3|0:0,0:0:0:0:
423,367,3244,6,0,P|381:328|386:267,1,113.999996520996,2|2,1:3|1:3,0:0:0:0:
503,202,3803,2,0,L|493:258,1,56.9999982604981,0|2,0:0|1:3,0:0:0:0:
386,138,4176,1,0,0:0:0:0:
386,138,4362,2,0,L|394:210,1,56.9999982604981,8|0,0:0|0:0,0:0:0:0:
477,67,4735,6,0,P|442:37|368:25,1,113.999996520996,2|2,1:3|1:3,0:0:0:0:
232,87,5294,2,0,L|241:154,1,56.9999982604981,0|2,0:0|1:3,0:0:0:0:
118,192,5666,2,0,L|122:127,1,56.9999982604981,0|2,0:0|1:3,0:0:0:0:
28,245,6039,6,0,P|60:282|133:292,1,113.999996520996,0|0,0:0|0:0,0:0:0:0:
287,215,6598,2,0,P|273:263|263:313,1,85.4999973907472,2|0,1:3|0:0,0:0:0:0:
328,365,6971,5,8,1:2:0:0:
353,376,7064,1,0,1:0:0:0:
382,378,7157,1,0,1:0:0:0:
408,368,7250,1,0,1:0:0:0:
431,351,7343,5,8,1:2:0:0:
430,322,7436,1,0,1:0:0:0:
440,296,7530,1,0,1:0:0:0:
459,274,7623,1,0,1:0:0:0:
498,257,7716,6,0,P|455:245|402:238,1,85.4999973907472,6|0,1:2|1:0,0:0:0:0:
234,213,8089,1,10,0:0:0:0:
374,74,8275,1,2,1:2:0:0:
374,74,8368,1,8,0:0:0:0:
374,74,8461,2,0,L|359:194,1,85.4999973907472,2|0,1:2|1:0,0:0:0:0:
284,311,8834,1,10,0:0:0:0:
110,181,9020,6,0,P|160:124|262:135,1,170.999994781494,2|0,0:0|1:0,0:0:0:0:
104,53,9579,1,10,0:0:0:0:
204,214,9766,1,2,1:2:0:0:
204,214,9859,1,8,0:0:0:0:
204,214,9952,2,0,L|301:205,1,85.4999973907472,2|0,1:2|1:0,0:0:0:0:
476,263,10325,1,8,0:0:0:0:
289,352,10511,1,2,1:2:0:0:
289,352,10604,1,8,0:0:0:0:
289,352,10697,5,2,0:0:0:0:
381,172,10884,1,0,1:0:0:0:
472,375,11070,1,10,0:0:0:0:
377,272,11256,1,0,1:0:0:0:
377,272,11349,1,8,0:0:0:0:
377,272,11443,2,0,L|319:263,1,42.7499986953736,2|8,1:2|0:0,0:0:0:0:
220,244,11629,1,0,1:0:0:0:
83,137,11815,1,10,0:0:0:0:
273,78,12002,1,0,1:0:0:0:
84,235,12188,6,0,P|74:174|55:72,1,128.249996086121,14|0,0:0|0:0,0:0:0:0:
38,8,12561,1,10,0:0:0:0:
192,92,12747,5,0,1:0:0:0:
234,96,12840,1,8,0:0:0:0:
273,78,12933,1,2,3:0:0:0:
296,42,13026,1,8,0:0:0:0:
298,0,13119,1,8,0:0:0:0:
99,22,13306,5,2,3:0:0:0:
60,40,13399,1,8,0:0:0:0:
34,73,13492,1,2,3:0:0:0:
26,114,13585,1,2,3:0:0:0:
37,154,13679,6,0,L|132:165,1,95,14|2,0:0|1:2,0:0:0:0:
296,42,14051,1,10,0:0:0:0:
265,263,14238,2,0,P|248:210|242:156,1,95,2|8,1:2|0:0,0:0:0:0:
379,106,14610,1,2,1:2:0:0:
404,235,14797,1,10,0:0:0:0:
213,154,14983,6,0,P|103:140|8:136,1,190,2|2,1:2|1:2,0:0:0:0:
153,256,15542,1,8,0:0:0:0:
353,216,15728,2,0,P|399:208|474:200,1,95,2|8,1:2|0:0,0:0:0:0:
419,38,16101,1,2,1:2:0:0:
288,149,16287,1,8,0:0:0:0:
472,209,16474,1,2,1:2:0:0:
267,125,16660,6,0,P|224:111|157:116,1,95,8|2,0:0|1:2,0:0:0:0:
5,178,17033,1,10,0:0:0:0:
184,321,17219,2,0,L|203:222,1,95,2|8,1:2|0:0,0:0:0:0:
82,97,17592,1,2,1:2:0:0:
68,276,17778,1,8,0:0:0:0:
290,216,17964,6,0,P|372:218|414:317,1,190,2|2,1:2|1:2,0:0:0:0:
291,379,18523,1,8,0:0:0:0:
101,292,18710,2,0,L|203:280,1,95,2|8,1:2|0:0,0:0:0:0:
235,108,19082,1,2,1:2:0:0:
66,198,19268,1,8,0:0:0:0:
220,287,19455,1,2,1:2:0:0:
137,90,19641,6,0,L|148:205,1,95,8|2,0:0|1:2,0:0:0:0:
0,119,20014,1,8,0:0:0:0:
112,0,20200,2,0,P|160:-3|205:26,1,95,2|8,1:2|0:0,0:0:0:0:
307,144,20573,1,2,1:2:0:0:
146,184,20759,1,8,0:0:0:0:
296,37,20946,6,0,P|285:135|279:238,1,190,2|2,1:2|1:2,0:0:0:0:
339,368,21505,1,8,0:0:0:0:
512,265,21691,2,0,P|468:255|415:246,1,95,2|8,1:2|0:0,0:0:0:0:
279,226,22064,1,2,1:2:0:0:
339,368,22250,1,10,0:0:0:0:
332,164,22436,6,0,P|253:145|195:227,1,190,2|2,1:2|1:2,0:0:0:0:
69,79,22995,2,0,L|82:186,1,95,8|2,0:0|1:2,0:0:0:0:
182,319,23368,2,0,L|196:210,1,95,8|2,0:0|1:2,0:0:0:0:
332,164,23741,1,10,0:0:0:0:
469,369,23927,5,10,1:2:0:0:
416,305,24300,1,10,1:2:0:0:
375,234,24672,1,10,1:2:0:0:
332,164,25045,1,10,1:2:0:0:
61,313,25231,2,0,P|109:267|190:280,1,142.5,10|0,0:0|0:0,0:0:0:0:
267,327,25604,5,4,1:2:0:0:
227,183,25977,1,0,1:0:0:0:
227,183,26163,2,0,P|242:111|260:47,1,132.999995941162,2|2,0:0|0:0,0:0:0:0:
112,28,26722,1,0,1:0:0:0:
112,28,26908,6,0,P|125:85|137:174,1,132.999995941162,2|2,0:0|0:0,0:0:0:0:
159,290,27467,1,2,1:2:0:0:
299,198,27654,2,0,P|287:239|281:291,1,66.4999979705811,2|0,0:0|1:0,0:0:0:0:
265,372,28026,1,2,0:0:0:0:
122,380,28213,2,0,P|93:369|51:355,1,66.4999979705811,8|2,0:0|0:0,0:0:0:0:
25,336,28492,1,0,0:0:0:0:
25,336,28585,5,2,1:2:0:0:
154,259,28958,1,2,1:2:0:0:
154,259,29144,2,0,P|220:248|288:241,1,132.999995941162,2|2,0:0|0:0,0:0:0:0:
427,259,29703,1,2,1:2:0:0:
345,108,29890,6,0,P|350:143|356:196,1,66.4999979705811,2|2,0:0|1:2,0:0:0:0:
444,78,30262,1,0,0:0:0:0:
305,22,30449,1,2,1:2:0:0:
305,22,30635,2,0,P|242:15|172:4,1,132.999995941162,2|2,0:0|0:0,0:0:0:0:
24,59,31194,1,8,0:0:0:0:
177,162,31381,1,0,1:0:0:0:
177,162,31474,1,0,1:0:0:0:
177,162,31567,5,2,1:2:0:0:
131,19,31753,1,2,0:0:0:0:
55,161,31940,1,2,1:2:0:0:
55,161,32126,2,0,L|70:302,1,132.999995941162,2|2,0:0|0:0,0:0:0:0:
171,347,32685,2,0,L|181:264,1,66.4999979705811,0|0,1:0|0:0,0:0:0:0:
303,232,33058,6,0,L|312:314,1,66.4999979705811,2|0,1:2|0:0,0:0:0:0:
427,329,33430,1,2,1:2:0:0:
427,329,33617,2,0,L|416:242,1,66.4999979705811,2|0,0:0|1:0,0:0:0:0:
353,144,33989,1,2,0:0:0:0:
510,187,34176,1,8,0:0:0:0:
448,57,34362,1,2,0:0:0:0:
448,57,34455,1,0,1:0:0:0:
448,57,34548,6,0,P|379:47|305:39,1,132.999995941162,2|2,1:2|1:2,0:0:0:0:
132,84,35107,1,2,1:2:0:0:
132,84,35200,1,0,1:0:0:0:
132,84,35294,1,2,1:2:0:0:
266,159,35480,1,0,0:0:0:0:
205,3,35666,1,8,0:0:0:0:
299,236,35853,5,12,0:0:0:0:
339,312,36225,1,12,0:0:0:0:
386,383,36598,2,0,L|488:372,1,85.4999973907472,12|0,0:0|0:0,0:0:0:0:
512,248,36971,1,4,0:0:0:0:
250,349,37157,1,8,0:0:0:0:
250,349,37250,1,8,0:0:0:0:
250,349,37343,1,10,0:0:0:0:
250,349,37436,1,8,0:0:0:0:
250,349,37530,6,0,L|146:341,1,95,4|2,1:2|0:0,0:0:0:0:
22,286,37902,1,8,0:0:0:0:
159,140,38089,2,0,P|146:185|131:252,1,95,2|0,0:0|1:0,0:0:0:0:
250,349,38461,1,2,0:0:0:0:
137,261,38648,1,8,0:0:0:0:
314,161,38834,6,0,P|301:85|176:70,1,190,2|2,0:0|1:2,0:0:0:0:
230,208,39393,1,8,0:0:0:0:
412,157,39579,2,0,P|426:259|437:355,1,190,2|2,1:2|0:0,0:0:0:0:
277,342,40138,2,0,P|327:353|365:378,1,95,8|2,0:0|0:0,0:0:0:0:
308,187,40511,6,0,P|276:144|263:42,1,142.5,0|0,1:0|0:0,0:0:0:0:
264,12,40884,1,8,0:0:0:0:
71,147,41070,2,0,P|119:141|183:136,1,95,2|0,0:0|1:0,0:0:0:0:
354,79,41443,1,2,1:2:0:0:
437,246,41629,1,8,0:0:0:0:
211,217,41815,6,0,P|164:221|116:227,1,95,2|0,1:2|0:0,0:0:0:0:
367,107,42188,1,2,0:0:0:0:
455,287,42374,1,8,0:0:0:0:
176,303,42561,6,0,P|224:297|288:292,1,95,2|0,1:2|0:0,0:0:0:0:
380,140,42934,1,2,0:0:0:0:
468,320,43120,1,8,0:0:0:0:
296,377,43306,1,0,1:0:0:0:
296,377,43399,1,0,1:0:0:0:
296,377,43492,6,0,P|357:326|467:352,1,190,0|8,1:2|0:0,0:0:0:0:
344,240,44051,1,2,0:0:0:0:
504,169,44238,2,0,L|399:160,1,95,0|2,1:0|0:0,0:0:0:0:
332,52,44610,2,0,L|432:45,1,95,8|2,0:0|0:0,0:0:0:0:
261,159,44983,6,0,P|213:108|249:0,1,190,2|8,1:2|0:0,0:0:0:0:
377,136,45542,1,2,1:2:0:0:
377,136,45728,1,0,0:0:0:0:
130,146,45915,1,2,1:2:0:0:
319,236,46101,1,8,0:0:0:0:
105,287,46287,1,2,1:2:0:0:
338,374,46474,6,0,P|287:366|224:360,1,95,2|2,1:2|0:0,0:0:0:0:
337,245,46846,2,0,P|383:237|431:232,1,95,8|2,0:0|0:0,0:0:0:0:
323,123,47219,1,0,1:0:0:0:
459,245,47405,1,2,0:0:0:0:
412,72,47592,1,8,0:0:0:0:
244,168,47778,5,14,0:0:0:0:
171,210,48151,1,12,0:0:0:0:
104,261,48523,1,12,0:0:0:0:
31,303,48896,1,12,0:0:0:0:
0,123,49082,1,8,0:0:0:0:
31,101,49176,1,8,0:0:0:0:
68,102,49269,1,8,0:0:0:0:
104,112,49362,1,8,0:0:0:0:
139,126,49455,6,0,P|181:114|228:100,1,76,6|0,1:2|0:0,0:0:0:0:
318,40,49828,2,0,P|371:47|412:54,1,76,0|0,1:0|0:0,0:0:0:0:
466,192,50200,2,0,P|480:111|502:17,1,152,2|0,1:2|1:0,0:0:0:0:
352,75,50759,1,0,0:0:0:0:
367,229,50946,6,0,P|380:272|386:322,1,76,2|0,1:2|0:0,0:0:0:0:
268,300,51318,2,0,P|255:345|250:394,1,76,0|0,1:0|0:0,0:0:0:0:
96,380,51691,2,0,P|49:360|27:283,1,114,2|0,1:2|0:0,0:0:0:0:
124,227,52064,2,0,L|99:320,1,76,8|2,0:0|0:0,0:0:0:0:
15,119,52436,6,0,L|30:202,1,76,2|0,1:2|0:0,0:0:0:0:
144,52,52809,2,0,L|131:127,1,76,0|0,1:0|0:0,0:0:0:0:
206,247,53182,2,0,P|261:197|349:227,1,152,2|0,1:2|1:0,0:0:0:0:
468,313,53741,1,0,0:0:0:0:
452,135,53927,6,0,L|438:300,1,152,2|0,1:2|1:0,0:0:0:0:
292,195,54486,1,0,0:0:0:0:
401,54,54672,1,10,0:0:0:0:
190,46,54859,1,8,0:0:0:0:
283,231,55045,1,8,0:0:0:0:
73,154,55231,1,8,0:0:0:0:
73,154,55325,1,8,0:0:0:0:
73,154,55418,6,0,P|116:143|168:135,1,95,0|2,1:0|0:0,0:0:0:0:
352,147,55790,1,8,0:0:0:0:
262,333,55977,2,0,P|188:322|146:211,1,190,2|2,0:0|0:0,0:0:0:0:
255,193,56536,1,8,0:0:0:0:
373,343,56722,1,0,1:0:0:0:
496,225,56908,6,0,L|392:212,1,95,2|2,0:0|0:0,0:0:0:0:
273,109,57281,2,0,L|376:98,1,95,8|2,0:0|0:0,0:0:0:0:
203,12,57654,2,0,L|102:2,1,95,2|2,0:0|1:2,0:0:0:0:
206,196,58026,1,8,0:0:0:0:
24,66,58213,1,2,0:0:0:0:
24,66,58306,1,8,0:0:0:0:
24,66,58399,5,2,1:2:0:0:
40,207,58679,5,2,0:0:0:0:
152,116,58958,5,2,0:0:0:0:
285,292,59144,6,0,P|238:285|186:277,1,95,2|0,0:0|1:0,0:0:0:0:
256,171,59517,2,0,P|303:164|357:155,1,95,8|2,0:0|0:0,0:0:0:0:
191,277,59890,6,0,P|127:273|60:377,1,190,0|8,0:0|0:0,0:0:0:0:
252,384,60449,2,0,P|343:371|457:353,1,190,2|0,1:2|1:0,0:0:0:0:
340,250,61008,1,8,0:0:0:0:
496,212,61194,1,2,1:2:0:0:
387,35,61381,6,0,P|381:83|374:135,1,95,12|2,0:0|0:0,0:0:0:0:
224,200,61753,2,0,P|217:150|209:97,1,95,8|2,0:0|0:0,0:0:0:0:
207,72,62033,1,8,0:0:0:0:
207,72,62126,1,8,0:0:0:0:
55,170,62312,1,2,0:0:0:0:
224,200,62499,1,10,1:2:0:0:
99,332,62685,1,2,0:0:0:0:
38,141,62871,5,10,1:2:0:0:
267,307,63058,1,2,1:2:0:0:
12,367,63244,2,0,L|123:356,1,95,10|2,1:2|0:0,0:0:0:0:
267,307,63617,1,2,1:2:0:0:
313,298,63710,1,8,0:0:0:0:
349,268,63803,1,2,1:2:0:0:
366,225,63896,1,8,0:0:0:0:
360,178,63989,1,2,1:2:0:0:
331,141,64082,1,8,0:0:0:0:
288,122,64176,1,10,0:0:0:0:
242,115,64269,1,8,0:0:0:0:
196,127,64362,6,0,P|165:118|123:114,1,47.5,4|2,3:0|0:0,0:0:0:0:
24,229,64548,2,0,P|53:226|84:216,1,47.5,10|2,0:0|0:0,0:0:0:0:
205,221,64735,2,0,P|174:212|132:208,1,47.5,10|2,0:0|0:0,0:0:0:0:
20,138,64921,2,0,P|49:135|80:125,1,47.5,2|2,0:0|0:0,0:0:0:0:
205,221,65107,6,0,P|192:277|184:348,1,114,10|0,0:0|0:0,0:0:0:0:
303,373,65480,2,0,P|329:322|427:335,1,142.5,2|0,1:2|0:0,0:0:0:0:
512,221,65853,6,0,L|501:355,1,113.999996520996,6|0,1:2|0:0,0:0:0:0:
340,226,66225,1,8,0:0:0:0:
411,47,66412,2,0,L|427:176,1,113.999996520996,2|0,0:0|0:0,0:0:0:0:
340,226,66691,1,8,0:0:0:0:
306,256,66784,1,2,0:0:0:0:
260,261,66877,1,2,0:0:0:0:
219,239,66971,2,0,P|189:233|151:231,1,56.9999982604981,10|0,0:0|0:0,0:0:0:0:
247,139,67157,2,0,P|276:132|319:129,1,56.9999982604981,2|0,0:0|0:0,0:0:0:0:
145,30,67343,6,0,P|56:57|73:182,1,227.999993041992,2|8,1:2|0:0,0:0:0:0:
219,239,67902,1,2,0:0:0:0:
46,351,68089,2,0,P|104:342|179:335,1,113.999996520996,2|2,0:0|0:0,0:0:0:0:
328,381,68461,1,8,0:0:0:0:
311,179,68648,1,2,0:0:0:0:
311,179,68741,1,8,0:0:0:0:
311,179,68834,6,0,P|369:185|406:232,1,113.999996520996,2|0,1:2|0:0,0:0:0:0:
430,379,69207,1,10,0:0:0:0:
219,239,69393,1,2,1:2:0:0:
133,180,69766,1,0,1:0:0:0:
133,180,69859,1,2,0:0:0:0:
133,180,69952,2,0,L|70:171,1,56.9999982604981,8|2,0:0|0:0,0:0:0:0:
0,309,70138,6,0,P|55:217|147:270,1,227.999993041992,2|0,1:2|1:0,0:0:0:0:
216,379,70697,1,10,0:0:0:0:
343,263,70884,1,0,1:0:0:0:
343,263,70977,1,8,0:0:0:0:
343,263,71070,2,0,L|423:248,1,56.9999982604981,0|8,1:0|0:0,0:0:0:0:
488,226,71256,1,2,0:0:0:0:
340,168,71443,1,8,0:0:0:0:
278,325,71629,1,2,0:0:0:0:
300,150,71815,6,0,L|176:133,1,113.999996520996,2|0,1:2|0:0,0:0:0:0:
26,201,72188,1,8,0:0:0:0:
52,13,72374,2,0,P|78:61|96:136,1,113.999996520996,2|0,0:0|0:0,0:0:0:0:
118,222,72654,1,8,0:0:0:0:
139,262,72747,1,0,1:0:0:0:
180,281,72840,1,2,0:0:0:0:
224,273,72933,2,0,L|287:260,1,56.9999982604981,10|0,0:0|0:0,0:0:0:0:
311,354,73120,2,0,L|236:369,1,56.9999982604981,2|0,1:2|1:0,0:0:0:0:
392,277,73306,6,0,P|450:296|478:352,1,113.999996520996,2|2,1:2|0:0,0:0:0:0:
337,191,73679,1,8,0:0:0:0:
506,64,73865,2,0,L|494:190,1,113.999996520996,2|0,0:0|0:0,0:0:0:0:
494,221,74144,1,8,0:0:0:0:
494,221,74238,1,2,0:0:0:0:
286,294,74424,1,8,0:0:0:0:
243,307,74517,1,0,0:0:0:0:
198,300,74610,1,2,0:0:0:0:
162,273,74703,1,0,0:0:0:0:
147,229,74797,6,0,P|134:293|126:356,1,113.999996520996,2|0,1:2|0:0,0:0:0:0:
16,191,75169,2,0,P|48:132|106:106,1,113.999996520996,10|0,0:0|0:0,0:0:0:0:
297,137,75542,1,2,0:0:0:0:
172,41,75728,1,0,1:0:0:0:
172,41,75822,1,2,0:0:0:0:
172,41,75915,2,0,P|201:33|241:33,1,56.9999982604981,10|0,0:0|0:0,0:0:0:0:
352,146,76101,2,0,P|323:144|296:136,1,56.9999982604981,2|0,0:0|0:0,0:0:0:0:
403,21,76287,5,10,0:0:0:0:
382,253,76474,1,2,0:0:0:0:
197,131,76660,5,8,0:0:0:0:
272,360,76846,1,2,0:0:0:0:
352,146,77033,5,10,0:0:0:0:
137,296,77219,1,0,1:0:0:0:
137,296,77312,1,8,0:0:0:0:
137,296,77405,1,8,0:0:0:0:
55,23,77592,1,8,0:0:0:0:
267,219,77778,6,0,L|280:94,1,113.999996520996,6|0,1:2|0:0,0:0:0:0:
97,172,78151,1,8,0:0:0:0:
245,353,78337,2,0,P|297:339|369:335,1,113.999996520996,2|0,0:0|0:0,0:0:0:0:
440,270,78617,1,8,0:0:0:0:
475,241,78710,1,0,1:0:0:0:
470,195,78803,1,2,0:0:0:0:
434,165,78896,2,0,P|404:153|350:147,1,56.9999982604981,10|0,0:0|0:0,0:0:0:0:
247,91,79082,2,0,P|284:89|311:80,1,56.9999982604981,2|0,0:0|1:0,0:0:0:0:
138,10,79269,6,0,P|115:69|104:138,1,113.999996520996,2|0,1:2|0:0,0:0:0:0:
173,261,79641,1,8,0:0:0:0:
0,141,79828,2,0,P|16:198|26:260,1,113.999996520996,2|0,0:0|0:0,0:0:0:0:
37,296,80107,1,8,0:0:0:0:
37,296,80200,1,2,0:0:0:0:
160,164,80387,1,10,0:0:0:0:
267,356,80573,1,2,0:0:0:0:
267,356,80666,1,8,0:0:0:0:
267,356,80759,6,0,P|322:344|384:342,1,113.999996520996,2|2,1:2|0:0,0:0:0:0:
269,171,81132,1,14,0:0:0:0:
486,202,81318,1,14,0:0:0:0:
424,114,81691,1,10,0:0:0:0:
424,114,81784,1,2,0:0:0:0:
424,114,81877,1,0,1:0:0:0:
157,53,82064,6,0,P|255:40|417:25,1,227.999993041992,14|2,0:0|0:0,0:0:0:0:
298,190,82623,1,8,0:0:0:0:
93,144,82809,1,0,1:0:0:0:
93,144,82902,1,8,0:0:0:0:
93,144,82995,1,2,0:0:0:0:
184,328,83182,1,8,0:0:0:0:
324,162,83368,1,8,0:0:0:0:
153,360,83554,1,0,1:0:0:0:
211,107,83741,6,0,L|226:242,1,113.999996520996,6|2,1:2|0:0,0:0:0:0:
384,350,84113,1,10,0:0:0:0:
384,350,84300,2,0,L|401:214,1,113.999996520996,2|0,0:0|0:0,0:0:0:0:
393,84,84579,1,8,0:0:0:0:
358,54,84672,1,0,1:0:0:0:
312,48,84766,1,2,0:0:0:0:
268,61,84859,2,0,P|240:50|195:44,1,56.9999982604981,10|0,0:0|0:0,0:0:0:0:
61,28,85045,2,0,P|89:17|132:17,1,56.9999982604981,2|0,0:0|0:0,0:0:0:0:
155,153,85231,6,0,P|138:220|123:296,1,113.999996520996,2|0,1:2|0:0,0:0:0:0:
283,185,85604,2,0,P|289:243|293:319,1,113.999996520996,10|0,0:0|0:0,0:0:0:0:
142,378,85977,1,2,0:0:0:0:
142,378,86070,1,8,0:0:0:0:
142,378,86163,1,2,0:0:0:0:
293,313,86349,1,8,0:0:0:0:
487,374,86536,1,8,0:0:0:0:
487,374,86629,1,8,0:0:0:0:
487,374,86722,6,0,P|421:367|350:362,1,113.999996520996,10|2,0:0|0:0,0:0:0:0:
177,199,87095,1,10,0:0:0:0:
142,378,87281,1,2,0:0:0:0:
320,285,87467,1,8,0:0:0:0:
177,199,87654,1,2,0:0:0:0:
136,180,87747,1,2,0:0:0:0:
108,143,87840,1,8,0:0:0:0:
102,99,87933,1,2,0:0:0:0:
117,56,88026,1,8,0:0:0:0:
151,27,88119,1,8,0:0:0:0:
195,16,88213,5,6,1:2:0:0:
204,116,88585,1,10,0:0:0:0:
204,116,88679,1,8,0:0:0:0:
204,116,88772,1,2,0:0:0:0:
392,46,88958,5,2,0:0:0:0:
392,46,89052,1,2,0:0:0:0:
392,46,89144,2,0,P|419:40|456:37,1,56.9999982604981,10|10,0:0|0:0,0:0:0:0:
491,167,89331,1,10,0:0:0:0:
477,210,89424,1,8,0:0:0:0:
441,238,89517,1,8,0:0:0:0:
395,235,89610,1,8,0:0:0:0:
353,218,89703,6,0,P|312:202|254:193,1,95,2|2,0:0|1:2,0:0:0:0:
102,253,90075,1,10,0:0:0:0:
145,104,90262,2,0,P|186:88|244:79,1,95,2|8,1:2|0:0,0:0:0:0:
370,89,90635,1,2,1:2:0:0:
155,0,90822,1,10,0:0:0:0:
308,205,91008,6,0,L|330:107,1,95,2|8,1:2|0:0,0:0:0:0:
162,193,91380,1,2,1:2:0:0:
309,320,91567,1,10,0:0:0:0:
152,376,91753,2,0,L|58:365,1,95,2|10,1:2|0:0,0:0:0:0:
0,195,92126,1,2,1:2:0:0:
210,97,92312,1,10,0:0:0:0:
47,55,92499,1,2,1:2:0:0:
165,231,92685,6,0,L|270:218,1,95,8|2,0:0|1:2,0:0:0:0:
422,149,93058,1,8,0:0:0:0:
283,28,93244,2,0,P|294:82|301:144,1,95,2|8,1:2|0:0,0:0:0:0:
306,326,93617,1,2,1:2:0:0:
165,231,93803,1,10,0:0:0:0:
336,347,93989,6,0,L|454:333,1,95,2|8,1:2|0:0,0:0:0:0:
512,218,94362,1,2,1:2:0:0:
335,197,94548,1,10,0:0:0:0:
440,27,94735,2,0,L|428:146,1,95,2|8,1:2|0:0,0:0:0:0:
255,39,95107,1,2,1:2:0:0:
425,154,95294,1,10,0:0:0:0:
241,219,95480,1,2,1:2:0:0:
106,21,95666,6,0,P|112:69|123:121,1,95,8|2,0:0|1:2,0:0:0:0:
241,219,96038,1,8,0:0:0:0:
345,72,96225,2,0,P|339:120|328:172,1,95,2|8,1:2|0:0,0:0:0:0:
227,335,96597,1,2,1:2:0:0:
159,186,96783,1,8,0:0:0:0:
97,373,96971,6,0,P|144:367|204:351,1,95,2|8,1:2|0:0,0:0:0:0:
342,252,97343,1,2,1:2:0:0:
227,335,97529,1,10,0:0:0:0:
436,271,97716,2,0,P|392:261|339:252,1,95,2|8,1:2|0:0,0:0:0:0:
159,186,98088,1,2,1:2:0:0:
348,114,98274,1,10,0:0:0:0:
138,44,98461,6,0,P|182:29|249:27,1,95,2|8,1:2|0:0,0:0:0:0:
406,27,98834,1,2,1:2:0:0:
247,203,99020,2,0,P|235:157|229:108,1,95,8|2,0:0|1:2,0:0:0:0:
404,214,99393,2,0,P|398:261|386:307,1,95,8|2,0:0|1:2,0:0:0:0:
193,311,99765,1,10,0:0:0:0:
348,114,99952,5,10,1:2:0:0:
275,74,100324,1,10,1:2:0:0:
194,92,100697,1,10,1:2:0:0:
163,171,101070,1,10,1:2:0:0:
331,256,101256,1,10,0:0:0:0:
349,234,101349,1,8,0:0:0:0:
349,205,101443,1,10,0:0:0:0:
331,182,101536,1,8,0:0:0:0:
313,161,101629,6,0,B|248:126|279:-59|467:-51|613:91|545:244|415:331|305:321|236:254|204:195|204:138|204:138|151:223|73:134|-59:259|24:374|152:408|213:330|162:246,1,1216,2|0,0:0|0:0,0:0:0:0:
