osu file format v14

[General]
AudioFilename: audio.mp3
AudioLeadIn: 0
PreviewTime: 79331
Countdown: 0
SampleSet: Soft
StackLeniency: 0.4
Mode: 0
LetterboxInBreaks: 0
WidescreenStoryboard: 1

[Editor]
DistanceSpacing: 1
BeatDivisor: 4
GridSize: 16
TimelineZoom: 0.9999998

[Metadata]
Title:Answer
TitleUnicode:Answer
Artist:Duca
ArtistUnicode:Duca
Creator:Kuse
Version:Normal
Source:アインシュタインより愛を込めて
Tags:KuBsNia_ZhoYL_ H-Scene Hakusui3820 Misure 2nd opening op galgame eroge video game japanese female vocals Einstein Ainshutain yori aiwokomete GLOVETY short version pop visual novel aikome
BeatmapID:2692535
BeatmapSetID:1297701

[Difficulty]
HPDrainRate:3
CircleSize:3
OverallDifficulty:4
ApproachRate:5.5
SliderMultiplier:0.999999999999999
SliderTickRate:1

[Events]
//Background and Video events
0,0,"bg.jpg",0,0
//Break Periods
//Storyboard Layer 0 (Background)
//Storyboard Layer 1 (Fail)
//Storyboard Layer 2 (Pass)
//Storyboard Layer 3 (Foreground)
//Storyboard Layer 4 (Overlay)
//Storyboard Sound Samples

[TimingPoints]
315,327.868852459016,4,2,1,65,1,0
13265,-100,4,2,1,75,0,0
23921,-111.111111111111,4,2,1,55,0,0
44905,-100,4,2,1,65,0,0
65888,-111.111111111111,4,2,1,55,0,0
71134,-111.111111111111,4,2,1,45,0,0
71462,-100,4,2,1,50,0,0
71790,-100,4,2,1,55,0,0
72118,-100,4,2,1,60,0,0
72446,-100,4,2,1,65,0,0
72774,-100,4,2,1,70,0,0
73101,-100,4,2,1,75,0,0
73429,-100,4,2,1,80,0,0
73757,-100,4,2,1,75,0,0
79495,-100,4,2,1,65,0,0
80151,-100,4,2,1,85,0,1
122118,-100,4,2,1,75,0,0
132610,-100,4,2,1,70,0,0
133429,-100,4,2,1,65,0,0
134085,-100,4,2,1,60,0,0
134741,-100,4,2,1,55,0,0
135396,-100,4,2,1,50,0,0
136052,-100,4,2,1,45,0,0
136708,-100,4,2,1,40,0,0
137364,-100,4,2,1,35,0,0
138019,-100,4,2,1,30,0,0
138675,-100,4,2,1,25,0,0
139331,-100,4,2,1,20,0,0
139987,-100,4,2,1,15,0,0
140642,-100,4,2,1,10,0,0

[Colours]
Combo1 : 0,160,238
Combo2 : 0,238,238
Combo3 : 255,128,128
Combo4 : 254,133,230

[HitObjects]
256,192,11626,12,0,12610,0:0:0:0:
59,76,13265,6,0,P|115:99|157:104,1,99.9999999999999,6|2,1:2|1:2,0:0:0:0:
194,133,13757,2,0,P|201:176|199:247,1,99.9999999999999,10|2,0:0|1:2,0:0:0:0:
195,282,14249,1,2,0:0:0:0:
273,343,14577,1,2,1:2:0:0:
355,285,14905,2,0,B|390:291|390:291|416:314|416:314|462:320,2,99.9999999999999,2|2|2,1:2|0:0|1:2,0:0:0:0:
320,249,15724,1,8,0:0:0:0:
320,249,15888,6,0,P|312:208|293:149,1,99.9999999999999,2|0,1:2|1:0,0:0:0:0:
249,129,16380,2,0,P|181:150|135:148,1,99.9999999999999,10|2,0:0|1:2,0:0:0:0:
106,131,16872,1,2,0:0:0:0:
65,222,17200,1,2,1:2:0:0:
160,250,17528,2,0,B|153:290|153:290|157:310|157:310|146:357,2,99.9999999999999,2|2|2,0:0|0:0|1:2,0:0:0:0:
198,217,18347,1,10,0:0:0:0:
243,238,18511,6,0,P|281:246|344:248,1,99.9999999999999,4|2,1:2|1:2,0:0:0:0:
374,209,19003,2,0,P|381:159|398:106,1,99.9999999999999,10|2,0:0|1:2,0:0:0:0:
390,61,19495,1,2,0:0:0:0:
481,19,19823,2,0,P|494:72|483:131,1,99.9999999999999,6|2,1:2|1:2,0:0:0:0:
470,165,20314,1,10,0:0:0:0:
470,165,20478,2,0,L|484:282,1,99.9999999999999,0|2,1:0|1:2,0:0:0:0:
488,314,20970,1,10,0:0:0:0:
395,275,21298,5,12,0:0:0:0:
337,356,21626,1,8,0:0:0:0:
255,297,21954,2,0,L|266:192,1,99.9999999999999,8|8,0:0|0:0,0:0:0:0:
236,156,22446,2,0,P|179:166|121:193,1,99.9999999999999,4|0,1:2|0:0,0:0:0:0:
99,211,22937,1,8,0:0:0:0:
99,211,23101,2,0,P|59:166|75:74,1,150,4|0,1:2|0:0,0:0:0:0:
150,23,23921,6,0,P|176:61|237:72,1,89.999997253418,6|0,0:0|3:0,0:0:0:0:
259,61,24413,1,2,0:0:0:0:
331,114,24741,1,2,0:0:0:0:
401,57,25069,2,0,B|423:91|423:91|405:196,1,134.999995880127,2|0,0:0|3:0,0:0:0:0:
396,227,25724,1,2,0:0:0:0:
424,312,26052,1,2,0:0:0:0:
331,344,26380,6,0,B|289:360|289:360|237:333,1,89.999997253418,2|0,0:0|0:0,0:0:0:0:
212,312,26872,2,0,L|103:329,1,89.999997253418,0|0,3:0|3:0,0:0:0:0:
54,276,27528,1,0,3:0:0:0:
54,276,27692,2,0,B|23:204|23:204|54:140,1,134.999995880127,2|2,0:0|3:2,0:0:0:0:
77,119,28347,2,0,P|129:117|174:141,1,89.999997253418,2|2,0:0|0:0,0:0:0:0:
237,182,29003,6,0,B|214:220|214:220|227:281,1,89.999997253418,2|0,0:0|0:0,0:0:0:0:
255,296,29495,2,0,L|351:311,1,89.999997253418,0|0,3:0|3:0,0:0:0:0:
433,285,30151,1,0,3:0:0:0:
433,285,30314,2,0,L|454:146,1,134.999995880127,2|0,0:0|0:0,0:0:0:0:
480,115,30970,2,0,L|534:122,2,44.999998626709,2|0|2,0:0|3:0|0:0,0:0:0:0:
401,69,31626,6,0,B|334:60|334:60|276:100,1,134.999995880127,2|0,0:0|0:0,0:0:0:0:
242,125,32282,2,0,P|193:140|151:127,1,89.999997253418,2|0,0:0|0:0,0:0:0:0:
116,109,32774,1,2,3:2:0:0:
42,160,33101,2,0,L|36:258,1,89.999997253418,0|0,3:0|3:0,0:0:0:0:
38,295,33593,1,0,0:0:0:0:
123,322,33921,2,0,L|117:375,2,44.999998626709,2|0|2,0:0|3:0|0:0,0:0:0:0:
152,287,34413,6,0,L|244:304,1,89.999997253418,4|0,1:2|3:0,0:0:0:0:
284,314,34905,1,2,0:0:0:0:
335,240,35233,1,2,0:0:0:0:
249,211,35560,2,0,B|235:169|235:169|258:114,1,89.999997253418,2|0,0:0|0:0,0:0:0:0:
279,90,36052,2,0,P|323:81|377:151,1,134.999995880127,2|0,3:2|0:0,0:0:0:0:
460,190,36872,1,2,0:0:0:0:
460,190,37036,6,0,L|447:298,1,89.999997253418,2|0,3:2|3:0,0:0:0:0:
440,323,37528,2,0,P|383:332|342:312,1,89.999997253418,2|0,0:0|0:0,0:0:0:0:
279,270,38183,1,2,0:0:0:0:
191,293,38511,2,0,L|143:304,1,44.999998626709,2|0,0:0|3:0,0:0:0:0:
106,314,38839,1,2,0:0:0:0:
106,314,39003,2,0,P|87:265|93:219,1,89.999997253418,0|0,3:0|3:0,0:0:0:0:
113,141,39659,6,0,L|205:164,1,89.999997253418,4|0,3:2|3:0,0:0:0:0:
239,185,40151,2,0,P|292:180|337:156,1,89.999997253418,2|0,0:0|0:0,0:0:0:0:
411,132,40806,1,2,0:0:0:0:
411,132,40970,2,0,P|419:168|424:234,1,89.999997253418,0|2,3:0|3:2,0:0:0:0:
402,308,41626,1,2,3:2:0:0:
317,275,41954,1,10,0:0:0:0:
253,338,42282,6,0,P|204:315|148:308,1,89.999997253418,2|8,1:2|0:0,0:0:0:0:
133,279,42774,2,0,P|104:299|48:316,1,89.999997253418,2|0,0:0|0:0,0:0:0:0:
19,293,43265,2,0,L|27:236,1,44.999998626709,0|8,1:2|0:0,0:0:0:0:
66,72,44085,1,0,1:0:0:0:
66,72,44249,2,0,L|56:21,2,44.999998626709,0|8|8,1:0|0:0|0:0,0:0:0:0:
145,133,44905,6,0,L|160:28,1,99.9999999999999,6|10,1:2|0:0,0:0:0:0:
207,21,45396,2,0,B|257:14|257:14|300:54,1,99.9999999999999,2|2,0:0|1:2,0:0:0:0:
370,120,46052,1,2,0:0:0:0:
370,120,46216,2,0,P|355:168|365:235,1,99.9999999999999,2|8,1:2|0:0,0:0:0:0:
382,261,46708,1,2,0:0:0:0:
321,340,47036,1,2,1:2:0:0:
244,275,47364,6,0,P|192:266|136:286,1,99.9999999999999,2|0,1:2|1:0,0:0:0:0:
100,295,47855,2,0,B|67:256|67:256|78:197,1,99.9999999999999,8|0,0:0|1:0,0:0:0:0:
107,112,48511,1,8,0:0:0:0:
107,112,48675,2,0,P|139:136|205:142,1,99.9999999999999,2|0,1:2|1:0,0:0:0:0:
242,121,49167,1,8,0:0:0:0:
282,150,49331,1,2,0:0:0:0:
381,153,49659,1,2,1:2:0:0:
354,59,49987,6,0,P|318:32|264:27,1,99.9999999999999,6|0,1:2|1:0,0:0:0:0:
215,39,50478,2,0,B|166:56|166:56|103:41,1,99.9999999999999,8|0,0:0|1:0,0:0:0:0:
48,116,51134,1,8,0:0:0:0:
48,116,51298,2,0,L|62:224,1,99.9999999999999,2|0,1:2|1:0,0:0:0:0:
45,262,51790,1,8,0:0:0:0:
76,300,51954,1,2,0:0:0:0:
149,232,52282,1,2,1:2:0:0:
246,248,52610,6,0,P|288:259|345:294,1,99.9999999999999,6|0,1:2|1:0,0:0:0:0:
388,277,53101,1,8,0:0:0:0:
388,277,53265,2,0,P|404:239|406:176,1,99.9999999999999,2|2,0:0|1:2,0:0:0:0:
383,136,53757,2,0,L|391:84,1,50,8|0,0:0|1:0,0:0:0:0:
334,10,54249,1,0,1:0:0:0:
334,10,54413,2,0,P|299:39|238:48,1,99.9999999999999,8|0,0:0|1:0,0:0:0:0:
198,32,54905,2,0,L|137:42,1,50,2|8,1:2|0:0,0:0:0:0:
82,114,55396,6,0,P|94:159|159:186,1,99.9999999999999,6|8,1:2|0:0,0:0:0:0:
185,169,55888,2,0,B|233:152|233:152|282:174,1,99.9999999999999,2|2,0:0|0:0,0:0:0:0:
325,260,56544,1,2,1:2:0:0:
283,351,56872,1,2,1:2:0:0:
193,305,57200,2,0,P|139:280|89:298,1,99.9999999999999,2|2,1:2|1:2,0:0:0:0:
35,213,57855,6,0,L|48:91,1,99.9999999999999,2|0,0:0|0:0,0:0:0:0:
60,69,58347,1,8,0:0:0:0:
60,69,58511,2,0,L|116:79,1,50,2|0,0:0|1:0,0:0:0:0:
185,151,59003,1,8,0:0:0:0:
185,151,59167,2,0,P|242:152|279:128,1,99.9999999999999,2|0,1:2|1:0,0:0:0:0:
311,93,59659,1,8,0:0:0:0:
311,93,59823,2,0,L|424:115,1,99.9999999999999,2|2,0:0|1:2,0:0:0:0:
481,181,60478,6,0,P|436:198|413:261,1,99.9999999999999,6|0,1:2|1:0,0:0:0:0:
433,287,60970,2,0,B|384:307|384:307|316:297,1,99.9999999999999,8|0,0:0|1:0,0:0:0:0:
245,260,61626,1,8,0:0:0:0:
245,260,61790,2,0,P|194:273|148:304,1,99.9999999999999,2|0,1:2|1:0,0:0:0:0:
109,290,62282,1,10,0:0:0:0:
109,290,62446,2,0,P|86:241|100:176,1,99.9999999999999,0|2,0:0|1:2,0:0:0:0:
148,115,63101,6,0,B|177:161|177:161|224:176,1,99.9999999999999,6|0,1:2|1:0,0:0:0:0:
261,145,63593,1,8,0:0:0:0:
261,145,63757,2,0,P|306:122|365:117,1,99.9999999999999,2|2,0:0|1:2,0:0:0:0:
447,153,64413,2,0,L|459:51,1,99.9999999999999,6|0,1:2|0:0,0:0:0:0:
424,16,64905,2,0,P|374:4|311:5,1,99.9999999999999,10|8,0:0|0:0,0:0:0:0:
237,51,65560,2,0,L|167:71,1,50,8|4,0:3|0:3,0:0:0:0:
145,50,65888,6,0,B|73:82|67:154|67:154|147:161|166:236,1,269.999991760254,4|0,1:2|0:0,0:0:0:0:
128,313,67200,2,0,B|211:348|211:348|229:274|313:261,1,224.999993133545,2|0,0:0|0:0,0:0:0:0:
398,265,68347,1,0,1:0:0:0:
398,265,68511,6,0,B|421:84,1,179.999994506836,0|0,1:0|0:0,0:0:0:0:
345,36,69495,1,0,0:0:0:0:
345,36,69659,2,0,L|247:56,1,89.999997253418,0|0,3:0|0:0,0:0:0:0:
232,93,70151,1,0,1:0:0:0:
232,93,70314,2,0,L|241:195,1,89.999997253418,8|8,0:3|0:3,0:0:0:0:
243,227,70806,1,4,0:3:0:0:
170,280,71134,6,0,P|133:262|73:253,1,89.999997253418,0|2,1:0|1:2,0:0:0:0:
4,192,71790,1,2,1:2:0:0:
58,107,72118,1,2,1:2:0:0:
137,167,72446,2,0,P|179:162|238:131,1,99.9999999999999,2|2,1:2|1:2,0:0:0:0:
270,106,72937,1,0,0:0:0:0:
360,148,73265,1,2,0:0:0:0:
452,110,73593,1,2,0:0:0:0:
486,146,73757,6,0,B|503:198|503:198|490:253,1,99.9999999999999,6|0,1:2|1:0,0:0:0:0:
449,268,74249,2,0,L|344:286,1,99.9999999999999,12|0,0:0|1:0,0:0:0:0:
300,279,74741,1,12,0:0:0:0:
217,332,75069,1,0,1:0:0:0:
186,292,75233,2,0,P|170:260|182:186,1,99.9999999999999,12|0,0:0|1:0,0:0:0:0:
213,164,75724,2,0,P|220:119|193:53,1,99.9999999999999,12|8,0:0|0:0,0:0:0:0:
104,53,76380,6,0,L|-4:73,1,99.9999999999999,12|8,0:0|0:0,0:0:0:0:
0,121,76872,2,0,P|18:168|29:221,1,99.9999999999999,0|8,3:0|0:3,0:0:0:0:
18,265,77364,1,4,0:3:0:0:
49,303,77528,1,4,0:3:0:0:
256,192,77692,12,0,79495,0:0:0:0:
423,89,80151,6,0,P|369:68|312:62,1,99.9999999999999,6|0,1:2|1:0,0:0:0:0:
291,96,80642,2,0,P|286:138|261:197,1,99.9999999999999,8|0,0:0|1:0,0:0:0:0:
167,216,81298,1,10,0:0:0:0:
123,240,81462,2,0,P|98:307|97:348,1,99.9999999999999,2|0,1:2|1:0,0:0:0:0:
138,371,81954,1,10,0:0:0:0:
138,371,82118,1,2,0:0:0:0:
215,307,82446,2,0,L|279:316,1,50,2|10,1:2|0:0,0:0:0:0:
311,333,82774,6,0,P|347:283|349:241,1,99.9999999999999,2|0,1:2|1:0,0:0:0:0:
341,196,83265,1,8,0:0:0:0:
399,115,83593,1,0,1:0:0:0:
399,115,83757,2,0,L|391:56,1,50,2|10,1:2|0:0,0:0:0:0:
383,17,84085,2,0,P|343:37|279:51,1,99.9999999999999,6|0,1:2|1:0,0:0:0:0:
242,31,84577,1,10,0:0:0:0:
242,31,84741,1,2,0:0:0:0:
165,95,85069,2,0,L|109:81,1,50,2|8,1:2|0:0,0:0:0:0:
76,113,85396,6,0,L|89:226,1,99.9999999999999,6|0,1:2|1:0,0:0:0:0:
98,266,85888,1,10,0:0:0:0:
98,266,86052,1,2,0:0:0:0:
184,316,86380,1,2,1:2:0:0:
254,245,86708,2,0,L|255:183,1,50,2|0,1:2|0:0,0:0:0:0:
215,167,87036,2,0,B|205:113|205:113|230:66,1,99.9999999999999,2|2,1:2|0:0,0:0:0:0:
301,6,87692,1,2,1:2:0:0:
368,79,88019,6,0,P|414:87|463:123,1,99.9999999999999,6|0,1:2|1:0,0:0:0:0:
492,153,88511,1,10,0:0:0:0:
480,201,88675,2,0,P|454:242|437:301,1,99.9999999999999,2|10,1:2|0:0,0:0:0:0:
435,344,89167,1,2,1:2:0:0:
435,344,89331,1,6,1:2:0:0:
347,296,89659,2,0,L|293:305,1,50,2|10,1:2|0:0,0:0:0:0:
256,275,89987,2,0,P|251:221|269:163,1,99.9999999999999,0|0,1:2|1:2,0:0:0:0:
281,133,90478,1,8,0:0:0:0:
281,133,90642,6,0,L|383:122,1,99.9999999999999,6|0,1:2|1:0,0:0:0:0:
430,113,91134,1,8,0:0:0:0:
475,208,91462,1,0,1:0:0:0:
475,208,91626,2,0,L|404:218,1,50,2|10,1:2|0:0,0:0:0:0:
375,214,91954,2,0,P|362:263|365:322,1,99.9999999999999,2|0,1:2|1:0,0:0:0:0:
377,365,92446,1,10,0:0:0:0:
377,365,92610,1,2,0:0:0:0:
278,366,92937,2,0,L|217:350,1,50,2|10,1:2|0:0,0:0:0:0:
180,344,93265,6,0,P|174:288|145:234,1,99.9999999999999,6|0,1:2|1:0,0:0:0:0:
124,209,93757,1,8,0:0:0:0:
82,118,94085,1,0,1:2:0:0:
82,118,94249,2,0,L|131:104,1,50,2|10,1:2|0:0,0:0:0:0:
176,122,94577,2,0,P|216:142|280:142,1,99.9999999999999,6|2,1:2|1:2,0:0:0:0:
314,118,95069,1,10,0:0:0:0:
314,118,95233,2,0,L|311:180,1,50,2|0,0:0|1:0,0:0:0:0:
409,207,95724,1,10,0:0:0:0:
454,186,95888,6,0,P|483:156|494:93,1,99.9999999999999,6|2,1:2|1:2,0:0:0:0:
451,71,96380,2,0,B|413:37|413:37|349:45,1,99.9999999999999,10|0,0:0|1:0,0:0:0:0:
278,95,97036,1,10,0:0:0:0:
278,95,97200,2,0,P|222:106|170:93,1,99.9999999999999,6|2,1:2|1:2,0:0:0:0:
136,74,97692,2,0,B|102:110|102:110|113:170,1,99.9999999999999,10|0,0:0|1:0,0:0:0:0:
169,240,98347,1,8,0:0:0:0:
169,240,98511,6,0,L|180:348,1,99.9999999999999,6|0,1:2|0:0,0:0:0:0:
219,369,99003,1,10,0:0:0:0:
219,369,99167,1,2,1:2:0:0:
303,316,99495,2,0,L|359:328,1,50,10|0,0:0|1:0,0:0:0:0:
401,331,99823,1,6,1:2:0:0:
455,246,100151,1,0,1:0:0:0:
377,193,100478,1,0,1:0:0:0:
377,193,100642,2,0,L|311:201,2,50,0|8|8,1:0|0:0|0:0,0:0:0:0:
417,162,101134,6,0,L|430:50,1,99.9999999999999,6|0,1:2|1:0,0:0:0:0:
391,28,101626,2,0,P|354:58|299:65,1,99.9999999999999,8|0,0:0|1:0,0:0:0:0:
208,31,102282,1,10,0:0:0:0:
180,72,102446,2,0,P|188:126|190:179,1,99.9999999999999,2|2,1:2|1:2,0:0:0:0:
188,225,102937,1,10,0:0:0:0:
188,225,103101,1,2,0:0:0:0:
285,202,103429,2,0,L|343:205,1,50,2|10,1:2|0:0,0:0:0:0:
359,249,103757,6,0,P|354:294|340:351,1,99.9999999999999,2|0,1:2|1:0,0:0:0:0:
299,375,104249,1,8,0:0:0:0:
220,322,104577,1,0,1:0:0:0:
220,322,104741,2,0,L|152:332,1,50,2|10,1:2|0:0,0:0:0:0:
126,304,105069,2,0,B|102:257|102:257|119:205,1,99.9999999999999,6|0,1:2|1:0,0:0:0:0:
138,169,105560,1,10,0:0:0:0:
138,169,105724,1,2,0:0:0:0:
227,123,106052,2,0,L|283:137,1,50,2|8,1:2|0:0,0:0:0:0:
316,164,106380,6,0,L|297:281,1,99.9999999999999,6|0,1:2|1:0,0:0:0:0:
298,316,106872,1,10,0:0:0:0:
298,316,107036,1,2,0:0:0:0:
383,367,107364,1,2,1:2:0:0:
464,308,107692,2,0,L|468:250,1,50,2|0,1:2|0:0,0:0:0:0:
430,224,108019,2,0,B|420:170|420:170|445:123,1,99.9999999999999,2|2,1:2|0:0,0:0:0:0:
431,29,108675,1,2,1:2:0:0:
349,86,109003,6,0,P|308:114|259:123,1,99.9999999999999,6|0,1:2|0:0,0:0:0:0:
219,93,109495,1,2,1:2:0:0:
219,93,109659,2,0,P|168:66|105:60,1,99.9999999999999,10|10,0:0|0:0,0:0:0:0:
28,42,110314,1,6,1:2:0:0:
5,140,110642,2,0,L|16:203,1,50,0|10,1:2|0:0,0:0:0:0:
56,214,110970,2,0,P|109:208|158:228,1,99.9999999999999,0|0,1:0|1:0,0:0:0:0:
195,249,111462,1,8,0:0:0:0:
244,245,111626,6,0,L|233:361,1,99.9999999999999,6|0,1:2|1:0,0:0:0:0:
268,381,112118,1,8,0:0:0:0:
343,314,112446,1,0,1:0:0:0:
343,314,112610,2,0,L|404:325,1,50,2|10,1:2|0:0,0:0:0:0:
431,292,112937,2,0,P|431:242|419:194,1,99.9999999999999,2|0,1:2|1:0,0:0:0:0:
385,165,113429,1,10,0:0:0:0:
385,165,113593,1,2,0:0:0:0:
442,83,113921,1,2,1:2:0:0:
384,1,114249,6,0,P|346:45|341:90,1,99.9999999999999,6|0,1:2|1:0,0:0:0:0:
304,119,114741,1,10,0:0:0:0:
304,119,114905,2,0,P|262:133|203:128,1,99.9999999999999,2|2,0:0|1:2,0:0:0:0:
110,102,115560,2,0,P|128:165|138:218,1,99.9999999999999,6|2,1:2|1:2,0:0:0:0:
118,246,116052,1,10,0:0:0:0:
118,246,116216,2,0,L|115:308,1,50,2|0,0:0|1:2,0:0:0:0:
211,340,116708,1,10,0:0:0:0:
251,310,116872,6,0,L|255:199,1,99.9999999999999,6|0,1:2|1:0,0:0:0:0:
227,167,117364,2,0,B|265:133|265:133|329:141,1,99.9999999999999,10|0,0:0|1:0,0:0:0:0:
400,199,118019,1,10,0:0:0:0:
400,199,118183,2,0,P|408:248|400:307,1,99.9999999999999,6|2,1:2|1:2,0:0:0:0:
374,339,118675,2,0,B|322:351|322:351|281:314,1,99.9999999999999,10|0,0:0|1:0,0:0:0:0:
202,279,119331,1,8,0:0:0:0:
202,279,119495,6,0,L|97:302,1,99.9999999999999,6|0,0:0|1:0,0:0:0:0:
63,282,119987,1,8,0:0:0:0:
63,282,120151,2,0,P|41:225|55:173,1,99.9999999999999,0|0,1:0|1:0,0:0:0:0:
76,148,120642,1,10,0:0:0:0:
76,148,120806,1,4,1:2:0:0:
122,61,121134,1,2,1:2:0:0:
122,61,121298,2,0,L|230:86,1,99.9999999999999,10|0,0:0|1:0,0:0:0:0:
268,94,121790,2,0,L|334:74,1,50,2|10,3:2|0:0,0:0:0:0:
363,62,122118,6,0,P|375:103|364:161,1,99.9999999999999,6|2,1:2|1:2,0:0:0:0:
351,206,122610,2,0,P|342:260|362:320,1,99.9999999999999,10|2,0:0|1:2,0:0:0:0:
370,349,123101,1,2,0:0:0:0:
274,380,123429,1,2,1:2:0:0:
186,332,123757,2,0,B|151:338|151:338|129:354|129:354|78:365,2,99.9999999999999,2|2|2,1:2|0:0|1:2,0:0:0:0:
197,286,124577,1,8,0:0:0:0:
197,286,124741,6,0,P|192:243|207:175,1,99.9999999999999,0|0,1:0|1:0,0:0:0:0:
236,150,125233,2,0,P|236:109|209:35,1,99.9999999999999,10|2,0:0|1:2,0:0:0:0:
193,9,125724,1,2,0:0:0:0:
99,45,126052,1,0,1:0:0:0:
134,138,126380,2,0,B|97:155|97:155|76:156|76:156|34:179,2,99.9999999999999,2|2|2,1:2|0:0|1:2,0:0:0:0:
170,103,127200,1,10,0:0:0:0:
217,120,127364,6,0,P|271:127|318:147,1,99.9999999999999,4|2,1:2|1:2,0:0:0:0:
362,153,127855,2,0,P|414:145|474:121,1,99.9999999999999,10|2,0:0|1:2,0:0:0:0:
504,108,128347,1,2,0:0:0:0:
473,12,128675,2,0,P|422:7|363:33,1,99.9999999999999,6|2,1:2|1:2,0:0:0:0:
343,60,129167,1,10,0:0:0:0:
343,60,129331,2,0,L|233:50,1,99.9999999999999,0|2,0:0|1:2,0:0:0:0:
193,44,129823,1,10,0:0:0:0:
110,100,130151,5,12,0:0:0:0:
182,168,130478,1,8,0:0:0:0:
104,230,130806,2,0,L|114:329,1,99.9999999999999,8|8,0:0|0:0,0:0:0:0:
156,357,131298,2,0,P|202:338|251:331,1,99.9999999999999,4|0,1:2|0:0,0:0:0:0:
299,345,131790,1,8,0:0:0:0:
299,345,131954,2,0,P|339:300|340:243,1,99.9999999999999,4|0,1:2|0:0,0:0:0:0:
324,221,132446,1,0,1:0:0:0:
324,221,132610,1,4,0:0:0:0:
256,192,132774,12,0,140642,0:0:0:0:
