osu file format v14

[General]
AudioFilename: Duca - amaoto.mp3
AudioLeadIn: 0
PreviewTime: 75541
Countdown: 0
SampleSet: Soft
StackLeniency: 0.7
Mode: 2
LetterboxInBreaks: 0
WidescreenStoryboard: 0

[Editor]
Bookmarks: 34034,75893,103793,142859,165182,193085,201456
DistanceSpacing: 1.5
BeatDivisor: 6
GridSize: 8
TimelineZoom: 1.9

[Metadata]
Title:Amaoto
TitleUnicode:アマオト
Artist:Duca
ArtistUnicode:Duca
Creator:Sooty
Version:Rain
Source:アメサラサ ~雨と不思議な君に、恋をする~
Tags:Amesarasa ~Ame to, Fushigi na Kimi ni, Koi wo Suru~ visual novel eroge vn opening hentai
BeatmapID:507679
BeatmapSetID:216268

[Difficulty]
HPDrainRate:6
CircleSize:4
OverallDifficulty:8.5
ApproachRate:8.5
SliderMultiplier:2.5
SliderTickRate:1

[Events]
//Background and Video events
0,0,"BG.jpg",0,0
//Break Periods
2,11912,22200
2,98424,103130
2,187526,192433
//Storyboard Layer 0 (Background)
//Storyboard Layer 1 (Fail)
//Storyboard Layer 2 (Pass)
//Storyboard Layer 3 (Foreground)
//Storyboard Sound Samples

[TimingPoints]
550,697.674418604651,4,2,0,30,1,0
6131,-100,4,2,1,30,0,0
22875,-100,4,2,1,60,0,0
25666,-76.9230769230769,4,2,1,60,0,0
26363,-100,4,2,1,60,0,0
31247,-76.9230769230769,4,2,1,60,0,0
31596,-100,4,2,1,60,0,0
34038,-100,4,2,1,50,0,0
59154,-76.9230769230769,4,2,1,50,0,0
59852,-100,4,2,1,50,0,0
73108,-100,4,2,1,60,0,0
75549,-200,4,2,1,70,0,0
75898,-66.6666666666667,4,2,1,80,0,1
98224,-100,4,2,1,50,0,0
115317,-76.9230769230769,4,2,1,50,0,0
116247,-100,4,2,1,50,0,0
140433,-83.3333333333333,4,2,1,60,0,0
140782,-71.4285714285714,4,2,1,70,0,0
141131,-62.5,4,2,1,80,0,0
141829,-100,4,2,1,80,0,0
142526,-200,4,2,1,70,0,0
142875,-66.6666666666667,4,2,1,80,0,1
165201,-76.9230769230769,4,2,1,50,0,0
186829,-76.9230769230769,4,2,1,80,0,0
187526,-100,4,2,1,40,0,0
195898,-100,4,2,1,50,0,0
197294,-100,4,2,1,60,0,0
198689,-100,4,2,1,70,0,0
200084,-100,4,2,1,80,0,0
201480,-66.6666666666667,4,2,1,90,0,1
207759,-50,4,2,1,90,0,1
207991,-66.6666666666667,4,2,1,90,0,1
223805,-100,4,2,1,80,0,0

[Colours]
Combo1 : 128,128,255
Combo2 : 74,255,255
Combo3 : 38,38,251
Combo4 : 251,40,40

[HitObjects]
320,56,6131,5,2,0:0:0:0:
96,56,6480,1,0,0:0:0:0:
280,96,6829,1,2,0:0:0:0:
56,88,7177,1,0,0:0:0:0:
464,144,7526,1,2,0:0:0:0:
352,144,7875,1,0,0:0:0:0:
128,192,8224,1,2,0:0:0:0:
344,192,8456,2,0,L|408:192,1,41.6666666666667,2|0,0:0|0:0,0:0:0:0:
128,248,8922,5,2,0:0:0:0:
320,248,9270,1,0,0:0:0:0:
32,248,9619,1,2,0:0:0:0:
224,248,9968,1,0,0:0:0:0:
344,176,10201,1,8,0:0:0:0:
224,176,10317,1,0,0:0:0:0:
96,176,10549,1,8,0:0:0:0:
224,176,10666,1,8,0:0:0:0:
464,176,10898,1,8,0:0:0:0:
344,176,11015,5,0,0:0:0:0:
195,32,11247,2,0,L|70:32,1,125,8|0,0:0|0:0,0:0:0:0:
256,120,11712,1,4,0:0:0:0:
72,48,22875,6,0,L|120:184,1,125,6|0,0:0|0:0,0:0:0:0:
368,128,23573,2,0,L|240:168,1,125,2|0,0:0|0:0,0:0:0:0:
72,280,24154,1,0,0:0:0:0:
168,304,24270,2,0,L|304:304,1,125,2|0,0:0|0:0,0:0:0:0:
496,280,24852,1,0,0:0:0:0:
496,280,24968,2,0,P|488:232|464:192,1,83.3333333333333,2|0,0:0|0:0,0:0:0:0:
360,192,25317,1,2,0:0:0:0:
328,192,25549,1,0,0:0:0:0:
208,192,25666,6,0,L|40:192,1,162.499992561341,2|0,0:0|0:0,0:0:0:0:
200,80,26363,2,0,P|264:80|336:96,1,125,2|0,0:0|0:0,0:0:0:0:
392,176,26945,1,0,0:0:0:0:
208,176,27061,2,0,L|312:176,1,83.3333333333333,2|0,0:0|0:0,0:0:0:0:
392,176,27410,1,2,0:0:0:0:
232,264,27643,1,0,0:0:0:0:
128,312,27759,2,0,L|39:312,1,83.3333333333333,2|0,0:0|0:0,0:0:0:0:
184,264,28108,2,0,L|267:264,1,83.3333333333333,2|0,0:0|0:0,0:0:0:0:
488,256,28456,6,0,P|480:192|432:128,1,125,2|0,0:0|0:0,0:0:0:0:
360,96,29038,1,0,0:0:0:0:
208,72,29154,2,0,L|80:72,1,125,2|0,0:0|0:0,0:0:0:0:
0,136,29736,1,0,0:0:0:0:
104,192,29852,2,0,L|192:192,1,83.3333333333333,2|0,0:0|0:0,0:0:0:0:
304,240,30201,2,0,L|387:240,1,83.3333333333333,2|0,0:0|0:0,0:0:0:0:
187,192,30549,2,0,L|99:192,1,83.3333333333333,2|0,0:0|0:0,0:0:0:0:
304,96,30898,1,2,0:0:0:0:
440,96,31131,1,0,0:0:0:0:
216,96,31247,6,0,L|104:96,1,108.333328374227,2|0,0:0|0:0,0:0:0:0:
20,192,31596,2,0,L|108:192,1,83.3333333333333
352,192,31945,2,0,L|448:192,1,83.3333333333333,10|0,0:0|0:0,0:0:0:0:
352,248,32294,1,0,0:0:0:0:
192,264,32526,1,0,0:0:0:0:
64,216,32643,2,0,P|124:232|176:168,2,125,2|2|10,0:0|0:0|0:0,0:0:0:0:
64,216,34038,6,0,P|120:176|192:208,1,125,2|0,0:0|0:0,0:0:0:0:
408,112,34736,2,0,L|256:112,1,125,2|0,0:0|0:0,0:0:0:0:
136,200,35317,1,0,0:0:0:0:
224,200,35433,2,0,L|328:200,1,83.3333333333333,2|0,0:0|0:0,0:0:0:0:
416,272,35782,2,0,L|304:272,1,83.3333333333333
192,272,36131,1,2,0:0:0:0:
32,232,36480,5,0,0:0:0:0:
80,232,36712,1,0,0:0:0:0:
216,232,36829,2,0,P|276:236|360:264,1,125,2|0,0:0|0:0,0:0:0:0:
504,312,37526,2,0,P|440:312|376:280,1,125,2|0,0:0|0:0,0:0:0:0:
176,144,38108,1,0,0:0:0:0:
296,144,38224,6,0,L|368:200,1,83.3333333333333,2|0,0:0|0:0,0:0:0:0:
480,224,38573,2,0,L|416:288,1,83.3333333333333
288,232,38922,2,0,L|224:288,1,83.3333333333333,2|0,0:0|0:0,0:0:0:0:
120,232,39270,2,0,L|56:288,1,83.3333333333333,2|0,0:0|0:0,0:0:0:0:
304,144,39619,6,0,B|408:144|408:144|432:176,1,125,2|0,0:0|0:0,0:0:0:0:
176,240,40317,2,0,B|72:136,1,125,2|0,0:0|0:0,0:0:0:0:
256,192,40898,2,0,L|320:192,1,41.6666666666667
80,112,41247,1,2,0:0:0:0:
112,112,41364,1,0,0:0:0:0:
440,112,41596,1,0,0:0:0:0:
416,112,41712,1,0,0:0:0:0:
256,192,41945,1,0,0:0:0:0:
288,192,42061,1,0,0:0:0:0:
376,272,42410,6,0,L|253:248,1,125,2|0,0:0|0:0,0:0:0:0:
144,112,42991,1,0,0:0:0:0:
328,112,43108,2,0,L|216:112,1,83.3333333333333,2|0,0:0|0:0,0:0:0:0:
328,112,43456,2,0,L|216:112,1,83.3333333333333
376,176,43805,2,0,L|432:176,1,41.6666666666667,2|0,0:0|0:0,0:0:0:0:
344,240,44038,2,0,L|416:240,1,41.6666666666667
112,192,44503,6,0,L|48:192,1,41.6666666666667,2|0,0:0|0:0,0:0:0:0:
160,224,44736,2,0,L|208:224,1,41.6666666666667
384,328,45201,6,0,P|424:296|448:216,1,125,2|0,0:0|0:0,0:0:0:0:
128,208,45898,2,0,P|80:168|40:88,1,125,8|0,0:0|0:0,0:0:0:0:
120,48,46480,1,0,0:0:0:0:
48,114,46596,2,0,P|104:136|168:128,1,125,2|0,0:0|0:0,0:0:0:0:
440,208,47294,1,10,0:0:0:0:
360,208,47643,1,0,0:0:0:0:
280,208,47991,6,0,L|144:232,1,125,2|0,0:0|0:0,0:0:0:0:
64,192,48573,1,0,0:0:0:0:
200,136,48689,2,0,B|328:112,1,125,8|0,0:0|0:0,0:0:0:0:
456,160,49270,1,0,0:0:0:0:
376,208,49387,2,0,L|280:208,1,83.3333333333333,2|0,0:0|0:0,0:0:0:0:
216,264,49736,2,0,L|112:264,1,83.3333333333333
352,280,50084,2,0,L|448:280,1,83.3333333333333,10|0,0:0|0:0,0:0:0:0:
477,280,50433,6,0,L|352:280,1,125,2|2,0:0|0:0,0:0:0:0:
144,112,51131,1,2,0:0:0:0:
376,224,51480,1,8,0:0:0:0:
48,264,51829,2,0,P|113:285|192:272,1,125,8|0,0:0|0:0,0:0:0:0:
312,224,52410,2,0,L|264:224,1,41.6666666666667,8|0,0:0|0:0,0:0:0:0:
176,128,52875,2,0,P|224:128|280:120,1,83.3333333333333,2|0,0:0|0:0,0:0:0:0:
384,168,53224,2,0,P|320:168|280:152,1,83.3333333333333
128,48,53573,6,0,P|67:34|4:35,2,125,10|0|2,0:0|0:0|0:0,0:0:0:0:
320,192,54619,2,0,L|224:192,1,83.3333333333333,2|0,0:0|0:0,0:0:0:0:
136,192,54968,2,0,L|56:192,2,41.6666666666667,2|0|0,0:0|0:0|0:0,0:0:0:0:
248,248,55317,2,0,L|352:280,1,83.3333333333333,8|0,0:0|0:0,0:0:0:0:
472,152,55666,2,0,L|353:115,1,125,8|0,0:0|0:0,0:0:0:0:
136,192,56247,1,0,0:0:0:0:
264,224,56363,6,0,B|328:232|328:232|392:224,1,125,10|8,0:0|0:0,0:0:0:0:
64,192,57061,1,8,0:0:0:0:
424,168,57410,2,0,L|424:320,1,125,8|0,0:0|0:0,0:0:0:0:
200,192,58108,1,2,0:0:0:0:
400,168,58456,1,8,0:0:0:0:
200,192,58689,1,0,0:0:0:0:
120,184,58805,2,0,L|144:104,1,83.3333333333333,8|0,0:0|0:0,0:0:0:0:
368,128,59154,6,0,P|464:192|352:184,1,270.833320935568,4|0,0:0|0:0,0:0:0:0:
192,328,59852,2,0,P|120:312|64:264,1,125,10|0,0:0|0:0,0:0:0:0:
176,200,60433,1,0,0:0:0:0:
264,200,60549,2,0,L|384:200,1,83.3333333333333
456,232,60898,2,0,P|456:168|440:136,1,83.3333333333333,2|0,0:0|0:0,0:0:0:0:
256,104,61247,2,0,L|296:56,2,41.6666666666667,8|0|0,0:0|0:0|0:0,0:0:0:0:
112,104,61596,2,0,L|64:104,2,41.6666666666667,8|0|0,0:0|0:0|0:0,0:0:0:0:
256,192,61945,12,8,64387,0:0:0:0:
320,104,64736,6,0,L|192:136,1,125,4|0,0:0|0:0,0:0:0:0:
80,168,65317,1,0,0:0:0:0:
216,184,65433,2,0,L|360:208,1,125,10|0,0:0|0:0,0:0:0:0:
184,272,66015,1,0,0:0:0:0:
320,264,66131,2,0,L|304:368,1,83.3333333333333,2|0,0:0|0:0,0:0:0:0:
192,176,66480,2,0,L|208:80,1,83.3333333333333,2|0,0:0|0:0,0:0:0:0:
384,184,66829,2,0,L|480:192,1,83.3333333333333,8|0,0:0|0:0,0:0:0:0:
280,184,67177,1,2,0:0:0:0:
264,184,67410,1,0,0:0:0:0:
136,176,67526,6,0,P|56:192|0:192,1,125,2|0,0:0|0:0,0:0:0:0:
136,280,68108,1,0,0:0:0:0:
320,240,68224,2,0,P|384:232|456:192,1,125,10|0,0:0|0:0,0:0:0:0:
336,128,68805,1,0,0:0:0:0:
248,104,68922,2,0,L|184:104,2,41.6666666666667,2|0|0,0:0|0:0|0:0,0:0:0:0:
368,232,69270,2,0,P|344:272|312:296,1,83.3333333333333,2|0,0:0|0:0,0:0:0:0:
64,104,69619,2,0,B|136:104|136:104|192:152,1,125,10|0,0:0|0:0,0:0:0:0:
488,312,70317,6,0,P|448:224|328:264,1,208.333333333333,4|0,0:0|0:0,0:0:0:0:
192,240,71015,1,8,0:0:0:0:
64,152,71363,2,0,L|168:152,1,83.3333333333333,2|2,0:0|0:0,0:0:0:0:
96,240,71712,1,0,0:0:0:0:
328,184,71945,2,0,P|352:264|304:328,1,166.666666666667,2|8,0:0|0:0,0:0:0:0:
96,240,72759,1,0,0:0:0:0:
472,192,73108,6,0,B|350:163,2,125,10|0|10,0:0|0:0|0:0,0:0:0:0:
176,88,74038,2,0,L|208:128,1,41.6666666666667,8|0,0:0|0:0,0:0:0:0:
88,88,74503,5,8,0:0:0:0:
248,88,74736,1,8,0:0:0:0:
88,88,75201,5,8,0:0:0:0:
384,88,75433,1,8,0:0:0:0:
472,120,75549,2,0,L|520:120,1,41.6666666666667,2|0,0:0|0:0,0:0:0:0:
304,128,75898,6,0,L|184:176,1,125.000004768372,4|0,0:0|0:0,0:0:0:0:
312,224,76247,2,0,L|440:304,1,125.000004768372
56,264,76596,2,0,B|144:296|144:296|232:264,1,187.500007152558,10|0,0:0|0:0,0:0:0:0:
344,184,77177,1,0,0:0:0:0:
456,208,77294,2,0,P|400:240|336:232,1,125.000004768372,2|0,0:0|0:0,0:0:0:0:
192,120,77643,2,0,P|256:96|320:112,1,125.000004768372
496,152,77991,6,0,P|512:240|464:336,1,187.500007152558,10|0,0:0|0:0,0:0:0:0:
256,336,78689,2,0,L|256:208,1,125.000004768372,2|0,0:0|0:0,0:0:0:0:
32,120,79038,2,0,P|24:176|32:256,1,125.000004768372
272,192,79387,1,8,0:0:0:0:
176,192,79736,1,0,0:0:0:0:
320,88,79968,2,0,B|408:88|408:88|464:112|504:88,1,187.500007152558,2|0,0:0|0:0,0:0:0:0:
384,168,80433,1,0,0:0:0:0:
48,192,80782,1,8,0:0:0:0:
240,192,81131,5,0,0:0:0:0:
144,192,81363,1,0,0:0:0:0:
256,192,81480,2,0,L|368:256,1,125.000004768372,2|0,0:0|0:0,0:0:0:0:
176,272,81829,2,0,L|64:336,1,125.000004768372
360,328,82177,2,0,B|512:216,1,187.500007152558,8|0,0:0|0:0,0:0:0:0:
160,128,82759,1,0,0:0:0:0:
72,64,82875,2,0,L|40:200,1,125.000004768372,2|0,0:0|0:0,0:0:0:0:
240,192,83224,2,0,L|272:56,1,125.000004768372
43,185,83573,1,10,0:0:0:0:
344,192,83922,5,0,0:0:0:0:
344,192,84270,2,0,P|280:192|256:136,1,125.000004768372,2|0,0:0|0:0,0:0:0:0:
448,192,84619,1,0,0:0:0:0:
160,186,84968,2,0,P|101:202|42:184,1,125.000004768372,8|0,0:0|0:0,0:0:0:0:
328,120,85317,2,0,P|384:96|448:104,1,125.000004768372
368,192,85666,1,2,0:0:0:0:
72,192,85898,1,0,0:0:0:0:
168,272,86015,2,0,P|240:272|280:240,1,125.000004768372,2|0,0:0|0:0,0:0:0:0:
72,216,86363,6,0,L|67:154,2,62.5000023841859,10|0|10,0:0|0:0|0:0,0:0:0:0:
408,96,86712,1,2,0:0:0:0:
408,96,87061,6,0,L|320:200,1,125.000004768372,6|0,0:0|0:0,0:0:0:0:
104,160,87410,2,0,L|8:264,1,125.000004768372
256,232,87759,2,0,P|328:296|416:296,1,187.500007152558,10|0,0:0|0:0,0:0:0:0:
184,80,88340,1,0,0:0:0:0:
72,200,88456,2,0,P|64:232|72:264,2,62.5000023841859,2|0|0,0:0|0:0|0:0,0:0:0:0:
280,232,88805,2,0,L|328:272,2,62.5000023841859
70,260,89154,6,0,B|38:364|38:364|70:364,1,125.000004768372,10|0,0:0|0:0,0:0:0:0:
280,232,89503,2,0,B|392:232|392:232|376:216,1,125.000004768372
200,144,89852,2,0,B|96:144|96:144|56:120|8:136,2,187.500007152558,2|0|8,0:0|0:0|0:0,0:0:0:0:
392,152,90782,2,0,L|328:208,1,62.5000023841859
48,200,91131,2,0,L|96:248,1,62.5000023841859,0|2,0:0|0:0,0:0:0:0:
392,336,91480,5,0,0:0:0:0:
464,168,91596,2,0,P|472:232|440:304,1,125.000004768372
272,248,91945,2,0,P|192:296|96:272,1,187.500007152558,10|0,0:0|0:0,0:0:0:0:
32,208,92410,1,0,0:0:0:0:
104,144,92526,1,0,0:0:0:0:
299,107,92643,6,0,P|379:107|475:187,1,187.500007152558,2|0,0:0|0:0,0:0:0:0:
336,192,93224,1,0,0:0:0:0:
144,288,93340,2,0,P|208:288|264:256,1,125.000004768372,8|0,0:0|0:0,0:0:0:0:
480,248,93689,2,0,B|496:192|480:136|480:136|392:176|280:144,1,312.500011920929,2|0,0:0|0:0,0:0:0:0:
176,176,94387,1,0,0:0:0:0:
64,192,94619,1,0,0:0:0:0:
264,232,94736,2,0,B|360:248|360:248|432:151,1,187.500007152558,10|2,0:0|0:0,0:0:0:0:
336,112,95201,1,0,0:0:0:0:
240,112,95317,1,0,0:0:0:0:
144,112,95433,6,0,L|144:256,1,125.000004768372,2|0,0:0|0:0,0:0:0:0:
360,112,95782,2,0,L|360:264,1,125.000004768372,2|0,0:0|0:0,0:0:0:0:
160,168,96131,2,0,L|160:296,1,125.000004768372,10|0,0:0|0:0,0:0:0:0:
384,176,96480,2,0,L|392:320,1,125.000004768372,2|0,0:0|0:0,0:0:0:0:
208,104,96829,5,6,0:0:0:0:
96,104,96945,2,0,L|24:104,1,62.5000023841859
160,264,97177,1,2,0:0:0:0:
224,264,97294,2,0,L|304:264,1,62.5000023841859
416,256,97526,2,0,L|488:256,2,62.5000023841859,10|0|0,0:0|0:0|0:0,0:0:0:0:
248,192,97875,2,0,L|168:192,2,62.5000023841859,2|0|0,0:0|0:0|0:0,0:0:0:0:
448,192,98224,1,4,0:0:0:0:
360,168,103805,6,0,L|456:272,1,125,2|0,0:0|0:0,0:0:0:0:
176,200,104503,2,0,L|32:216,1,125,8|0,0:0|0:0,0:0:0:0:
192,200,105084,1,0,0:0:0:0:
312,168,105201,2,0,P|256:200|192:200,2,125,2|0|8,0:0|0:0|0:0,0:0:0:0:
56,192,106247,1,0,0:0:0:0:
352,64,106596,6,0,P|360:120|344:200,1,125,2|0,0:0|0:0,0:0:0:0:
272,128,107177,1,0,0:0:0:0:
155,97,107294,2,0,P|219:129|291:121,1,125,8|0,0:0|0:0,0:0:0:0:
384,112,107875,1,0,0:0:0:0:
296,224,107991,2,0,L|200:224,1,83.3333333333333,2|0,0:0|0:0,0:0:0:0:
304,280,108340,2,0,L|192:280,1,83.3333333333333
72,280,108689,1,10,0:0:0:0:
216,72,109038,2,0,L|320:72,1,83.3333333333333
416,104,109387,6,0,P|400:160|328:200,1,125,2|0,0:0|0:0,0:0:0:0:
40,208,110084,2,0,P|96:184|168:224,1,125,8|0,0:0|0:0,0:0:0:0:
352,232,110666,1,0,0:0:0:0:
456,232,110782,2,0,L|372:232,1,83.3333333333333,2|0,0:0|0:0,0:0:0:0:
264,232,111131,2,0,L|180:232,1,83.3333333333333,2|0,0:0|0:0,0:0:0:0:
336,160,111480,1,8,0:0:0:0:
336,160,111829,1,0,0:0:0:0:
88,128,112177,6,0,B|144:176|208:128,2,125,2|0|8,0:0|0:0|0:0,0:0:0:0:
296,192,113108,1,0,0:0:0:0:
296,192,113224,1,0,0:0:0:0:
184,112,113573,2,0,L|192:208,1,83.3333333333333,2|0,0:0|0:0,0:0:0:0:
312,112,113922,2,0,L|304:208,1,83.3333333333333
119,59,114270,2,0,L|201:126,1,83.3333333333333,10|0,0:0|0:0,0:0:0:0:
372,54,114619,2,0,L|300:123,1,83.3333333333333,2|0,0:0|0:0,0:0:0:0:
80,192,114968,5,2,0:0:0:0:
256,192,115317,2,0,L|424:192,2,162.499992561341,0|8|0,0:0|0:0|0:0,0:0:0:0:
80,192,116247,1,0,0:0:0:0:
184,192,116363,2,0,L|256:272,1,83.3333333333333,2|0,0:0|0:0,0:0:0:0:
352,256,116712,2,0,L|416:176,1,83.3333333333333,2|0,0:0|0:0,0:0:0:0:
168,264,117061,2,0,L|304:264,1,125,8|0,0:0|0:0,0:0:0:0:
64,48,117759,6,0,L|200:88,1,125,2|0,0:0|0:0,0:0:0:0:
288,96,118340,1,0,0:0:0:0:
168,96,118456,2,0,L|24:96,1,125,10|0,0:0|0:0,0:0:0:0:
232,184,119038,1,0,0:0:0:0:
136,184,119154,2,0,L|232:184,1,83.3333333333333,2|0,0:0|0:0,0:0:0:0:
320,224,119503,1,0,0:0:0:0:
480,224,119736,2,0,L|408:224,1,41.6666666666667,0|10,0:0|0:0,0:0:0:0:
248,224,120084,2,0,L|289:224,1,41.6666666666667,0|2,0:0|0:0,0:0:0:0:
160,224,120433,1,0,0:0:0:0:
56,152,120549,6,0,L|184:152,2,125,10|0|8,0:0|0:0|0:0,0:0:0:0:
336,192,121596,1,8,0:0:0:0:
104,128,121945,2,0,L|232:128,1,125,2|0,0:0|0:0,0:0:0:0:
424,192,122526,1,0,0:0:0:0:
280,192,122643,1,8,0:0:0:0:
136,192,122991,1,0,0:0:0:0:
328,192,123224,1,0,0:0:0:0:
232,192,123340,6,0,L|312:248,1,83.3333333333333,2|0,0:0|0:0,0:0:0:0:
232,280,123689,2,0,L|320:336,1,83.3333333333333
112,192,124038,2,0,L|40:240,1,83.3333333333333,8|0,0:0|0:0,0:0:0:0:
352,320,124619,1,0,0:0:0:0:
240,312,124736,2,0,L|144:280,1,83.3333333333333,2|0,0:0|0:0,0:0:0:0:
24,304,125084,2,0,L|176:288,1,125,0|8,0:0|0:0,0:0:0:0:
408,96,125782,5,0,0:0:0:0:
496,96,126015,1,0,0:0:0:0:
304,96,126131,2,0,L|152:112,1,125,8|0,0:0|0:0,0:0:0:0:
440,192,126829,1,8,0:0:0:0:
184,192,127177,2,0,B|128:208|128:208|32:208,1,125,12|0,0:0|0:0,0:0:0:0:
408,192,127875,1,2,0:0:0:0:
256,288,128108,1,0,0:0:0:0:
48,288,128224,2,0,L|32:200,1,83.3333333333333,14|0,0:0|0:0,0:0:0:0:
176,272,128573,2,0,L|200:160,1,83.3333333333333
80,96,128922,6,0,L|208:128,2,125,2|0|8,0:0|0:0|0:0,0:0:0:0:
208,232,129852,2,0,P|262:239|344:216,1,125
112,232,130317,1,2,0:0:0:0:
432,136,130549,1,0,0:0:0:0:
432,136,130666,1,2,0:0:0:0:
224,136,130898,1,0,0:0:0:0:
432,136,131015,1,12,0:0:0:0:
464,136,131712,6,0,L|464:280,1,125,2|0,0:0|0:0,0:0:0:0:
136,256,132410,2,0,L|136:120,1,125,8|0,0:0|0:0,0:0:0:0:
336,128,132991,1,0,0:0:0:0:
224,200,133108,2,0,L|104:264,1,125,2|0,0:0|0:0,0:0:0:0:
400,216,133805,1,8,0:0:0:0:
136,192,134154,1,0,0:0:0:0:
136,192,134387,1,0,0:0:0:0:
16,192,134503,6,0,L|152:160,1,125,2|0,0:0|0:0,0:0:0:0:
464,192,135201,2,0,L|336:232,1,125,8|0,0:0|0:0,0:0:0:0:
192,248,135782,1,0,0:0:0:0:
112,248,135898,1,2,0:0:0:0:
424,128,136131,2,0,L|368:128,1,41.6666666666667,2|0,0:0|0:0,0:0:0:0:
80,128,136480,1,2,0:0:0:0:
64,88,136596,2,0,L|8:88,3,41.6666666666667,8|0|0|0,0:0|0:0|0:0|0:0,0:0:0:0:
328,128,137177,1,0,0:0:0:0:
464,128,137294,6,0,L|336:216,1,125,6|0,0:0|0:0,0:0:0:0:
128,200,137875,1,0,0:0:0:0:
32,192,137991,2,0,L|168:208,1,125,8|0,0:0|0:0,0:0:0:0:
432,264,138573,1,0,0:0:0:0:
432,264,138689,1,2,0:0:0:0:
96,240,138922,2,0,P|64:304|104:352,1,125,2|0,0:0|0:0,0:0:0:0:
296,264,139387,5,8,0:0:0:0:
432,264,139736,1,0,0:0:0:0:
179,240,140084,2,0,L|83:240,1,83.3333333333333,2|0,0:0|0:0,0:0:0:0:
232,240,140433,2,0,L|344:240,1,99.9999969482423,2|0,0:0|0:0,0:0:0:0:
144,184,140782,2,0,L|16:184,1,116.666663106283,10|0,0:0|0:0,0:0:0:0:
304,184,141131,6,0,L|504:184,1,200,10|8,0:0|0:0,0:0:0:0:
56,192,141712,1,8,0:0:0:0:
456,192,142177,5,10,0:0:0:0:
264,112,142410,1,10,0:0:0:0:
184,112,142526,2,0,L|136:112,1,41.6666666666667,2|0,0:0|0:0,0:0:0:0:
456,192,142875,6,0,L|376:288,1,125.000004768372,6|0,0:0|0:0,0:0:0:0:
96,296,143224,2,0,L|176:200,1,125.000004768372
456,152,143573,2,0,L|336:304,1,187.500007152558,10|0,0:0|0:0,0:0:0:0:
152,296,144154,1,0,0:0:0:0:
48,240,144270,2,0,L|152:168,1,125.000004768372,2|0,0:0|0:0,0:0:0:0:
344,256,144619,2,0,L|456:176,1,125.000004768372
160,232,144968,2,0,B|72:184|72:184|48:88,1,187.500007152558,8|0,0:0|0:0,0:0:0:0:
264,232,145666,6,0,L|400:304,1,125.000004768372,2|0,0:0|0:0,0:0:0:0:
232,304,146015,2,0,L|88:352,1,125.000004768372
320,128,146363,2,0,P|412:145|492:193,1,187.500007152558,8|0,0:0|0:0,0:0:0:0:
288,72,146945,1,0,0:0:0:0:
168,112,147061,2,0,L|72:208,1,125.000004768372,2|0,0:0|0:0,0:0:0:0:
352,192,147410,2,0,L|432:96,1,125.000004768372
216,288,147759,2,0,P|128:288|72:200,1,187.500007152558,10|2,0:0|0:0,0:0:0:0:
192,184,148224,1,2,0:0:0:0:
72,184,148340,1,2,0:0:0:0:
216,144,148456,6,0,P|312:144|408:160,2,187.500007152558,2|0|8,0:0|0:0|0:0,0:0:0:0:
96,192,149387,2,0,L|8:192,1,62.5000023841859
280,192,149736,1,0,0:0:0:0:
368,192,149852,2,0,L|248:272,1,125.000004768372,2|0,0:0|0:0,0:0:0:0:
360,312,150201,2,0,L|216:312,1,125.000004768372
24,312,150549,1,10,0:0:0:0:
304,312,150898,1,0,0:0:0:0:
176,240,151131,1,0,0:0:0:0:
304,176,151247,6,0,P|397:217|496:200,1,187.500007152558,2|0,0:0|0:0,0:0:0:0:
216,72,151945,2,0,P|160:72|88:104,1,125.000004768372,10|0,0:0|0:0,0:0:0:0:
288,96,152294,2,0,P|344:88|424:104,1,125.000004768372
168,184,152643,2,0,P|240:168|296:136,1,125.000004768372,2|0,0:0|0:0,0:0:0:0:
392,312,152991,2,0,P|296:312|216:256,1,187.500007152558,2|8,0:0|0:0,0:0:0:0:
104,128,153456,6,0,L|176:128,1,62.5000023841859,2|8,0:0|0:0,0:0:0:0:
416,128,153689,1,2,0:0:0:0:
424,112,154038,6,0,P|376:80|304:74,1,125.000004768372,6|0,0:0|0:0,0:0:0:0:
56,176,154387,2,0,P|114:174|176:152,1,125.000004768372
392,192,154736,2,0,B|480:224|480:224|464:272|520:328,2,187.500007152558,8|0|2,0:0|0:0|0:0,0:0:0:0:
184,184,155666,1,0,0:0:0:0:
72,176,155782,2,0,P|152:216|256:216,1,187.500007152558,0|8,0:0|0:0,0:0:0:0:
432,192,156480,1,0,0:0:0:0:
264,80,156712,1,0,0:0:0:0:
360,120,156829,6,0,P|312:168|240:192,1,125.000004768372,2|0,0:0|0:0,0:0:0:0:
440,312,157177,2,0,P|376:320|304:304,1,125.000004768372
128,320,157526,2,0,B|8:320|0:200,1,187.500007152558,8|0,0:0|0:0,0:0:0:0:
152,168,158108,1,0,0:0:0:0:
264,128,158224,2,0,L|400:128,1,125.000004768372,2|0,0:0|0:0,0:0:0:0:
488,216,158573,2,0,L|360:216,1,125.000004768372
160,224,158922,1,8,0:0:0:0:
32,288,159270,2,0,L|184:256,1,125.000004768372,2|0,0:0|0:0,0:0:0:0:
340,119,159619,6,0,B|472:152|472:152|492:215,1,187.500007152558,2|0,0:0|0:0,0:0:0:0:
56,192,160317,2,0,P|120:120|224:120,1,187.500007152558,8|0,0:0|0:0,0:0:0:0:
376,256,160898,1,0,0:0:0:0:
464,176,161015,2,0,P|408:144|343:142,1,125.000004768372,2|0,0:0|0:0,0:0:0:0:
232,296,161363,2,0,P|290:307|352:280,1,125.000004768372
128,248,161712,2,0,P|112:192|136:104,1,125.000004768372,10|0,0:0|0:0,0:0:0:0:
392,160,162061,2,0,P|448:192|464:256,1,125.000004768372
256,96,162410,6,0,L|136:144,1,125.000004768372,2|0,0:0|0:0,0:0:0:0:
392,192,162759,2,0,L|267:192,1,125.000004768372,2|0,0:0|0:0,0:0:0:0:
80,240,163108,2,0,P|126:281|185:302,1,125.000004768372,10|0,0:0|0:0,0:0:0:0:
408,192,163456,2,0,L|283:192,1,125.000004768372,2|2,0:0|0:0,0:0:0:0:
96,168,163805,2,0,L|24:168,1,62.5000023841859,4|0,0:0|0:0,0:0:0:0:
104,240,164038,2,0,L|192:240,1,62.5000023841859
248,240,164270,2,0,L|311:240,1,62.5000023841859,2|0,0:0|0:0,0:0:0:0:
488,240,164503,6,0,L|440:280,1,62.5000023841859,4|0,0:0|0:0,0:0:0:0:
310,240,164736,2,0,L|238:288,1,62.5000023841859,2|0,0:0|0:0,0:0:0:0:
48,192,165084,1,2,0:0:0:0:
256,64,165201,6,0,P|336:72|384:144,1,162.499992561341,8|0,0:0|0:0,0:0:0:0:
504,280,165724,2,0,P|440:336|352:320,1,162.499992561341,8|0,0:0|0:0,0:0:0:0:
128,208,166247,2,0,P|200:184|288:192,1,162.499992561341,8|0,0:0|0:0,0:0:0:0:
160,208,166945,2,0,B|80:208|80:208|32:280,2,162.499992561341,8|0|8,0:0|0:0|0:0,0:0:0:0:
256,192,167991,12,2,170433,0:0:0:0:
168,136,170782,6,0,L|128:256,1,108.333328374227,8|0,0:0|0:0,0:0:0:0:
216,136,171131,1,2,0:0:0:0:
56,136,171363,1,8,0:0:0:0:
168,136,171480,2,0,L|296:136,1,108.333328374227,8|2,0:0|0:0,0:0:0:0:
416,184,171829,2,0,L|256:232,1,162.499992561341,8|0,0:0|0:0,0:0:0:0:
112,264,172410,1,10,0:0:0:0:
112,264,172526,1,0,0:0:0:0:
360,264,172759,1,0,0:0:0:0:
360,264,172875,2,0,L|312:96,1,162.499992561341,10|8,0:0|0:0,0:0:0:0:
256,192,173573,12,2,176015,0:0:0:0:
320,64,176247,5,0,0:0:0:0:
304,64,176363,6,0,L|184:64,1,108.333328374227,6|0,0:0|0:0,0:0:0:0:
80,80,176712,2,0,L|136:192,1,108.333328374227,2|0,0:0|0:0,0:0:0:0:
384,80,177061,6,0,L|264:104,1,108.333328374227,10|0,0:0|0:0,0:0:0:0:
88,144,177410,2,0,L|184:216,1,108.333328374227,2|0,0:0|0:0,0:0:0:0:
456,192,177759,6,0,L|336:192,1,108.333328374227,2|0,0:0|0:0,0:0:0:0:
66,209,178108,2,0,L|202:209,1,108.333328374227,2|0,0:0|0:0,0:0:0:0:
400,192,178456,6,0,P|352:224|288:248,1,108.333328374227,10|0,0:0|0:0,0:0:0:0:
240,272,178747,1,0,0:0:0:0:
168,288,178805,2,0,P|109:288|32:296,1,108.333328374227
312,192,179154,6,0,L|352:80,1,108.333328374227,6|0,0:0|0:0,0:0:0:0:
152,192,179503,2,0,L|32:144,1,108.333328374227,2|0,0:0|0:0,0:0:0:0:
360,192,179852,6,0,L|440:104,1,108.333328374227,10|0,0:0|0:0,0:0:0:0:
192,192,180201,2,0,L|80:168,1,108.333328374227,2|0,0:0|0:0,0:0:0:0:
408,192,180550,6,0,L|512:152,1,108.333328374227,2|0,0:0|0:0,0:0:0:0:
240,192,180899,2,0,L|112:192,1,108.333328374227,2|0,0:0|0:0,0:0:0:0:
256,112,181247,6,0,L|336:112,2,54.1666641871136,10|0|0,0:0|0:0|0:0,0:0:0:0:
40,192,181596,2,0,L|168:192,1,108.333328374227,2|0,0:0|0:0,0:0:0:0:
455,276,181945,6,0,P|376:256|296:248,1,162.499992561341,4|0,0:0|0:0,0:0:0:0:
400,176,182526,1,0,0:0:0:0:
312,104,182643,2,0,P|240:112|152:152,1,162.499992561341,8|0,0:0|0:0,0:0:0:0:
24,304,183224,1,0,0:0:0:0:
200,304,183340,2,0,L|320:304,1,108.333328374227,2|0,0:0|0:0,0:0:0:0:
424,304,183689,2,0,P|464:240|456:128,2,162.499992561341,0|8|2,0:0|0:0|0:0,0:0:0:0:
216,192,184736,5,2,0:0:0:0:
344,192,185084,1,0,0:0:0:0:
40,88,185433,2,0,L|152:88,1,108.333328374227,12|0,0:0|0:0,0:0:0:0:
288,88,185782,1,0,0:0:0:0:
392,88,186015,1,2,0:0:0:0:
216,192,186363,1,0,0:0:0:0:
408,144,186480,2,0,P|416:200|384:272,1,108.333328374227,2|0,0:0|0:0,0:0:0:0:
128,192,186829,5,2,0:0:0:0:
120,128,193108,5,2,0:0:0:0:
384,128,193674,1,0,0:0:0:0:
120,128,194154,1,0,0:0:0:0:
360,128,194736,1,2,0:0:0:0:
16,200,195201,1,2,0:0:0:0:
496,200,195549,1,2,0:0:0:0:
80,200,195898,5,2,0:0:0:0:
296,200,196247,1,0,0:0:0:0:
496,200,196596,2,0,L|400:200,1,83.3333333333333,10|0,0:0|0:0,0:0:0:0:
96,200,196945,1,8,0:0:0:0:
344,272,197294,5,8,0:0:0:0:
32,272,197526,1,8,0:0:0:0:
96,272,197991,1,8,0:0:0:0:
400,272,198224,1,8,0:0:0:0:
512,192,198340,6,0,L|400:192,1,83.3333333333333,2|0,0:0|0:0,0:0:0:0:
176,192,198689,1,8,0:0:0:0:
368,192,199038,1,0,0:0:0:0:
96,192,199387,1,2,0:0:0:0:
448,120,199736,1,0,0:0:0:0:
128,120,200084,5,8,0:0:0:0:
264,120,200317,1,8,0:0:0:0:
40,120,200549,1,8,0:0:0:0:
512,192,200782,1,12,0:0:0:0:
512,192,201131,5,2,0:0:0:0:
336,192,201363,1,2,0:0:0:0:
512,192,201480,6,0,L|376:192,1,125.000004768372,6|0,0:0|0:0,0:0:0:0:
104,240,201829,2,0,P|48:208|40:152,1,125.000004768372
392,232,202177,2,0,B|496:152|496:152|456:160|416:144,1,187.500007152558,10|0,0:0|0:0,0:0:0:0:
256,144,202759,1,0,0:0:0:0:
152,144,202875,2,0,P|88:152|29:120,1,125.000004768372,2|0,0:0|0:0,0:0:0:0:
336,144,203224,2,0,P|396:159|464:136,1,125.000004768372,2|0,0:0|0:0,0:0:0:0:
256,280,203573,5,8,0:0:0:0:
128,280,203922,1,0,0:0:0:0:
480,280,204270,1,2,0:0:0:0:
32,280,204619,1,0,0:0:0:0:
368,192,204968,6,0,P|424:223|520:216,1,125.000004768372,8|0,0:0|0:0,0:0:0:0:
368,168,205317,2,0,P|312:152|240:168,1,125.000004768372
120,88,205666,2,0,L|192:88,1,62.5000023841859,2|0,0:0|0:0,0:0:0:0:
248,88,205898,1,0,0:0:0:0:
440,88,206015,2,0,B|512:128|504:200,1,125.000004768372,2|0,0:0|0:0,0:0:0:0:
184,192,206363,1,10,0:0:0:0:
112,192,206712,5,2,0:0:0:0:
112,192,206945,1,0,0:0:0:0:
0,288,207061,2,0,P|56:328|128:336,1,125.000004768372
288,72,207410,2,0,P|344:112|360:176,1,125.000004768372
144,192,207759,2,0,P|120:120|160:144,1,166.666666666667,10|0,0:0|0:0,0:0:0:0:
408,88,208108,1,2,0:0:0:0:
464,80,208340,1,0,0:0:0:0:
464,80,208456,6,0,P|400:88|344:112,1,125.000004768372,2|0,0:0|0:0,0:0:0:0:
224,112,208805,2,0,P|162:111|100:107,1,125.000004768372,2|0,0:0|0:0,0:0:0:0:
288,112,209154,1,8,0:0:0:0:
472,192,209503,5,2,0:0:0:0:
136,192,209852,1,2,0:0:0:0:
408,192,210201,1,2,0:0:0:0:
48,168,210549,2,0,P|144:144|240:176,1,187.500007152558,8|0,0:0|0:0,0:0:0:0:
408,192,211131,1,0,0:0:0:0:
312,216,211247,2,0,P|256:232|160:224,1,125.000004768372,2|0,0:0|0:0,0:0:0:0:
96,168,211596,2,0,P|152:152|232:168,1,125.000004768372,2|0,0:0|0:0,0:0:0:0:
440,280,211945,1,10,0:0:0:0:
464,280,212061,5,2,0:0:0:0:
488,280,212177,1,2,0:0:0:0:
512,280,212294,1,2,0:0:0:0:
328,280,212410,2,0,L|296:336,1,62.5000023841859,2|0,0:0|0:0,0:0:0:0:
96,168,212643,6,0,P|48:128|64:64,1,125.000004768372,6|0,0:0|0:0,0:0:0:0:
288,192,212991,2,0,P|408:192|432:200,1,125.000004768372
88,352,213340,2,0,P|24:320|8:264,1,125.000004768372,8|0,0:0|0:0,0:0:0:0:
112,192,213689,1,0,0:0:0:0:
424,192,213922,1,0,0:0:0:0:
424,192,214038,1,2,0:0:0:0:
208,192,214270,1,0,0:0:0:0:
280,192,214387,2,0,L|408:192,1,125.000004768372,2|0,0:0|0:0,0:0:0:0:
136,96,214736,6,0,P|80:116|8:120,1,125.000004768372,10|0,0:0|0:0,0:0:0:0:
232,104,215084,2,0,P|296:104|360:120,1,125.000004768372
456,88,215433,2,0,P|448:160|392:208,1,125.000004768372,2|0,0:0|0:0,0:0:0:0:
216,264,215782,2,0,P|197:204|216:144,1,125.000004768372
424,288,216131,2,0,P|360:296|320:248,1,125.000004768372,8|0,0:0|0:0,0:0:0:0:
136,96,216480,2,0,P|200:64|280:72,1,125.000004768372
368,152,216829,6,0,L|416:200,2,62.5000023841859,2|0|0,0:0|0:0|0:0,0:0:0:0:
248,152,217177,2,0,P|184:144|120:152,1,125.000004768372,2|0,0:0|0:0,0:0:0:0:
416,280,217526,1,8,0:0:0:0:
496,280,217759,1,0,0:0:0:0:
416,280,217875,5,2,0:0:0:0:
224,288,218108,1,0,0:0:0:0:
104,288,218224,2,0,P|24:224|40:112,1,187.500007152558,2|0,0:0|0:0,0:0:0:0:
224,120,218805,1,0,0:0:0:0:
488,120,218922,2,0,P|440:224|352:240,1,187.500007152558,10|0,0:0|0:0,0:0:0:0:
256,120,219503,1,0,0:0:0:0:
168,120,219619,6,0,P|110:119|32:144,1,125.000004768372
256,120,219968,2,0,L|336:120,1,62.5000023841859,2|0,0:0|0:0,0:0:0:0:
184,200,220201,1,2,0:0:0:0:
16,232,220317,2,0,P|64:272|144:288,1,125.000004768372,10|0,0:0|0:0,0:0:0:0:
264,288,220666,2,0,P|328:288|400:256,1,125.000004768372,2|0,0:0|0:0,0:0:0:0:
128,168,221015,6,0,P|152:112|232:88,1,125.000004768372,2|0,0:0|0:0,0:0:0:0:
320,216,221363,2,0,P|280:176|192:168,1,125.000004768372,2|0,0:0|0:0,0:0:0:0:
104,256,221712,2,0,L|240:248,1,125.000004768372,10|0,0:0|0:0,0:0:0:0:
512,232,222061,2,0,P|432:240|368:232,1,125.000004768372,2|0,0:0|0:0,0:0:0:0:
272,232,222410,5,2,0:0:0:0:
160,232,222526,1,0,0:0:0:0:
240,232,222643,1,0,0:0:0:0:
352,232,222759,2,0,P|400:200|424:128,1,125.000004768372,10|8,0:0|0:0,0:0:0:0:
304,64,223108,5,2,0:0:0:0:
152,64,223224,1,0,0:0:0:0:
264,64,223340,1,0,0:0:0:0:
456,56,223456,2,0,P|384:72|320:56,1,125.000004768372,10|8,0:0|0:0,0:0:0:0:
152,64,223805,1,6,0:0:0:0:
