osu file format v14

[General]
AudioFilename: audio.mp3
AudioLeadIn: 0
PreviewTime: 62878
Countdown: 0
SampleSet: Soft
StackLeniency: 0.7
Mode: 0
LetterboxInBreaks: 0
WidescreenStoryboard: 0

[Editor]
DistanceSpacing: 1
BeatDivisor: 4
GridSize: 4
TimelineZoom: 1

[Metadata]
Title:1/5 Short ver.
TitleUnicode:1/5 ショート ver.
Artist:Duca
ArtistUnicode:Duca
Creator:Left
Version:Easy Jijou
Source:間宮くんちの五つ子事情
Tags:opening mamiya kunchi no itsutsugo jijou cube eroge 三原典子 Mihara Noriko 土井潤一 Doi Junichi 東タカゴー Azuma Takago
BeatmapID:970396
BeatmapSetID:452412

[Difficulty]
HPDrainRate:2
CircleSize:2
OverallDifficulty:2
ApproachRate:3
SliderMultiplier:0.899999999999999
SliderTickRate:1

[Events]
//Background and Video events
0,0,"bg3.png",0,0
//Break Periods
//Storyboard Layer 0 (Background)
//Storyboard Layer 1 (Fail)
//Storyboard Layer 2 (Pass)
//Storyboard Layer 3 (Foreground)
//Storyboard Sound Samples

[TimingPoints]
1854,372.670807453416,4,2,1,65,1,0
19742,-100,4,2,1,50,0,0
43779,-100,4,2,1,30,0,0
44152,-100,4,2,1,50,0,0
44524,-100,4,2,1,30,0,0
45083,-100,4,2,1,50,0,0
54027,-100,4,2,1,60,0,0
55518,-100,4,2,1,63,0,0
57009,-100,4,2,1,68,0,0
58499,-100,4,2,1,70,0,0
62972,-100,4,2,1,75,0,1
73965,-100,4,2,1,50,0,1
74338,-100,4,2,1,75,0,1
85891,-100,4,2,1,50,0,1
86170,-100,4,2,1,75,0,1
89804,-100,4,2,1,65,0,0
99680,-100,4,2,1,40,0,0
100239,-100,4,2,1,65,0,0
104711,-100,4,2,1,30,0,0
105456,-100,4,2,1,20,0,0
105829,-100,4,2,1,10,0,0
106201,-100,4,2,1,5,0,0

[Colours]
Combo1 : 245,158,193
Combo2 : 245,200,137
Combo3 : 115,181,247
Combo4 : 135,228,151

[HitObjects]
459,114,1854,6,0,P|470:209|418:288,1,180,4|8,0:0|0:0,0:0:0:0:
339,288,2972,1,8,0:0:0:0:
369,204,3344,2,0,P|337:131|290:196,1,180,8|8,0:0|0:0,0:0:0:0:
243,262,4462,1,8,0:0:0:0:
166,309,4835,6,0,B|200:236|162:184|162:184|111:120|159:55,1,270,8|8,0:0|0:0,0:0:0:0:
247,55,6326,2,0,L|352:48,1,89.9999999999999,2|12,0:0|0:0,0:0:0:0:
346,138,7071,2,0,L|241:145,1,89.9999999999999,2|12,0:0|0:0,0:0:0:0:
260,233,7816,6,0,L|456:219,1,180,2|8,0:0|0:0,0:0:0:0:
454,309,8934,1,8,0:0:0:0:
365,318,9307,2,0,B|261:327|261:327|227:326|193:308|191:286,1,180,8|8,0:0|0:0,0:0:0:0:
171,209,10425,1,8,0:0:0:0:
158,119,10798,6,0,P|108:113|55:129,2,89.9999999999999,8|8|8,0:0|0:0|0:0,0:0:0:0:
241,152,11916,1,8,0:0:0:0:
324,119,12288,2,0,P|374:113|427:129,1,89.9999999999999,2|12,0:0|0:0,0:0:0:0:
411,212,13034,2,0,P|361:218|308:202,1,89.9999999999999,2|12,0:0|0:0,0:0:0:0:
233,201,13779,6,0,B|234:338|234:338|193:319,1,180,0|8,0:0|0:0,0:0:0:0:
119,270,14897,1,8,0:0:0:0:
41,223,15270,2,0,B|74:175|117:177|141:183|141:183|109:130|142:64|199:60,1,270,8|8,0:0|0:0,0:0:0:0:
280,63,16760,6,0,L|377:64,1,89.9999999999999,2|8,0:0|0:0,0:0:0:0:
380,153,17506,2,0,B|276:154|276:154|297:182,1,135,8|4,0:0|0:0,0:0:0:0:
415,244,18624,2,0,L|453:342,2,89.9999999999999,4|0|8,0:0|0:0|0:0,0:0:0:0:
334,284,19742,6,0,P|249:308|148:292,1,180,2|2,0:0|0:0,0:0:0:0:
83,248,20860,1,8,0:0:0:0:
163,207,21232,2,0,P|205:142|201:42,1,180,2|2,0:0|0:0,0:0:0:0:
291,34,22350,1,8,0:0:0:0:
380,46,22723,6,0,B|370:92|338:109|338:109|381:137|381:213,1,180,2|2,0:0|0:0,0:0:0:0:
377,287,23841,1,8,0:0:0:0:
300,334,24214,2,0,L|208:328,1,89.9999999999999,2|8,0:0|0:0,0:0:0:0:
144,266,24959,2,0,L|51:273,1,89.9999999999999,2|8,0:0|0:0,0:0:0:0:
29,185,25704,6,0,B|132:177|132:177|186:99,1,180,2|2,0:0|0:0,0:0:0:0:
251,64,26822,1,8,0:0:0:0:
255,153,27195,2,0,L|199:235,1,89.9999999999999,2|8,0:0|0:0,0:0:0:0:
157,304,27940,1,2,0:0:0:0:
246,308,28313,1,8,0:0:0:0:
327,346,28686,6,0,B|343:316|337:286|323:258|323:258|376:265|410:218,1,180,2|2,0:0|0:0,0:0:0:0:
334,168,29804,1,8,0:0:0:0:
411,122,30176,2,0,P|279:97|256:211,1,270,2|8,0:0|0:0,0:0:0:0:
247,293,31667,6,0,P|160:319|64:296,1,180,6|2,0:0|0:0,0:0:0:0:
68,211,32785,1,8,0:0:0:0:
158,201,33158,2,0,B|158:145|158:145|133:85|133:85|134:20,1,180
222,43,34276,1,8,0:0:0:0:
307,69,34649,6,0,L|493:66,1,180,2|2,0:0|0:0,0:0:0:0:
473,155,35767,1,8,0:0:0:0:
442,239,36139,2,0,B|403:221|391:189|391:189|356:238|280:226,1,180,2|2,0:0|0:0,0:0:0:0:
212,198,37257,1,8,0:0:0:0:
280,139,37630,6,0,P|188:111|124:174,1,180,2|2,0:0|0:0,0:0:0:0:
135,249,38748,1,8,0:0:0:0:
214,291,39121,2,0,P|267:300|310:287,1,89.9999999999999,2|8,0:0|0:0,0:0:0:0:
384,255,39866,2,0,P|427:245|471:255,1,89.9999999999999,0|8,0:0|0:0,0:0:0:0:
495,168,40611,6,0,P|424:154|353:170,1,135,4|6,0:0|0:0,0:0:0:0:
281,203,41543,1,2,0:0:0:0:
196,174,41916,2,0,P|129:162|64:176,1,135,6|12,0:0|0:0,0:0:0:0:
90,262,42847,2,0,P|131:276|181:257,1,89.9999999999999,2|8,0:0|0:0,0:0:0:0:
260,237,43593,5,2,0:0:0:0:
347,258,43965,2,0,L|349:356,2,89.9999999999999,4|8|4,0:3|0:0|0:3,0:0:0:0:
432,231,45083,6,0,B|429:167|429:167|392:110|392:110|391:54,1,180,6|8,0:0|0:0,0:0:0:0:
219,117,46574,2,0,P|156:71|226:30,1,180,2|8,0:0|0:0,0:0:0:0:
298,67,47692,1,0,0:0:0:0:
303,156,48065,6,0,L|316:357,1,180,2|8,0:0|0:0,0:0:0:0:
137,306,49555,2,0,B|94:318|94:318|31:307,1,89.9999999999999,2|2,0:0|0:0,0:0:0:0:
49,219,50301,2,0,B|92:207|92:207|155:218,1,89.9999999999999,8|0,0:0|0:0,0:0:0:0:
214,260,51046,6,0,P|212:162|137:123,1,180,6|8,0:0|0:0,0:0:0:0:
318,63,52537,2,0,L|419:63,2,89.9999999999999,2|0|4,0:0|0:0|0:3,0:0:0:0:
244,115,53655,1,8,0:0:0:0:
327,152,54027,6,0,P|337:210|324:251,1,89.9999999999999,4|8,0:0|0:0,0:0:0:0:
239,246,54773,2,0,P|229:304|242:345,1,89.9999999999999,8|8,0:0|0:0,0:0:0:0:
148,353,55518,2,0,P|141:264|178:177,1,180,8|8,0:0|0:0,0:0:0:0:
261,158,56636,1,8,0:0:0:0:
332,213,57009,6,0,P|395:220|436:206,2,89.9999999999999,12|8|8,0:0|0:0|0:0,0:0:0:0:
344,123,58127,1,8,0:0:0:0:
358,34,58499,2,0,P|295:27|254:41,2,89.9999999999999,12|8|8,0:0|0:0|0:0,0:0:0:0:
427,91,59617,1,8,0:0:0:0:
424,181,59990,6,0,B|371:236|317:228|271:191|271:191|250:244|194:272|146:239,1,315,6|12,0:0|0:0,0:0:0:0:
124,160,61667,2,0,L|108:102,1,45,8|8,0:0|0:0,0:0:0:0:
378,68,62972,6,0,B|401:150|401:150|381:263,1,180,6|2,0:0|0:0,0:0:0:0:
301,278,64090,1,8,0:0:0:0:
211,282,64462,2,0,L|105:284,1,89.9999999999999,2|8,0:0|0:0,0:0:0:0:
121,193,65208,2,0,L|227:191,1,89.9999999999999,0|8,0:0|0:0,0:0:0:0:
224,102,65953,6,0,B|93:104|93:104|133:52,1,180,2|2,0:0|0:0,0:0:0:0:
196,13,67071,1,8,0:0:0:0:
284,29,67444,2,0,P|349:37|383:29,1,89.9999999999999,2|12,0:0|0:0,0:0:0:0:
431,100,68189,1,6,0:0:0:0:
434,189,68562,1,12,0:0:0:0:
389,266,68934,6,0,P|287:281|206:263,1,180,2|2,0:0|0:0,0:0:0:0:
132,225,70052,1,8,0:0:0:0:
100,140,70425,2,0,P|59:171|43:218,2,89.9999999999999,2|8|0,0:0|0:0|0:0,0:0:0:0:
188,155,71543,6,0,L|199:51,1,89.9999999999999,8|2,0:0|0:0,0:0:0:0:
288,62,72288,2,0,B|278:172|278:172|323:227,1,180,8|8,0:0|0:0,0:0:0:0:
387,288,73406,1,0,0:0:0:0:
306,327,73779,1,8,0:0:0:0:
217,307,74152,2,0,L|122:287,1,89.9999999999999,4|12,0:3|0:0,0:0:0:0:
41,265,74897,6,0,P|60:175|46:78,1,180,6|2,0:0|0:0,0:0:0:0:
123,37,76015,1,8,0:0:0:0:
175,110,76388,2,0,L|274:105,1,89.9999999999999,2|8,0:0|0:0,0:0:0:0:
333,47,77133,2,0,L|432:42,1,89.9999999999999,0|8,0:0|0:0,0:0:0:0:
446,129,77878,6,0,P|425:211|448:310,1,180,2|2,0:0|0:0,0:0:0:0:
377,362,78996,1,8,0:0:0:0:
302,311,79369,2,0,P|252:324|197:308,1,89.9999999999999,2|8,0:0|0:0,0:0:0:0:
132,280,80114,1,0,0:0:0:0:
206,229,80487,1,8,0:0:0:0:
126,186,80860,6,0,P|216:103|316:194,1,270,2|8,0:0|0:0,0:0:0:0:
318,270,82350,2,0,P|217:355|130:273,1,270,2|8,0:0|0:0,0:0:0:0:
113,189,83841,6,0,P|55:198|9:188,2,89.9999999999999,2|8|2,0:0|0:0|0:0,0:0:0:0:
191,144,84959,1,8,0:0:0:0:
265,94,85332,2,0,P|193:54|113:102,1,180,6|4,0:0|0:3,0:0:0:0:
112,188,86450,1,12,0:0:0:0:
150,269,86822,6,0,L|257:282,1,89.9999999999999,2|8,0:0|0:0,0:0:0:0:
293,351,87568,2,0,L|400:338,1,89.9999999999999,8|8,0:0|0:0,0:0:0:0:
417,257,88313,2,0,P|335:149|368:20,1,270,6|8,0:0|0:0,0:0:0:0:
275,3,89804,6,0,B|183:22|183:22|85:1,1,180,4|8,0:0|0:0,0:0:0:0:
64,87,90922,1,8,0:0:0:0:
144,126,91294,2,0,B|117:171|67:175|67:175|105:207|100:271,1,180,8|8,0:0|0:0,0:0:0:0:
190,242,92413,1,8,0:0:0:0:
177,331,92785,6,0,P|278:265|428:309,1,270,8|8,0:0|0:0,0:0:0:0:
504,284,94276,2,0,L|493:179,1,89.9999999999999,2|12,0:0|0:0,0:0:0:0:
485,104,95021,2,0,L|474:-1,1,89.9999999999999,2|12,0:0|0:0,0:0:0:0:
392,49,95767,6,0,P|295:71|207:54,1,180,0|8,0:0|0:0,0:0:0:0:
146,114,96885,1,8,0:0:0:0:
80,175,97257,2,0,B|79:308|79:308|121:269,1,180,8|8,0:0|0:0,0:0:0:0:
183,219,98375,1,8,0:0:0:0:
247,156,98748,2,0,P|299:131|266:242,1,270,12|4,0:0|0:3,0:0:0:0:
206,308,100239,5,4,0:0:0:0:
27,289,100984,1,4,0:0:0:0:
136,145,101729,1,4,0:0:0:0:
256,192,101822,12,0,106201,0:0:0:0:
