osu file format v14

[General]
AudioFilename: audio.mp3
AudioLeadIn: 0
PreviewTime: 62978
Countdown: 0
SampleSet: Normal
StackLeniency: 0.7
Mode: 1
LetterboxInBreaks: 0
WidescreenStoryboard: 0

[Editor]
Bookmarks: 29623
DistanceSpacing: 1.2
BeatDivisor: 2
GridSize: 32
TimelineZoom: 0.6

[Metadata]
Title:[1/5] Short ver.
TitleUnicode:[1/5] ショート ver.
Artist:Duca
ArtistUnicode:Duca
Creator:toara_fict
Version:JuDa's Kantan
Source:間宮くんちの五つ子事情
Tags:mamiya kunchi no itsutsugo jijou cube eroge 三原典子 Mihara Noriko 土井潤一 Doi Junichi 東タカゴー Azuma Takago MB-ONE studio JUDYDANNY
BeatmapID:1111012
BeatmapSetID:474005

[Difficulty]
HPDrainRate:7
CircleSize:2
OverallDifficulty:3
ApproachRate:10
SliderMultiplier:1.4
SliderTickRate:1

[Events]
//Background and Video events
0,0,"cg_img_evcg03_waifu2x_art_noise3_scale.png",0,30
//Break Periods
//Storyboard Layer 0 (Background)
//Storyboard Layer 1 (Fail)
//Storyboard Layer 2 (Pass)
//Storyboard Layer 3 (Foreground)
//Storyboard Sound Samples

[TimingPoints]
1860,372.670807453416,4,1,0,80,1,0
62978,-100,4,1,0,100,0,1
89810,-100,4,1,0,100,0,0

[HitObjects]
288,160,1860,5,4,0:0:0:0:
128,64,2605,1,0,0:0:0:0:
160,64,3350,1,8,0:0:0:0:
160,64,4096,1,8,0:0:0:0:
32,0,4468,1,8,0:0:0:0:
160,64,4841,5,0,0:0:0:0:
128,64,5586,1,0,0:0:0:0:
160,64,6704,1,12,0:0:0:0:
160,64,7450,1,12,0:0:0:0:
160,64,7822,5,0,0:0:0:0:
128,64,8568,1,0,0:0:0:0:
160,64,9313,1,8,0:0:0:0:
160,64,10058,1,8,0:0:0:0:
160,64,10804,5,8,0:0:0:0:
192,32,11176,1,8,0:0:0:0:
128,64,11549,1,8,0:0:0:0:
160,64,12667,1,12,0:0:0:0:
160,64,13412,1,12,0:0:0:0:
32,0,13785,5,4,0:0:0:0:
384,0,14530,1,8,0:0:0:0:
96,0,15276,1,0,0:0:0:0:
192,0,16021,1,8,0:0:0:0:
192,32,16766,1,0,0:0:0:0:
160,32,18071,1,8,0:0:0:0:
160,64,19748,5,0,0:0:0:0:
160,32,20493,1,0,0:0:0:0:
160,64,21238,1,0,0:0:0:0:
160,64,21611,1,0,0:0:0:0:
160,64,21984,1,8,0:0:0:0:
160,64,22729,1,0,0:0:0:0:
160,32,23474,1,8,0:0:0:0:
160,64,24220,1,0,0:0:0:0:
184,0,25710,1,0,0:0:0:0:
192,32,26456,1,8,0:0:0:0:
160,64,27201,1,0,0:0:0:0:
189,22,27946,1,0,0:0:0:0:
189,22,28319,1,8,0:0:0:0:
189,22,28692,1,0,0:0:0:0:
192,32,29437,1,0,0:0:0:0:
128,32,30182,1,8,0:0:0:0:
106,25,31300,1,8,0:0:0:0:
160,64,31673,5,4,0:0:0:0:
176,18,32419,1,8,0:0:0:0:
128,32,33164,5,0,0:0:0:0:
160,0,33537,1,0,0:0:0:0:
177,24,33909,1,8,0:0:0:0:
256,0,34655,1,0,0:0:0:0:
160,64,35400,1,8,0:0:0:0:
160,64,36145,5,0,0:0:0:0:
160,32,37263,1,8,0:0:0:0:
160,64,37636,1,0,0:0:0:0:
192,32,38381,1,8,0:0:0:0:
192,32,39127,1,0,0:0:0:0:
192,32,39872,5,8,0:0:0:0:
160,0,40245,1,0,0:0:0:0:
192,0,40617,1,8,0:0:0:0:
70,198,41176,1,8,0:0:0:0:
192,32,41922,1,4,0:0:0:0:
128,32,43599,1,0,0:0:0:0:
128,32,44344,1,8,0:0:0:0:
192,32,44717,1,0,0:0:0:0:
128,32,45089,1,12,0:0:0:0:
160,64,46580,1,8,0:0:0:0:
192,32,47325,1,8,0:0:0:0:
160,64,48071,1,0,0:0:0:0:
192,32,48816,1,0,0:0:0:0:
160,32,49561,1,8,0:0:0:0:
288,0,49934,1,2,0:0:0:0:
160,32,50307,1,8,0:0:0:0:
160,64,51052,1,0,0:0:0:0:
160,32,51797,1,0,0:0:0:0:
160,64,52543,1,8,0:0:0:0:
192,32,53288,1,0,0:0:0:0:
64,96,53661,1,8,0:0:0:0:
160,64,54033,1,4,0:0:0:0:
192,32,55524,1,0,0:0:0:0:
448,128,56269,1,8,0:0:0:0:
160,32,57015,1,4,0:0:0:0:
192,0,57760,1,2,0:0:0:0:
192,0,58133,1,0,0:0:0:0:
160,0,58505,1,8,0:0:0:0:
384,288,59251,1,8,0:0:0:0:
416,192,59996,1,0,0:0:0:0:
160,64,61300,1,12,0:0:0:0:
160,64,61859,1,12,0:0:0:0:
160,96,62978,1,4,0:0:0:0:
160,0,63723,1,8,0:0:0:0:
160,96,64468,1,0,0:0:0:0:
160,0,64841,1,8,0:0:0:0:
160,96,65214,1,8,0:0:0:0:
160,96,65959,1,0,0:0:0:0:
160,0,66704,1,8,0:0:0:0:
160,96,67450,1,0,0:0:0:0:
128,32,68195,1,8,0:0:0:0:
160,96,68568,1,8,0:0:0:0:
160,96,68940,1,0,0:0:0:0:
160,0,70431,1,0,0:0:0:0:
160,96,71176,1,8,0:0:0:0:
160,96,71922,1,0,0:0:0:0:
192,0,72667,1,0,0:0:0:0:
192,0,73040,1,0,0:0:0:0:
192,0,73412,1,8,0:0:0:0:
160,96,74158,1,8,0:0:0:0:
160,96,74530,1,8,0:0:0:0:
160,96,74903,1,4,0:0:0:0:
160,32,75648,1,8,0:0:0:0:
160,96,76394,1,0,0:0:0:0:
160,32,76766,1,8,0:0:0:0:
160,96,77139,1,8,0:0:0:0:
160,96,77884,1,0,0:0:0:0:
160,32,78630,1,8,0:0:0:0:
160,96,79375,1,8,0:0:0:0:
160,96,80120,1,0,0:0:0:0:
160,96,80493,1,8,0:0:0:0:
160,96,80866,1,0,0:0:0:0:
160,96,82356,1,0,0:0:0:0:
192,0,83102,1,8,0:0:0:0:
192,0,83847,1,0,0:0:0:0:
159,32,84592,1,8,0:0:0:0:
77,122,84965,1,0,0:0:0:0:
160,96,85338,1,8,0:0:0:0:
192,0,86083,1,8,0:0:0:0:
160,32,86456,1,8,0:0:0:0:
256,192,86828,12,0,88319,0:0:0:0:
160,96,89810,5,4,0:0:0:0:
192,0,90555,1,0,0:0:0:0:
192,0,91300,1,8,0:0:0:0:
192,0,92046,1,8,0:0:0:0:
192,0,92419,1,8,0:0:0:0:
192,0,92791,1,0,0:0:0:0:
192,0,93537,1,0,0:0:0:0:
192,0,94655,1,6,0:0:0:0:
192,0,95400,1,6,0:0:0:0:
192,0,95773,1,0,0:0:0:0:
192,0,96518,1,0,0:0:0:0:
192,0,97263,1,8,0:0:0:0:
192,0,98009,1,0,0:0:0:0:
192,0,98381,1,8,0:0:0:0:
192,0,98754,1,8,0:0:0:0:
192,0,99499,1,8,0:0:0:0:
192,0,100245,1,4,0:0:0:0:
192,0,100990,1,4,0:0:0:0:
256,192,101735,12,0,106207,0:0:0:0:
