osu file format v14

[General]
AudioFilename: audio.mp3
AudioLeadIn: 0
PreviewTime: 78955
Countdown: 1
SampleSet: Soft
StackLeniency: 0.7
Mode: 0
LetterboxInBreaks: 0
WidescreenStoryboard: 0

[Editor]
DistanceSpacing: 0.8
BeatDivisor: 4
GridSize: 8
TimelineZoom: 1

[Metadata]
Title:Full Throttle Heart
TitleUnicode:フルスロットルHeart
Artist:Duca & AiRI
ArtistUnicode:Duca & AiRI
Creator:Rucker
Version:Relius
Source:恋色空模様 After Happiness and Extra Hearts
Tags:
BeatmapID:1310761
BeatmapSetID:621639

[Difficulty]
HPDrainRate:4
CircleSize:4.2
OverallDifficulty:9
ApproachRate:9.4
SliderMultiplier:2.4
SliderTickRate:1

[Events]
//Background and Video events
0,0,"Sky Anime Landscape 08.jpg",0,0
//Break Periods
//Storyboard Layer 0 (Background)
//Storyboard Layer 1 (Fail)
//Storyboard Layer 2 (Pass)
//Storyboard Layer 3 (Foreground)
//Storyboard Sound Samples

[TimingPoints]
1197,344.827586206897,4,2,0,100,1,0
17921,-100,4,2,0,30,0,0
18093,-100,4,2,0,40,0,0
18265,-100,4,2,0,50,0,0
18438,-100,4,2,0,60,0,0
18610,-100,4,2,0,70,0,0
18783,-100,4,2,0,80,0,0
18955,-100,4,2,0,90,0,0
35162,-200,4,3,0,100,0,0
35679,-200,4,2,0,50,0,0
40679,-200,4,3,0,50,0,0
41024,-200,4,2,0,50,0,0
46197,-200,4,3,0,50,0,0
46541,-200,4,2,0,50,0,0
51714,-200,4,3,0,50,0,0
52059,-200,4,2,0,50,0,0
56369,-200,4,2,0,80,0,0
57059,-200,4,2,0,30,0,0
57231,-200,4,2,0,45,0,0
57403,-200,4,2,0,60,0,0
57576,-200,4,2,0,75,0,0
57748,-133.333333333333,4,2,0,100,0,0
74300,-200,4,3,0,100,0,0
78438,-133.333333333333,4,2,0,100,0,0
79817,-100,4,2,0,100,0,0
89472,-100,4,3,0,100,0,0
90162,-100,4,2,0,100,0,0
128093,-100,4,2,0,10,0,0

[HitObjects]
368,104,1886,6,0,L|112:56,2,240,0|0|4,0:0|0:0|0:0,0:0:0:0:
96,336,2921,5,2,0:0:0:0:
488,256,3610,5,2,0:0:0:0:
184,56,4128,5,8,0:0:0:0:
184,56,4214,1,8,0:0:0:0:
184,56,4300,2,0,B|144:96|96:80|80:160,1,120,2|0,0:0|0:0,0:0:0:0:
112,360,4645,6,0,L|136:280,1,60
240,344,4817,2,0,L|235:260,1,60,0|0,2:0|2:0,2:0:0:0:
352,304,4990,2,0,L|318:227,1,60,2|0,2:0|2:0,2:0:0:0:
456,232,5162,2,0,L|398:171,1,60,0|0,2:0|2:0,2:0:0:0:
304,64,5334,5,4,0:0:0:0:
40,224,5680,5,2,0:0:0:0:
464,112,6370,5,2,0:0:0:0:
248,328,6714,1,0,0:0:0:0:
168,184,6886,1,0,0:0:0:0:
168,184,6972,1,0,0:0:0:0:
168,184,7059,1,2,0:0:0:0:
328,32,7231,5,0,0:0:0:0:
384,192,7403,1,0,0:0:0:0:
384,192,7490,1,0,0:0:0:0:
384,192,7576,1,0,0:0:0:0:
208,136,7748,2,0,P|144:152|104:80,2,120,10|0|4,0:0|0:0|0:0,0:0:0:0:
160,344,8438,5,2,0:0:0:0:
456,80,9128,5,2,0:0:0:0:
128,56,9472,5,8,0:0:0:0:
160,72,9559,1,8,0:0:0:0:
192,88,9645,1,8,0:0:0:0:
224,104,9731,1,8,0:0:0:0:
256,120,9817,1,2,0:0:0:0:
192,328,9989,5,8,0:0:0:0:
160,312,10076,1,8,0:0:0:0:
128,296,10162,1,8,0:0:0:0:
96,280,10248,1,8,0:0:0:0:
64,264,10334,1,0,0:0:0:0:
288,56,10507,5,10,0:0:0:0:
272,88,10593,1,8,0:0:0:0:
256,120,10679,1,0,0:0:0:0:
152,280,10852,1,4,0:0:0:0:
32,96,11197,5,2,0:0:0:0:
424,136,11886,5,2,0:0:0:0:
136,320,12403,5,0,0:0:0:0:
240,144,12576,1,2,0:0:0:0:
336,328,12748,2,0,P|264:312|248:232,1,120
120,72,13093,5,0,0:0:0:0:
304,184,13265,1,2,0:0:0:0:
136,184,13438,1,0,0:0:0:0:
352,112,13610,1,4,0:0:0:0:
72,232,13955,5,2,0:0:0:0:
456,272,14645,5,2,0:0:0:0:
256,192,14990,1,4,0:0:0:0:
56,112,15334,1,2,0:0:0:0:
456,120,15852,5,0,0:0:0:0:
456,120,16024,1,10,0:0:0:0:
256,360,16369,6,0,P|168:312|168:168,1,240,4|0,0:0|0:0,0:0:0:0:
392,208,17059,6,0,L|512:232,2,120,4|0|0,0:0|0:0|0:0,0:0:0:0:
392,208,17576,1,4,0:0:0:0:
208,72,17921,5,8,0:0:0:0:
216,240,18093,1,8,0:0:0:0:
304,72,18265,1,8,0:0:0:0:
168,232,18438,1,8,0:0:0:0:
240,48,18610,1,8,0:0:0:0:
288,280,18783,1,8,0:0:0:0:
296,48,18955,1,8,0:0:0:0:
224,344,19128,6,0,P|320:360|352:312,1,120,4|0,0:0|0:0,0:0:0:0:
312,192,19472,1,8,0:0:0:0:
432,32,19645,2,0,L|464:152,1,120
264,120,19990,1,0,0:0:0:0:
408,288,20162,2,0,P|408:208|360:168,1,120,8|0,0:0|0:0,0:0:0:0:
192,232,20507,5,4,0:0:0:0:
368,200,20679,1,0,0:0:0:0:
208,144,20852,1,8,0:0:0:0:
312,288,21024,1,0,0:0:0:0:
320,112,21197,1,0,0:0:0:0:
192,248,21369,1,0,0:0:0:0:
384,200,21541,1,8,0:0:0:0:
208,112,21714,1,0,0:0:0:0:
376,296,21886,6,0,L|232:256,1,120,4|0,0:0|0:0,0:0:0:0:
264,64,22231,1,8,0:0:0:0:
440,336,22403,2,0,L|296:296,1,120
344,64,22748,1,0,0:0:0:0:
504,376,22921,2,0,L|360:336,1,120,8|0,0:0|0:0,0:0:0:0:
352,192,23265,1,0,0:0:0:0:
176,352,23438,5,8,0:0:0:0:
176,352,23524,1,8,0:0:0:0:
176,352,23610,1,8,0:0:0:0:
112,56,23783,5,8,0:0:0:0:
112,56,23869,1,8,0:0:0:0:
112,56,23955,1,8,0:0:0:0:
464,96,24127,5,8,0:0:0:0:
440,104,24213,1,8,0:0:0:0:
416,112,24299,1,8,0:0:0:0:
392,120,24386,1,8,0:0:0:0:
368,128,24472,1,2,0:0:0:0:
344,136,24559,1,2,0:0:0:0:
320,144,24645,2,0,P|256:120|248:56,1,120,4|0,0:0|0:0,0:0:0:0:
56,40,24990,2,0,L|80:168,1,120,8|0,0:0|0:0,0:0:0:0:
192,344,25334,5,0,0:0:0:0:
256,160,25507,1,0,0:0:0:0:
120,288,25679,1,8,0:0:0:0:
328,256,25852,1,0,0:0:0:0:
144,192,26024,1,0,0:0:0:0:
304,352,26197,6,0,L|264:224,1,120,0|8,0:0|0:0,0:0:0:0:
216,96,26541,1,0,0:0:0:0:
408,352,26714,2,0,L|368:224,1,120
304,48,27059,1,8,0:0:0:0:
464,144,27231,1,0,0:0:0:0:
328,336,27403,6,0,P|280:272|304:192,1,120
376,32,27748,2,0,P|424:96|400:175,1,120,8|0,0:0|0:0,0:0:0:0:
208,120,28093,1,0,0:0:0:0:
368,272,28265,1,0,0:0:0:0:
368,272,28352,1,0,0:0:0:0:
368,272,28438,1,8,0:0:0:0:
80,272,28610,2,0,P|56:152|168:56,1,240
368,272,29128,1,12,0:0:0:0:
80,272,29300,2,0,P|56:152|168:56,1,240
368,272,29817,1,8,0:0:0:0:
368,272,29903,1,0,0:0:0:0:
368,272,29990,1,0,0:0:0:0:
368,272,30076,1,0,0:0:0:0:
368,272,30162,6,0,L|248:352,1,120,4|0,0:0|0:0,0:0:0:0:
184,80,30507,1,8,0:0:0:0:
24,208,30679,2,0,P|112:328|224:296,1,240
400,200,31197,2,0,L|328:336,1,120,8|0,0:0|0:0,0:0:0:0:
168,64,31541,5,0,0:0:0:0:
296,216,31714,1,0,0:0:0:0:
368,48,31886,1,8,0:0:0:0:
168,152,32059,1,0,0:0:0:0:
384,184,32231,1,0,0:0:0:0:
264,40,32403,1,0,0:0:0:0:
448,152,32576,1,8,0:0:0:0:
176,96,32748,1,0,0:0:0:0:
432,216,32921,6,0,P|448:136|416:72,1,120
80,32,33265,2,0,P|63:112|95:176,1,120,8|0,0:0|0:0,0:0:0:0:
224,312,33610,1,0,0:0:0:0:
352,144,33783,1,0,0:0:0:0:
352,144,33869,1,0,0:0:0:0:
352,144,33955,1,8,0:0:0:0:
144,80,34128,1,0,0:0:0:0:
344,320,34300,1,4,0:0:0:0:
472,72,34472,1,0,0:0:0:0:
472,72,34559,1,0,0:0:0:0:
472,72,34645,1,8,0:0:0:0:
56,176,34817,1,4,0:0:0:0:
456,304,35162,6,0,L|488:320,2,30
80,48,35679,6,0,L|64:112,1,60,4|0,0:0|0:0,0:0:0:0:
16,176,36024,1,0,0:0:0:0:
40,256,36197,1,0,0:0:0:0:
120,264,36369,1,0,0:0:0:0:
192,224,36541,1,0,0:0:0:0:
192,224,36714,2,0,L|216:288,1,60
240,144,37059,1,0,0:0:0:0:
240,144,37231,2,0,L|272:224,1,60
328,280,37576,1,0,0:0:0:0:
328,280,37748,2,0,L|360:208,1,60
440,208,38093,2,0,L|424:136,1,60
464,48,38438,6,0,L|384:72,1,60
328,96,38783,1,0,0:0:0:0:
288,24,38955,2,0,L|216:8,1,60
168,72,39300,1,0,0:0:0:0:
88,48,39472,2,0,L|32:104,1,60
0,160,39817,1,0,0:0:0:0:
64,216,39990,2,0,L|40:296,1,60
112,328,40334,1,0,0:0:0:0:
112,328,40507,2,0,L|136:256,1,60
216,264,40852,2,0,L|216:184,1,60
256,128,41197,6,0,L|304:192,1,60
344,72,41541,1,0,0:0:0:0:
344,72,41714,2,0,L|400:104,1,60
496,80,42059,1,0,0:0:0:0:
496,80,42231,2,0,L|480:144,1,60
496,224,42576,6,0,L|440:288,1,60
352,272,42921,1,0,0:0:0:0:
352,272,43093,2,0,L|320:352,1,60
232,296,43438,1,0,0:0:0:0:
232,296,43610,2,0,L|192:224,1,60
112,304,43955,6,0,L|48:264,1,60
8,192,44300,1,0,0:0:0:0:
104,168,44472,2,0,L|128:88,1,60
192,48,44817,1,0,0:0:0:0:
256,120,44990,2,0,L|280:184,1,60
360,224,45334,2,0,L|360:288,2,60
456,200,45852,2,0,L|456:140,2,60
456,200,46283,1,0,0:0:0:0:
456,200,46369,1,0,0:0:0:0:
72,344,46714,6,0,L|32:280,1,60,4|0,0:0|0:0,0:0:0:0:
104,224,47059,1,0,0:0:0:0:
104,224,47231,2,0,L|64:160,1,60
120,88,47576,1,0,0:0:0:0:
120,88,47748,2,0,L|200:56,1,60
256,120,48093,1,0,0:0:0:0:
256,120,48265,2,0,L|296:48,1,60
376,104,48610,1,0,0:0:0:0:
376,104,48783,2,0,L|376:24,1,60
464,80,49128,2,0,L|464:160,1,60
440,232,49472,6,0,L|384:296,1,60
328,336,49817,1,0,0:0:0:0:
256,272,49990,2,0,L|216:208,1,60
232,128,50334,1,0,0:0:0:0:
328,104,50507,2,0,L|264:56,1,60
232,128,50852,1,0,0:0:0:0:
136,104,51024,2,0,L|152:184,1,60
80,224,51369,1,0,0:0:0:0:
80,224,51541,2,0,L|144:280,1,60
144,360,51886,2,0,L|216:336,1,60
296,352,52231,6,0,L|336:280,1,60
424,280,52576,1,0,0:0:0:0:
424,280,52748,2,0,L|384:216,1,60
448,152,53093,1,0,0:0:0:0:
448,152,53265,2,0,L|408:88,1,60
312,80,53610,6,0,L|360:152,1,60
288,208,53955,1,0,0:0:0:0:
288,208,54128,2,0,L|336:280,1,60
248,320,54472,1,0,0:0:0:0:
248,320,54645,2,0,L|176:352,1,60
128,272,54990,6,0,L|56:248,2,60
192,200,55507,1,0,0:0:0:0:
192,200,55679,2,0,L|160:120,1,60
248,88,56024,1,0,0:0:0:0:
248,88,56197,1,0,0:0:0:0:
248,88,56369,2,0,L|320:120,1,60,0|8,0:0|0:0,0:0:0:0:
400,56,56714,1,8,0:0:0:0:
68,100,57059,5,8,0:0:0:0:
132,120,57231,1,8,0:0:0:0:
236,152,57403,1,8,0:0:0:0:
408,208,57576,1,8,0:0:0:0:
408,208,57748,6,0,P|432:256|400:304,1,90.0000034332277,4|0,0:0|0:0,0:0:0:0:
304,368,58093,2,0,P|280:319|312:271,1,90.0000034332277,8|0,0:0|0:0,0:0:0:0:
280,128,58438,1,0,0:0:0:0:
128,176,58610,1,0,0:0:0:0:
176,48,58783,1,8,0:0:0:0:
216,192,58955,1,0,0:0:0:0:
216,192,59128,2,0,L|328:136,1,90.0000034332277
448,104,59472,5,8,0:0:0:0:
504,232,59645,1,0,0:0:0:0:
416,128,59817,1,0,0:0:0:0:
416,280,59990,1,0,0:0:0:0:
376,152,60162,1,8,0:0:0:0:
304,288,60334,1,0,0:0:0:0:
336,152,60507,2,0,L|264:80,1,90.0000034332277
96,32,60852,2,0,P|56:96|72:144,1,90.0000034332277,8|0,0:0|0:0,0:0:0:0:
64,248,61197,2,0,P|104:184|88:136,1,90.0000034332277
208,48,61541,2,0,L|328:32,1,90.0000034332277,8|0,0:0|0:0,0:0:0:0:
432,112,61886,2,0,L|342:123,1,90.0000034332277
128,232,62231,5,8,0:0:0:0:
272,288,62403,1,0,0:0:0:0:
168,192,62576,1,0,0:0:0:0:
328,224,62748,1,0,0:0:0:0:
216,152,62921,1,8,0:0:0:0:
384,152,63093,1,0,0:0:0:0:
224,104,63265,6,0,P|256:64|320:56,1,90.0000034332277,4|0,0:0|0:0,0:0:0:0:
264,280,63610,2,0,P|232:320|168:328,1,90.0000034332277,8|0,0:0|0:0,0:0:0:0:
64,224,63955,1,0,0:0:0:0:
240,176,64128,1,0,0:0:0:0:
24,192,64300,2,0,P|24:136|64:96,1,90.0000034332277,8|0,0:0|0:0,0:0:0:0:
160,248,64645,5,0,0:0:0:0:
216,80,64817,1,0,0:0:0:0:
240,240,64990,1,8,0:0:0:0:
168,96,65162,1,0,0:0:0:0:
208,264,65334,1,0,0:0:0:0:
272,80,65507,1,0,0:0:0:0:
272,280,65679,1,8,0:0:0:0:
216,40,65852,1,0,0:0:0:0:
184,240,66024,5,4,0:0:0:0:
320,112,66197,1,0,0:0:0:0:
368,304,66369,2,0,P|304:336|256:320,1,90.0000034332277,8|0,0:0|0:0,0:0:0:0:
240,112,66714,5,0,0:0:0:0:
440,256,66886,1,0,0:0:0:0:
208,360,67059,2,0,P|144:328|120:288,1,90.0000034332277,8|0,0:0|0:0,0:0:0:0:
368,48,67403,5,0,0:0:0:0:
320,352,67576,1,0,0:0:0:0:
88,160,67748,1,12,0:0:0:0:
416,192,67921,1,8,0:0:0:0:
170,294,68093,1,0,0:0:0:0:
217,15,68265,1,0,0:0:0:0:
416,240,68438,1,12,0:0:0:0:
64,152,68610,1,0,0:0:0:0:
464,128,68783,6,0,P|472:192|448:248,1,90.0000034332277,4|0,0:0|0:0,0:0:0:0:
288,368,69128,2,0,P|280:304|304:248,1,90.0000034332277,8|0,0:0|0:0,0:0:0:0:
392,240,69472,1,0,0:0:0:0:
176,136,69645,1,0,0:0:0:0:
416,80,69817,2,0,P|360:40|312:56,1,90.0000034332277,8|0,0:0|0:0,0:0:0:0:
152,40,70162,2,0,L|224:112,1,90.0000034332277
72,232,70507,5,8,0:0:0:0:
272,280,70679,1,0,0:0:0:0:
128,184,70852,1,0,0:0:0:0:
176,360,71024,1,0,0:0:0:0:
48,280,71197,1,8,0:0:0:0:
288,200,71369,1,0,0:0:0:0:
24,240,71541,6,0,P|8:176|32:120,1,90.0000034332277
168,24,71886,2,0,P|184:88|160:144,1,90.0000034332277,8|0,0:0|0:0,0:0:0:0:
112,272,72231,2,0,P|96:208|120:152,1,90.0000034332277
256,56,72576,2,0,P|272:120|248:176,1,90.0000034332277,8|0,0:0|0:0,0:0:0:0:
208,312,72921,2,0,P|192:248|216:192,1,90.0000034332277
352,96,73266,2,0,P|368:160|344:216,1,90.0000034332277,8|0,0:0|0:0,0:0:0:0:
312,360,73610,2,0,P|296:296|320:240,1,90.0000034332277,0|8,0:0|0:0,0:0:0:0:
336,284,73869,1,0,0:0:0:0:
368,296,73955,1,8,0:0:0:0:
404,284,74041,1,0,0:0:0:0:
428,256,74128,1,8,0:0:0:0:
432,220,74214,1,8,0:0:0:0:
416,188,74300,6,0,L|356:168,1,60,12|0,0:0|0:0,0:0:0:0:
388,92,74645,2,0,L|328:72,1,60,8|8,0:0|0:0,0:0:0:0:
212,36,74990,1,0,0:0:0:0:
168,120,75162,1,0,0:0:0:0:
120,204,75334,1,8,0:0:0:0:
72,288,75507,1,0,0:0:0:0:
224,364,75679,6,0,L|208:300,1,60,4|0,0:0|0:0,0:0:0:0:
320,364,76024,2,0,L|304:300,1,60,8|8,0:0|0:0,0:0:0:0:
472,280,76369,1,0,0:0:0:0:
392,228,76541,1,0,0:0:0:0:
312,176,76714,1,8,0:0:0:0:
232,124,76886,1,0,0:0:0:0:
184,248,77059,5,4,0:0:0:0:
184,248,77231,1,0,0:0:0:0:
328,136,77403,5,0,0:0:0:0:
328,136,77575,1,0,0:0:0:0:
200,120,77748,5,8,0:0:0:0:
200,120,77920,1,0,0:0:0:0:
312,264,78092,5,0,0:0:0:0:
312,264,78264,1,0,0:0:0:0:
184,88,78438,5,8,0:0:0:0:
328,296,78610,1,0,0:0:0:0:
336,28,78783,1,8,0:0:0:0:
176,356,78955,1,0,0:0:0:0:
56,104,79128,5,8,0:0:0:0:
90,75,79214,1,0,0:0:0:0:
129,52,79300,1,8,0:0:0:0:
170,34,79386,1,0,0:0:0:0:
213,22,79472,1,8,0:0:0:0:
258,16,79559,1,8,0:0:0:0:
303,17,79645,1,8,0:0:0:0:
347,24,79731,1,8,0:0:0:0:
440,44,79817,2,0,L|424:176,1,120,4|0,0:0|0:0,0:0:0:0:
328,344,80162,5,8,0:0:0:0:
200,120,80334,1,0,0:0:0:0:
200,120,80421,1,0,0:0:0:0:
200,120,80507,1,0,0:0:0:0:
456,216,80679,1,0,0:0:0:0:
192,280,80852,1,8,0:0:0:0:
320,64,81024,1,0,0:0:0:0:
360,288,81197,1,0,0:0:0:0:
112,120,81369,1,0,0:0:0:0:
400,136,81541,5,8,0:0:0:0:
196,264,81714,1,0,0:0:0:0:
196,264,81800,1,0,0:0:0:0:
196,264,81886,1,0,0:0:0:0:
380,192,82059,1,0,0:0:0:0:
112,180,82231,1,8,0:0:0:0:
392,120,82403,1,0,0:0:0:0:
52,128,82576,1,0,0:0:0:0:
228,320,82748,1,0,0:0:0:0:
288,52,82921,5,8,0:0:0:0:
144,236,83093,1,0,0:0:0:0:
144,236,83179,1,0,0:0:0:0:
144,236,83265,1,0,0:0:0:0:
220,36,83438,1,0,0:0:0:0:
332,264,83610,1,8,0:0:0:0:
180,116,83783,1,0,0:0:0:0:
448,144,83955,1,0,0:0:0:0:
152,248,84128,1,0,0:0:0:0:
404,76,84300,5,8,0:0:0:0:
208,336,84472,1,0,0:0:0:0:
253,319,84559,1,0,0:0:0:0:
284,282,84645,1,0,0:0:0:0:
301,237,84731,1,0,0:0:0:0:
295,191,84817,1,0,0:0:0:0:
88,120,84990,2,0,P|140:64|228:40,1,120,8|0,0:0|0:0,0:0:0:0:
264,208,85334,5,4,0:0:0:0:
432,116,85507,1,0,0:0:0:0:
184,156,85679,1,8,0:0:0:0:
464,240,85852,1,0,0:0:0:0:
464,240,85938,1,0,0:0:0:0:
464,240,86024,1,0,0:0:0:0:
232,84,86197,1,0,0:0:0:0:
440,296,86369,1,8,0:0:0:0:
328,56,86541,1,0,0:0:0:0:
344,328,86714,6,0,P|280:336|204:288,1,120
320,20,87059,2,0,P|384:12|460:60,1,120,8|0,0:0|0:0,0:0:0:0:
136,352,87403,2,0,P|72:288|68:208,1,120
64,261,87662,1,0,0:0:0:0:
64,261,87748,1,8,0:0:0:0:
368,248,87921,1,0,0:0:0:0:
136,80,88093,6,0,P|228:0|368:64,1,240,4|8,0:0|0:0,0:0:0:0:
268,248,88610,1,0,0:0:0:0:
484,88,88783,2,0,L|460:215,1,120
144,356,89128,2,0,L|168:229,1,120,8|0,0:0|0:0,0:0:0:0:
368,156,89472,6,0,L|345:211,1,60
216,228,89645,2,0,L|238:172,1,60
332,88,89817,2,0,L|348:145,1,60
266,285,89990,2,0,L|249:227,1,60
112,44,90162,5,8,0:0:0:0:
56,64,90248,1,0,0:0:0:0:
16,112,90334,1,8,0:0:0:0:
0,168,90420,1,0,0:0:0:0:
4,228,90506,1,8,0:0:0:0:
24,284,90593,1,8,0:0:0:0:
72,324,90679,1,8,0:0:0:0:
132,336,90765,1,8,0:0:0:0:
192,328,90852,2,0,P|324:264|316:148,1,240,4|8,0:0|0:0,0:0:0:0:
324,32,91369,6,0,L|432:112,1,120
376,328,91714,1,0,0:0:0:0:
276,160,91886,1,8,0:0:0:0:
464,228,92059,1,0,0:0:0:0:
256,284,92231,2,0,P|196:268|160:180,1,120
388,80,92576,2,0,P|404:139|345:215,1,120,8|0,0:0|0:0,0:0:0:0:
164,68,92921,2,0,P|207:24|302:36,1,120
263,17,93179,1,0,0:0:0:0:
263,17,93265,1,8,0:0:0:0:
216,236,93438,1,0,0:0:0:0:
488,152,93610,6,0,P|440:104|388:92,1,120
312,336,93955,2,0,L|340:216,1,120,12|0,0:0|0:0,0:0:0:0:
64,256,94300,1,0,0:0:0:0:
244,144,94472,1,0,0:0:0:0:
244,144,94559,1,0,0:0:0:0:
244,144,94645,1,12,0:0:0:0:
36,72,94817,2,0,P|40:204|124:252,1,240
372,348,95334,2,0,L|256:212,1,120,12|0,0:0|0:0,0:0:0:0:
432,72,95679,5,8,0:0:0:0:
440,132,95765,1,0,0:0:0:0:
432,192,95852,1,8,0:0:0:0:
404,244,95938,1,0,0:0:0:0:
364,288,96024,1,8,0:0:0:0:
284,320,96110,1,0,0:0:0:0:
200,316,96197,1,8,0:0:0:0:
124,280,96283,1,0,0:0:0:0:
52,196,96369,2,0,L|76:36,1,120,4|0,0:0|0:0,0:0:0:0:
256,0,96714,2,0,L|231:160,1,120,8|0,0:0|0:0,0:0:0:0:
176,280,97059,5,0,0:0:0:0:
396,128,97231,1,0,0:0:0:0:
396,128,97317,1,0,0:0:0:0:
396,128,97403,1,8,0:0:0:0:
392,352,97576,2,0,P|272:316|240:180,1,240
312,72,98093,1,8,0:0:0:0:
360,216,98265,1,0,0:0:0:0:
392,48,98438,1,0,0:0:0:0:
316,232,98610,1,0,0:0:0:0:
316,232,98697,1,0,0:0:0:0:
316,232,98783,1,8,0:0:0:0:
364,20,98955,1,0,0:0:0:0:
408,232,99128,6,0,P|384:160|332:116,1,120,4|0,0:0|0:0,0:0:0:0:
144,24,99472,2,0,L|212:148,1,120,8|0,0:0|0:0,0:0:0:0:
208,336,99817,1,0,0:0:0:0:
48,200,99990,1,0,0:0:0:0:
48,200,100076,1,0,0:0:0:0:
48,200,100162,1,8,0:0:0:0:
300,104,100334,6,0,P|224:4|92:40,1,240,4|0,0:0|0:0,0:0:0:0:
264,212,100852,1,8,0:0:0:0:
52,216,101024,2,0,P|124:332|264:328,1,240,4|0,0:0|0:0,0:0:0:0:
256,72,101541,2,8,L|224:160,1,60
284,344,101714,2,8,L|316:255,1,60
60,216,101886,6,0,P|36:152|56:68,1,120,4|0,0:0|0:0,0:0:0:0:
448,192,102231,2,0,P|472:256|452:340,1,120,8|0,0:0|0:0,0:0:0:0:
264,48,102576,1,0,0:0:0:0:
348,236,102748,1,0,0:0:0:0:
348,236,102834,1,0,0:0:0:0:
348,236,102921,1,8,0:0:0:0:
176,144,103093,5,0,0:0:0:0:
436,244,103265,1,0,0:0:0:0:
168,336,103438,1,0,0:0:0:0:
396,192,103610,1,8,0:0:0:0:
104,100,103783,1,0,0:0:0:0:
104,100,103869,1,0,0:0:0:0:
104,100,103955,1,0,0:0:0:0:
300,300,104128,1,0,0:0:0:0:
416,108,104300,1,8,0:0:0:0:
56,220,104472,1,0,0:0:0:0:
316,340,104645,6,0,L|232:216,1,120
320,24,104990,2,0,P|400:68|424:144,1,120,8|0,0:0|0:0,0:0:0:0:
232,128,105334,1,0,0:0:0:0:
364,256,105507,1,0,0:0:0:0:
364,256,105593,1,0,0:0:0:0:
364,256,105679,1,8,0:0:0:0:
100,324,105852,2,0,P|10:216|61:84,1,240
248,64,106369,5,8,0:0:0:0:
160,160,106541,1,0,0:0:0:0:
320,88,106714,1,0,0:0:0:0:
216,260,106886,1,0,0:0:0:0:
216,260,106972,1,0,0:0:0:0:
216,260,107059,1,8,0:0:0:0:
296,20,107231,1,0,0:0:0:0:
320,364,107403,6,0,L|312:216,1,120,4|0,0:0|0:0,0:0:0:0:
168,64,107748,1,8,0:0:0:0:
248,248,107921,1,0,0:0:0:0:
316,68,108093,1,0,0:0:0:0:
120,144,108265,1,0,0:0:0:0:
344,260,108438,1,8,0:0:0:0:
256,40,108610,1,0,0:0:0:0:
120,280,108783,6,0,P|184:328|272:316,1,120
247,30,109128,2,0,P|174:61|140:143,1,120,8|0,0:0|0:0,0:0:0:0:
400,265,109472,2,0,P|409:186|355:116,1,120
394,151,109731,1,0,0:0:0:0:
394,151,109817,1,8,0:0:0:0:
156,312,109990,5,0,0:0:0:0:
20,116,110162,2,0,P|104:40|224:88,1,240,4|8,0:0|0:0,0:0:0:0:
176,220,110679,1,0,0:0:0:0:
320,112,110852,1,0,0:0:0:0:
212,272,111024,1,0,0:0:0:0:
248,84,111197,1,8,0:0:0:0:
320,280,111369,1,0,0:0:0:0:
108,96,111541,5,8,0:0:0:0:
92,128,111628,1,0,0:0:0:0:
92,164,111714,1,0,0:0:0:0:
108,196,111800,1,0,0:0:0:0:
148,220,111886,1,8,0:0:0:0:
196,224,111972,1,0,0:0:0:0:
248,196,112059,1,0,0:0:0:0:
260,136,112145,1,0,0:0:0:0:
232,68,112231,1,8,0:0:0:0:
164,44,112317,1,0,0:0:0:0:
92,88,112403,1,8,0:0:0:0:
76,172,112490,1,0,0:0:0:0:
128,252,112576,1,8,0:0:0:0:
220,272,112662,1,8,0:0:0:0:
320,236,112748,1,8,0:0:0:0:
368,140,112834,1,8,0:0:0:0:
344,20,112921,2,0,L|196:64,1,120,4|0,0:0|0:0,0:0:0:0:
124,200,113265,5,8,0:0:0:0:
440,100,113438,2,0,L|292:144,1,120
116,104,113783,1,0,0:0:0:0:
252,304,113955,1,8,0:0:0:0:
300,72,114128,5,0,0:0:0:0:
300,72,114214,1,0,0:0:0:0:
300,72,114300,1,0,0:0:0:0:
56,96,114472,1,0,0:0:0:0:
328,148,114645,1,8,0:0:0:0:
80,184,114817,1,0,0:0:0:0:
144,72,114990,5,0,0:0:0:0:
164,296,115162,1,0,0:0:0:0:
252,92,115334,1,8,0:0:0:0:
276,340,115507,1,0,0:0:0:0:
448,284,115679,6,0,P|380:252|360:184,1,120
112,28,116024,2,0,L|228:64,1,120,4|0,0:0|0:0,0:0:0:0:
114,229,116369,1,0,0:0:0:0:
360,136,116541,1,0,0:0:0:0:
360,136,116628,1,0,0:0:0:0:
360,136,116714,1,4,0:0:0:0:
280,352,116886,6,0,P|160:328|124:180,1,240
224,52,117403,2,0,L|276:116,1,60,4|0,0:0|0:0,0:0:0:0:
384,112,117576,2,0,L|332:48,1,60
152,168,117748,5,8,0:0:0:0:
203,198,117834,1,0,0:0:0:0:
224,254,117921,1,8,0:0:0:0:
202,310,118007,1,0,0:0:0:0:
152,341,118093,1,8,0:0:0:0:
93,329,118179,1,8,0:0:0:0:
53,284,118265,1,8,0:0:0:0:
54,224,118352,1,8,0:0:0:0:
92,179,118438,2,0,L|256:180,1,120,4|0,0:0|0:0,0:0:0:0:
364,100,118783,5,8,0:0:0:0:
260,232,118955,1,0,0:0:0:0:
408,232,119128,1,0,0:0:0:0:
268,116,119300,1,0,0:0:0:0:
308,300,119472,1,8,0:0:0:0:
404,108,119645,1,0,0:0:0:0:
236,200,119817,5,0,0:0:0:0:
408,292,119990,1,0,0:0:0:0:
236,84,120162,1,8,0:0:0:0:
264,328,120334,1,0,0:0:0:0:
416,64,120507,1,0,0:0:0:0:
160,220,120679,1,0,0:0:0:0:
456,256,120852,1,8,0:0:0:0:
200,96,121024,1,0,0:0:0:0:
392,348,121197,5,4,0:0:0:0:
124,168,121369,1,0,0:0:0:0:
440,284,121541,1,8,0:0:0:0:
96,264,121714,1,0,0:0:0:0:
488,164,121886,1,0,0:0:0:0:
84,176,122059,1,0,0:0:0:0:
508,236,122231,1,8,0:0:0:0:
120,96,122403,1,0,0:0:0:0:
260,24,122576,5,0,0:0:0:0:
224,352,122748,1,0,0:0:0:0:
328,32,122921,1,8,0:0:0:0:
320,360,123093,1,0,0:0:0:0:
256,36,123265,5,8,0:0:0:0:
255,107,123352,1,8,0:0:0:0:
255,167,123438,1,8,0:0:0:0:
255,215,123524,1,8,0:0:0:0:
255,251,123610,1,8,0:0:0:0:
255,276,123697,1,8,0:0:0:0:
255,291,123783,1,8,0:0:0:0:
255,303,123869,1,8,0:0:0:0:
254,307,123955,1,2,0:0:0:0:
48,344,124128,6,0,P|28:196|108:100,1,240,12|0,0:0|0:0,0:0:0:0:
464,40,124645,2,0,P|484:188|404:284,1,240,12|0,0:0|0:0,0:0:0:0:
32,128,125162,2,0,P|100:52|164:48,1,120,12|8,0:0|0:0,0:0:0:0:
200,288,125507,1,0,0:0:0:0:
284,56,125679,1,8,0:0:0:0:
384,268,125852,1,0,0:0:0:0:
136,152,126024,1,8,0:0:0:0:
432,132,126197,1,8,0:0:0:0:
112,264,126369,1,8,0:0:0:0:
344,64,126541,1,0,0:0:0:0:
0,224,126714,5,8,0:0:0:0:
512,160,126886,1,4,0:0:0:0:
0,128,127231,5,4,0:0:0:0:
512,256,127403,1,4,0:0:0:0:
0,32,127748,5,4,0:0:0:0:
512,352,127921,1,4,0:0:0:0:
256,192,128093,12,0,131541,0:0:0:0:
