osu file format v14

[General]
AudioFilename: audio.mp3
AudioLeadIn: 0
PreviewTime: 75659
Countdown: 1
SampleSet: Normal
StackLeniency: 0.7
Mode: 0
LetterboxInBreaks: 0
WidescreenStoryboard: 0

[Editor]
DistanceSpacing: 1.3
BeatDivisor: 4
GridSize: 8
TimelineZoom: 2

[Metadata]
Title:Gravity Falls Theme Song (OVA Dubstep Remix)
TitleUnicode:Gravity Falls Theme Song (OVA Dubstep Remix)
Artist:DubstepGutter
ArtistUnicode:DubstepGutter
Creator:Leonlxrd
Version:Dubstep Mystery
Source:
Tags:Dubstep, gravity falls
BeatmapID:1639827
BeatmapSetID:780682

[Difficulty]
HPDrainRate:7
CircleSize:4
OverallDifficulty:6
ApproachRate:9.5
SliderMultiplier:1.9
SliderTickRate:1

[Events]
//Background and Video events
0,0,"bg.jpg",0,0
//Break Periods
2,8281,8985
2,43080,63384
2,128279,130755
//Storyboard Layer 0 (Background)
//Storyboard Layer 1 (Fail)
//Storyboard Layer 2 (Pass)
//Storyboard Layer 3 (Foreground)
//Storyboard Sound Samples

[TimingPoints]
80,400,4,2,0,100,1,0
6480,-133.333333333333,4,2,0,100,0,0
7660,-100,4,2,0,100,0,0
12880,-100,4,2,0,100,0,0
15280,-100,4,2,0,100,0,0
37680,-133.333333333333,4,2,0,100,0,0
65480,-66.6666666666667,4,2,0,100,0,0
70280,-80,4,2,0,100,0,0
76880,-50,4,1,0,100,0,1
86580,-50,4,1,0,100,0,0
89780,-50,4,1,0,100,0,1
99380,-50,4,2,0,100,0,0
102380,-50,4,1,0,100,0,1
116080,-50,4,1,0,100,0,1
116280,-200,4,1,0,100,0,1
116480,-50,4,1,0,100,0,1
116680,-200,4,1,0,100,0,1
116880,-50,4,1,0,100,0,1
124980,-100,4,1,0,100,0,0
153680,-50,4,1,0,100,0,0
156480,-100,4,1,0,100,0,0
177680,-66.6666666666667,4,1,0,100,0,1
178680,-50,4,1,0,100,0,1
187280,-50,4,3,0,100,0,0
190480,-50,4,1,0,100,0,1
197780,-66.6666666666667,4,1,0,100,0,1
198980,-50,4,1,0,100,0,1
200180,-50,4,2,0,100,0,0
203280,-50,4,1,0,100,0,1
225680,-50,4,1,0,100,0,0

[HitObjects]
208,96,81,5,0,0:0:0:0:
224,128,281,1,0,0:0:0:0:
256,144,481,1,0,0:0:0:0:
288,128,681,1,4,0:0:0:0:
192,192,881,5,0,0:0:0:0:
112,112,1081,1,0,0:0:0:0:
48,208,1281,1,0,0:0:0:0:
144,288,1481,1,4,0:0:0:0:
432,176,1681,5,0,0:0:0:0:
368,256,1881,1,0,0:0:0:0:
336,160,2081,1,0,0:0:0:0:
368,256,2281,1,4,0:0:0:0:
80,176,2481,6,0,B|168:112,1,95
240,240,2881,1,0,0:0:0:0:
256,240,3081,1,4,0:0:0:0:
224,128,3281,1,0,0:0:0:0:
144,160,3481,1,0,0:0:0:0:
128,256,3681,2,0,L|240:304,1,95
288,192,4081,2,4,L|184:152,1,95,0|4,0:0|0:0,0:0:0:0:
112,128,4481,5,0,0:0:0:0:
192,208,4681,1,0,0:0:0:0:
256,80,4881,1,0,0:0:0:0:
304,240,5081,1,0,0:0:0:0:
128,272,5281,1,0,0:0:0:0:
112,112,5481,6,0,L|176:208,1,95
160,208,6081,1,4,0:0:0:0:
64,136,6481,6,0,P|144:56|256:152,1,285.000010871888
152,208,7681,2,0,P|147:294|168:303,1,95
248,336,8081,1,4,0:0:0:0:
128,112,9681,6,0,L|208:192,1,95
320,160,10281,1,0,0:0:0:0:
208,240,10881,1,0,0:0:0:0:
112,144,11281,2,4,B|120:48|120:48|224:104,1,190
96,176,12881,6,4,P|144:288|304:160,1,380,0|0,0:0|0:0,0:0:0:0:
160,192,14081,1,0,0:0:0:0:
320,256,14481,1,0,0:0:0:0:
48,64,15281,2,0,L|264:112,1,190
400,200,16081,1,0,0:0:0:0:
240,176,16881,1,0,0:0:0:0:
128,128,17681,1,0,0:0:0:0:
160,192,18481,2,4,L|360:192,1,190
368,96,19281,5,0,0:0:0:0:
112,80,19681,6,2,B|96:144|96:144|144:192,1,95
256,120,20081,2,0,B|264:192|264:192|244:207,1,95
328,304,20481,2,2,P|336:232|368:200,1,95
464,184,20881,2,0,P|472:224|424:296,1,95
128,224,21281,2,2,L|64:128,1,95
192,112,21681,2,0,L|256:200,1,95
320,288,22081,1,2,0:0:0:0:
304,288,22481,5,0,0:0:0:0:
328,96,22881,2,2,L|440:56,1,95
288,192,23281,2,0,L|392:152,1,95
368,272,23681,2,2,L|256:304,1,95
144,272,24081,2,0,L|64:192,1,95
272,144,24481,1,2,0:0:0:0:
320,224,24681,1,0,0:0:0:0:
176,256,24881,2,2,P|112:240|96:176,1,95
256,256,25281,2,4,P|320:240|336:176,1,95
216,184,25681,1,0,0:0:0:0:
200,128,26081,5,0,0:0:0:0:
256,144,26481,1,0,0:0:0:0:
64,224,26881,1,0,0:0:0:0:
200,184,27281,2,2,L|304:232,1,95
96,112,27681,1,0,0:0:0:0:
96,232,28081,1,0,0:0:0:0:
176,336,28480,1,0,0:0:0:0:
256,128,29281,5,0,0:0:0:0:
256,128,29681,1,0,0:0:0:0:
184,128,30081,2,6,L|72:128,1,95
320,240,30880,5,0,0:0:0:0:
320,240,31280,1,0,0:0:0:0:
176,240,31680,2,6,L|72:240,1,95
304,144,32480,5,0,0:0:0:0:
288,272,32880,1,0,0:0:0:0:
176,192,33280,1,0,0:0:0:0:
96,64,33680,2,0,P|144:112|192:96,1,95
345,110,34080,2,0,P|391:103|416:64,1,95
184,152,34480,2,0,L|184:264,1,95
312,152,34880,2,0,L|312:264,1,95
240,176,35680,5,0,0:0:0:0:
96,112,36080,1,0,0:0:0:0:
96,256,36480,1,4,0:0:0:0:
192,48,36880,6,2,B|416:56,1,190
144,256,37680,2,2,P|112:208|160:120,1,142.500005435944
231,82,38480,2,2,P|258:145|225:205,1,142.500005435944
80,152,39280,2,2,P|128:88|216:64,1,142.500005435944
256,192,40080,12,0,42880,0:0:0:0:
192,112,64080,5,0,0:0:0:0:
320,128,64280,1,2,0:0:0:0:
208,224,64480,1,0,0:0:0:0:
192,112,64680,1,2,0:0:0:0:
320,128,64880,1,0,0:0:0:0:
336,256,65080,1,2,0:0:0:0:
96,176,65280,1,0,0:0:0:0:
192,224,65480,6,2,B|176:160|176:160|264:88,1,142.500005435944
384,144,65880,1,0,0:0:0:0:
160,192,66081,2,2,B|96:256|96:256|88:152,1,142.500005435944
272,128,66480,5,0,0:0:0:0:
240,192,66680,1,2,0:0:0:0:
272,128,66880,1,0,0:0:0:0:
240,192,67080,1,2,0:0:0:0:
112,144,67280,5,0,0:0:0:0:
112,144,67480,1,2,0:0:0:0:
112,144,67680,1,0,0:0:0:0:
112,144,67880,1,2,0:0:0:0:
272,128,68080,1,0,0:0:0:0:
208,240,68280,1,2,0:0:0:0:
176,128,68480,1,0,0:0:0:0:
208,240,68680,1,2,0:0:0:0:
336,160,68880,6,0,L|384:80,2,71.2500027179719
112,112,69280,2,2,L|8:264,1,142.500005435944
208,144,69680,5,0,0:0:0:0:
224,256,69880,1,2,0:0:0:0:
208,144,70080,1,0,0:0:0:0:
224,256,70280,2,2,L|208:128,1,118.75
320,128,70680,1,0,0:0:0:0:
240,192,70880,1,2,0:0:0:0:
128,176,71080,1,0,0:0:0:0:
320,128,71280,1,2,0:0:0:0:
176,288,71480,1,0,0:0:0:0:
176,128,71680,1,2,0:0:0:0:
80,224,71880,1,0,0:0:0:0:
240,224,72080,6,2,L|288:160,1,59.375
320,128,72280,1,0,0:0:0:0:
112,160,72480,1,2,0:0:0:0:
176,288,72680,1,0,0:0:0:0:
256,192,72880,2,2,L|192:144,1,59.375
144,112,73080,1,0,0:0:0:0:
272,96,73280,1,2,0:0:0:0:
96,240,73480,1,0,0:0:0:0:
64,88,73680,5,0,0:0:0:0:
93,62,73781,1,0,0:0:0:0:
127,43,73879,1,0,0:0:0:0:
164,30,73979,1,0,0:0:0:0:
203,25,74079,1,0,0:0:0:0:
242,27,74179,1,0,0:0:0:0:
280,36,74279,1,0,0:0:0:0:
316,52,74379,1,0,0:0:0:0:
348,74,74479,1,0,0:0:0:0:
375,102,74579,1,0,0:0:0:0:
397,135,74679,1,0,0:0:0:0:
412,171,74779,1,0,0:0:0:0:
420,209,74879,1,0,0:0:0:0:
421,248,74979,1,0,0:0:0:0:
288,248,75280,5,14,0:0:0:0:
120,160,76880,6,0,P|216:104|192:192,1,190
368,320,77180,5,0,0:0:0:0:
384,288,77280,1,0,0:0:0:0:
400,256,77380,1,0,0:0:0:0:
416,224,77480,1,0,0:0:0:0:
432,184,77580,1,0,0:0:0:0:
280,160,77680,2,0,B|328:64|328:64|168:48,1,190
216,160,78080,5,0,0:0:0:0:
176,176,78180,1,0,0:0:0:0:
160,216,78280,1,0,0:0:0:0:
176,256,78380,1,0,0:0:0:0:
216,272,78480,1,0,0:0:0:0:
264,272,78580,2,0,B|352:256|472:144,1,190
208,96,78980,2,0,B|96:96|96:96|96:176,1,190
328,144,79280,2,0,L|416:72,1,95
88,152,79679,5,0,0:0:0:0:
117,126,79780,1,0,0:0:0:0:
152,104,79880,1,0,0:0:0:0:
188,96,79980,1,0,0:0:0:0:
227,93,80080,1,0,0:0:0:0:
312,104,80180,1,0,0:0:0:0:
280,264,80380,1,0,0:0:0:0:
128,48,80480,5,0,0:0:0:0:
114,67,80580,1,0,0:0:0:0:
106,89,80680,1,0,0:0:0:0:
104,113,80780,1,0,0:0:0:0:
107,136,80880,1,0,0:0:0:0:
113,159,80980,1,0,0:0:0:0:
120,182,81080,1,0,0:0:0:0:
126,205,81180,1,0,0:0:0:0:
132,228,81280,1,0,0:0:0:0:
134,252,81380,1,0,0:0:0:0:
131,275,81480,1,0,0:0:0:0:
123,297,81580,1,0,0:0:0:0:
109,316,81680,1,0,0:0:0:0:
80,48,81780,6,0,P|224:64|224:48,1,190
400,176,82180,2,0,B|400:128|400:128|320:96,1,95
272,128,82380,2,0,B|288:176|288:176|192:224,1,95
112,176,82680,2,0,P|128:80|192:128,1,190
320,288,82980,2,0,B|256:208|256:208|352:224,1,190
224,160,83380,1,0,0:0:0:0:
224,160,83480,2,0,P|112:128|112:208,1,190
160,272,83880,2,0,L|256:304,1,95
288,224,84080,1,0,0:0:0:0:
96,208,84180,2,0,P|32:160|48:112,1,95
208,288,84380,2,0,B|256:320|256:320|304:272,1,95
288,176,84580,1,0,0:0:0:0:
240,160,84680,1,0,0:0:0:0:
192,144,84780,1,0,0:0:0:0:
144,144,84880,1,0,0:0:0:0:
96,144,84980,1,0,0:0:0:0:
144,64,85080,6,0,B|208:64|208:64|240:144|240:144|144:160,1,190
144,200,85380,2,0,P|184:296|256:272,1,190
384,128,85780,6,0,P|320:160|384:256,1,190
432,96,86080,1,0,0:0:0:0:
384,64,86180,1,0,0:0:0:0:
336,64,86280,1,0,0:0:0:0:
288,80,86380,1,0,0:0:0:0:
96,288,86580,6,0,B|64:256|64:256|96:208,1,95
91,214,86780,2,0,B|64:256|64:256|96:288,1,95
96,288,86980,2,0,B|64:256|64:256|96:208,1,95
91,214,87180,2,0,B|64:256|64:256|96:288,1,95
416,288,87380,6,0,B|448:256|448:256|416:208,1,95
420,214,87580,2,0,B|448:256|448:256|416:288,1,95
416,288,87780,2,0,B|448:256|448:256|416:208,1,95
420,214,87980,2,0,B|448:256|448:256|416:288,1,95
208,80,88180,6,0,L|320:80,1,95
303,80,88380,2,0,L|208:80,1,95
208,80,88580,2,0,L|303:80,1,95
303,80,88780,2,0,L|208:80,1,95
206,200,88980,6,0,P|287:197|290:278,1,95
292,272,89180,2,0,P|250:290|208:272,1,95
206,200,89380,2,0,P|287:197|290:278,1,95
292,272,89580,2,0,P|250:290|208:272,1,95
112,112,89780,2,0,P|192:48|240:112,1,190
64,200,90080,2,0,L|168:224,1,95
224,304,90280,2,0,L|320:272,1,95
368,224,90480,6,0,P|352:112|288:160,1,190
144,192,90879,5,0,0:0:0:0:
144,192,90980,1,0,0:0:0:0:
208,192,91080,1,0,0:0:0:0:
256,192,91180,1,0,0:0:0:0:
376,192,91280,1,0,0:0:0:0:
384,40,91380,2,0,P|288:72|288:24,1,190
176,64,91680,1,0,0:0:0:0:
176,64,91780,2,0,P|112:160|144:176,1,190
288,176,92080,1,0,0:0:0:0:
288,176,92180,1,0,0:0:0:0:
288,176,92280,2,0,P|384:192|368:112,1,190
144,192,92579,5,0,0:0:0:0:
144,192,92680,1,0,0:0:0:0:
208,112,92779,1,0,0:0:0:0:
208,112,92880,1,0,0:0:0:0:
352,144,92980,2,0,B|384:192|384:192|320:272,1,95
360,221,93179,2,0,B|384:192|384:192|352:144,1,95
320,272,93379,5,0,0:0:0:0:
256,288,93479,1,0,0:0:0:0:
192,272,93579,1,0,0:0:0:0:
144,224,93679,1,0,0:0:0:0:
48,120,93779,1,0,0:0:0:0:
152,48,93879,5,0,0:0:0:0:
216,32,93979,1,0,0:0:0:0:
280,48,94079,1,0,0:0:0:0:
328,96,94179,1,0,0:0:0:0:
344,160,94279,1,0,0:0:0:0:
256,184,94380,6,0,B|200:192|200:192|248:304,1,95
215,227,94580,2,0,P|176:288|104:264,1,95
104,288,94779,5,0,0:0:0:0:
104,288,94879,1,0,0:0:0:0:
104,288,94979,1,8,0:0:0:0:
160,168,95079,2,0,B|152:120|152:120|248:40,1,95
272,96,95279,2,0,B|328:96|328:96|384:200,1,95
64,112,95480,2,0,B|104:152|104:152|112:240,1,95
176,208,95679,2,0,P|304:216|288:264,1,190
176,80,95979,5,0,0:0:0:0:
176,80,96079,2,0,L|192:184,1,95
376,144,96279,1,0,0:0:0:0:
256,248,96379,5,0,0:0:0:0:
256,248,96479,1,0,0:0:0:0:
224,240,96579,1,0,0:0:0:0:
192,224,96679,1,0,0:0:0:0:
144,192,96779,1,0,0:0:0:0:
160,64,96879,1,0,0:0:0:0:
160,64,96979,2,0,B|224:64|224:64|272:128,1,95
288,144,97279,5,0,0:0:0:0:
224,240,97379,1,0,0:0:0:0:
192,256,97479,1,0,0:0:0:0:
160,256,97579,1,0,0:0:0:0:
120,136,97679,1,0,0:0:0:0:
400,272,97780,2,0,P|336:208|400:160,1,190
80,176,98079,1,0,0:0:0:0:
80,176,98179,6,0,P|96:80|128:112,1,190
176,128,98580,6,0,B|144:64|144:64|288:32,1,190
176,128,98879,1,0,0:0:0:0:
176,144,98979,1,0,0:0:0:0:
176,176,99079,1,0,0:0:0:0:
176,224,99179,1,0,0:0:0:0:
176,288,99279,1,0,0:0:0:0:
336,208,99379,6,8,L|288:112,1,95
64,112,99579,2,8,L|176:80,1,95
64,272,99780,2,8,L|48:160,1,95
208,112,99979,2,8,L|320:112,1,95
208,256,100179,2,8,L|160:160,1,95
320,192,100380,2,8,L|304:96,1,95
48,208,100579,2,8,L|80:112,1,95
208,176,100780,2,8,L|272:288,1,95
240,96,100979,2,8,L|384:96,1,95
96,112,101180,2,8,L|112:256,1,95
272,256,101379,2,8,L|352:144,1,95
176,128,101579,2,8,L|176:240,1,95
64,128,101780,2,8,L|208:96,1,95
368,144,101979,2,8,L|368:256,1,95
128,240,102179,2,8,L|208:144,1,95
208,144,102379,5,0,0:0:0:0:
240,128,102479,1,0,0:0:0:0:
272,160,102579,1,0,0:0:0:0:
288,192,102679,1,0,0:0:0:0:
288,224,102779,1,0,0:0:0:0:
384,112,102879,5,0,0:0:0:0:
352,96,102979,1,0,0:0:0:0:
304,96,103079,1,0,0:0:0:0:
272,128,103179,1,0,0:0:0:0:
256,176,103279,1,0,0:0:0:0:
160,160,103380,2,0,B|144:208|144:208|48:176,1,95
128,64,103579,2,0,L|240:64,1,95
288,64,103779,5,0,0:0:0:0:
320,64,103879,1,0,0:0:0:0:
352,64,103979,1,0,0:0:0:0:
384,64,104079,2,0,L|400:160,1,95
176,208,104279,6,0,L|80:160,1,95
272,208,104479,2,0,L|336:112,1,95
128,96,104679,2,0,L|224:208,1,95
240,304,104880,2,0,L|288:160,1,95
112,192,105079,1,0,0:0:0:0:
160,144,105179,1,0,0:0:0:0:
208,192,105279,1,0,0:0:0:0:
160,240,105379,1,0,0:0:0:0:
112,192,105479,1,0,0:0:0:0:
160,144,105579,1,0,0:0:0:0:
224,112,105679,1,0,0:0:0:0:
288,96,105779,6,0,P|352:176|288:208,1,190
80,96,106079,6,0,L|256:192,1,190
480,64,106480,2,0,B|496:160|496:160|352:240,1,190
112,112,106879,1,0,0:0:0:0:
208,112,107079,1,0,0:0:0:0:
176,240,107279,1,0,0:0:0:0:
216,144,107479,5,0,0:0:0:0:
296,48,107579,1,0,0:0:0:0:
296,136,107679,1,0,0:0:0:0:
328,168,107779,1,0,0:0:0:0:
344,216,107879,1,0,0:0:0:0:
312,280,107979,1,0,0:0:0:0:
240,288,108179,2,0,B|192:288|192:288|144:240,1,95
160,112,108379,2,0,B|208:96|208:96|272:144,1,95
272,144,108579,5,0,0:0:0:0:
304,160,108679,1,0,0:0:0:0:
304,208,108779,1,0,0:0:0:0:
144,240,108979,6,0,B|64:160|64:160|128:96,1,190
160,80,109279,1,0,0:0:0:0:
160,80,109380,2,0,B|214:134|214:134|134:214,1,190
272,240,109679,1,0,0:0:0:0:
400,128,109779,2,0,B|464:128|432:192|432:192|496:240|432:288,1,190
112,160,110079,1,0,0:0:0:0:
192,256,110279,1,0,0:0:0:0:
224,80,110479,2,0,L|320:144,1,95
96,224,110779,5,0,0:0:0:0:
64,112,110979,1,0,0:0:0:0:
240,208,111179,1,0,0:0:0:0:
176,288,111379,1,0,0:0:0:0:
160,96,111579,5,0,0:0:0:0:
160,96,111679,1,0,0:0:0:0:
160,96,111779,1,0,0:0:0:0:
96,80,111879,1,0,0:0:0:0:
64,144,111979,1,0,0:0:0:0:
96,208,112079,2,0,P|192:208|160:288,1,190
400,96,112379,5,0,0:0:0:0:
400,96,112479,2,0,P|448:192|352:208,1,190
192,80,112779,5,0,0:0:0:0:
224,80,112879,2,0,L|272:192,1,95
128,240,113079,5,0,0:0:0:0:
128,240,113179,1,0,0:0:0:0:
128,240,113280,2,0,B|192:240|192:240|208:176,1,95
240,160,113479,2,0,L|336:208,1,95
96,80,113679,5,0,0:0:0:0:
96,80,113779,2,0,P|192:64|224:112,1,95
64,160,113979,2,0,L|160:176,1,95
224,96,114179,5,0,0:0:0:0:
256,96,114279,1,0,0:0:0:0:
288,96,114380,2,0,L|368:176,1,95
128,272,114679,5,0,0:0:0:0:
128,272,114779,1,0,0:0:0:0:
128,272,114879,1,0,0:0:0:0:
112,112,114979,2,0,P|128:192|160:208,1,95
208,80,115280,2,0,B|256:80|256:80|320:144,1,95
224,224,115579,5,0,0:0:0:0:
272,240,115679,1,0,0:0:0:0:
320,240,115779,1,0,0:0:0:0:
352,208,115879,1,0,0:0:0:0:
352,160,115979,1,0,0:0:0:0:
80,144,116080,6,0,P|144:96|192:144,1,95
150,97,116280,2,0,L|150:129,1,23.75
112,256,116480,6,0,L|256:256,1,95
207,256,116680,2,0,L|208:216,1,23.75
360,96,116880,6,0,L|432:184,1,95
192,152,117080,2,0,B|128:144|128:144|104:48,1,95
336,224,117280,2,0,P|280:176|288:128,1,95
344,112,117479,2,0,P|384:136|376:232,1,95
192,224,117679,2,0,L|64:112,1,95
176,64,117879,5,0,0:0:0:0:
272,112,117979,1,0,0:0:0:0:
320,160,118079,5,0,0:0:0:0:
272,176,118179,1,0,0:0:0:0:
240,208,118279,1,0,0:0:0:0:
208,224,118379,1,0,0:0:0:0:
176,224,118479,1,0,0:0:0:0:
144,224,118579,2,0,P|64:144|96:128,1,190
176,112,118880,6,0,P|224:80|288:176,1,190
80,192,119179,2,0,L|64:96,1,95
176,112,119379,2,0,P|272:128|256:176,1,95
304,160,119579,1,0,0:0:0:0:
304,160,119679,1,0,0:0:0:0:
176,240,119779,2,0,B|128:208|128:208|128:144,1,95
112,48,119979,5,0,0:0:0:0:
112,48,120079,2,0,P|160:32|224:80,1,95
320,256,120279,2,0,P|352:192|336:144,1,95
176,160,120479,1,0,0:0:0:0:
368,64,120579,5,0,0:0:0:0:
384,96,120679,1,0,0:0:0:0:
400,128,120779,1,0,0:0:0:0:
416,160,120879,1,0,0:0:0:0:
432,192,120980,2,0,P|432:256|368:272,1,95
112,80,121179,5,0,0:0:0:0:
112,80,121279,1,0,0:0:0:0:
112,80,121379,1,0,0:0:0:0:
192,176,121479,5,0,0:0:0:0:
224,160,121579,1,0,0:0:0:0:
256,144,121679,1,0,0:0:0:0:
288,128,121779,2,0,L|384:80,1,95
448,80,121979,5,0,0:0:0:0:
448,128,122079,1,0,0:0:0:0:
448,176,122179,1,0,0:0:0:0:
448,224,122279,1,0,0:0:0:0:
448,272,122379,2,0,B|448:320|448:320|384:320,1,95
144,128,122579,5,0,0:0:0:0:
144,128,122679,2,0,L|240:112,1,95
80,176,122880,2,0,L|144:288,1,95
304,192,123079,2,0,L|304:80,1,95
208,224,123279,5,0,0:0:0:0:
224,112,123479,1,0,0:0:0:0:
144,144,123679,1,0,0:0:0:0:
128,272,123879,1,0,0:0:0:0:
320,192,124079,5,0,0:0:0:0:
320,192,124179,1,0,0:0:0:0:
256,64,124279,1,0,0:0:0:0:
224,80,124379,1,0,0:0:0:0:
192,80,124479,1,0,0:0:0:0:
160,64,124579,1,0,0:0:0:0:
128,32,124679,2,0,P|80:64|64:128,1,95
176,192,124879,5,0,0:0:0:0:
256,192,124979,12,0,128079,0:0:0:0:
128,80,131280,6,0,B|320:80|320:80|272:304,1,380
80,128,132479,1,0,0:0:0:0:
312,144,132880,2,0,P|216:48|160:96,1,237.5
288,144,134479,5,0,0:0:0:0:
160,112,135079,1,0,0:0:0:0:
272,112,135679,1,0,0:0:0:0:
196,236,136079,2,0,B|208:192|208:192|160:160|160:160|128:80,1,190
144,176,137680,6,0,P|192:112|240:288,1,380
176,128,138880,1,0,0:0:0:0:
176,128,139280,1,0,0:0:0:0:
160,192,140080,6,0,B|128:64|128:64|208:112,1,190
368,160,140880,1,0,0:0:0:0:
288,128,141680,1,0,0:0:0:0:
176,128,142480,1,0,0:0:0:0:
176,192,143280,2,0,P|192:64|208:64,1,190
160,112,144080,6,0,P|208:80|256:112,1,95
320,192,144480,1,0,0:0:0:0:
272,96,144880,5,0,0:0:0:0:
208,208,145080,1,0,0:0:0:0:
160,128,145280,2,0,L|64:80,1,95
336,128,145680,1,0,0:0:0:0:
64,64,146080,5,0,0:0:0:0:
80,192,146280,1,0,0:0:0:0:
192,208,146480,2,0,L|272:144,1,95
400,128,146880,1,0,0:0:0:0:
288,128,147080,1,0,0:0:0:0:
320,224,147280,1,0,0:0:0:0:
80,192,147680,6,0,P|48:144|80:96,1,95
240,128,148080,1,0,0:0:0:0:
208,224,148480,5,0,0:0:0:0:
320,192,148680,1,0,0:0:0:0:
192,112,148880,1,0,0:0:0:0:
320,192,149080,1,0,0:0:0:0:
192,112,149280,2,0,L|304:80,1,95
400,80,149680,1,0,0:0:0:0:
336,240,149880,1,0,0:0:0:0:
224,176,150080,6,0,B|144:176|144:176|144:64,1,190
192,128,150880,5,0,0:0:0:0:
288,144,151080,1,0,0:0:0:0:
192,128,151280,1,0,0:0:0:0:
240,240,151480,1,0,0:0:0:0:
288,144,151680,1,0,0:0:0:0:
240,240,151880,1,0,0:0:0:0:
208,128,152080,1,0,0:0:0:0:
160,208,152280,1,0,0:0:0:0:
304,144,152480,1,0,0:0:0:0:
256,224,152680,1,0,0:0:0:0:
208,128,152880,1,0,0:0:0:0:
144,208,153080,1,0,0:0:0:0:
416,96,153280,1,0,0:0:0:0:
240,176,153680,6,0,P|112:208|64:112,1,190
336,96,154080,1,0,0:0:0:0:
336,256,154280,1,0,0:0:0:0:
208,160,154480,1,0,0:0:0:0:
160,48,154680,1,0,0:0:0:0:
128,256,154880,1,0,0:0:0:0:
288,112,155080,1,0,0:0:0:0:
384,96,155680,5,0,0:0:0:0:
128,256,155880,1,0,0:0:0:0:
208,80,156080,1,0,0:0:0:0:
304,288,156280,1,0,0:0:0:0:
368,160,156480,2,0,L|256:176,1,95
160,144,156880,1,0,0:0:0:0:
160,144,157280,5,0,0:0:0:0:
240,224,157480,5,0,0:0:0:0:
336,112,157680,1,0,0:0:0:0:
160,208,157880,1,0,0:0:0:0:
192,64,158080,1,0,0:0:0:0:
320,224,158280,1,0,0:0:0:0:
96,112,158480,5,0,0:0:0:0:
96,112,158580,1,0,0:0:0:0:
96,112,158680,2,0,L|208:48,1,95
336,192,159080,1,0,0:0:0:0:
192,64,159280,1,0,0:0:0:0:
256,208,159480,1,0,0:0:0:0:
304,80,159680,1,0,0:0:0:0:
128,144,160080,5,0,0:0:0:0:
272,112,160480,5,0,0:0:0:0:
272,256,160680,1,0,0:0:0:0:
192,160,160880,1,0,0:0:0:0:
368,160,161080,1,0,0:0:0:0:
256,96,161280,1,0,0:0:0:0:
224,224,161680,6,0,P|128:160|144:144,1,190
208,96,162480,6,0,P|304:128|272:192,1,190
208,144,163280,5,0,0:0:0:0:
128,224,164080,6,0,B|192:144|192:144|272:208,1,190
256,128,164880,5,0,0:0:0:0:
256,128,165080,1,0,0:0:0:0:
160,176,165280,1,0,0:0:0:0:
96,112,165480,1,0,0:0:0:0:
208,64,165680,1,0,0:0:0:0:
320,160,165880,1,0,0:0:0:0:
128,256,166080,6,0,L|80:160,1,95
128,80,166480,1,0,0:0:0:0:
256,64,166680,2,0,L|320:176,1,95
304,272,167080,5,0,0:0:0:0:
160,272,167280,1,0,0:0:0:0:
224,176,167480,1,0,0:0:0:0:
304,272,167680,1,0,0:0:0:0:
384,112,167880,1,0,0:0:0:0:
240,240,168080,1,0,0:0:0:0:
112,112,168280,1,0,0:0:0:0:
112,112,168480,6,0,L|224:112,1,95
176,224,168880,1,0,0:0:0:0:
64,128,169080,1,0,0:0:0:0:
128,48,169280,2,0,L|240:112,1,95
352,144,169680,5,0,0:0:0:0:
288,256,169880,1,0,0:0:0:0:
208,144,170080,1,0,0:0:0:0:
160,256,170280,1,0,0:0:0:0:
352,144,170480,5,0,0:0:0:0:
288,256,170680,1,0,0:0:0:0:
224,144,170880,1,0,0:0:0:0:
160,256,171080,1,0,0:0:0:0:
128,112,171280,1,0,0:0:0:0:
224,48,171480,5,0,0:0:0:0:
224,144,171680,1,0,0:0:0:0:
128,112,171880,1,0,0:0:0:0:
128,224,172080,1,0,0:0:0:0:
256,80,172280,2,0,L|304:80,1,47.5
160,144,172480,1,0,0:0:0:0:
336,192,172680,2,0,L|288:192,1,47.5
224,256,172880,1,0,0:0:0:0:
224,80,173080,1,0,0:0:0:0:
320,192,173280,5,0,0:0:0:0:
320,192,173480,1,0,0:0:0:0:
400,128,173680,5,0,0:0:0:0:
400,128,173880,1,0,0:0:0:0:
128,96,174080,5,0,0:0:0:0:
128,96,174280,1,0,0:0:0:0:
240,128,174480,1,0,0:0:0:0:
48,176,174580,5,0,0:0:0:0:
66,132,174680,1,0,0:0:0:0:
95,94,174780,1,0,0:0:0:0:
132,65,174880,1,0,0:0:0:0:
175,45,174980,1,0,0:0:0:0:
222,36,175080,1,0,0:0:0:0:
269,39,175180,1,0,0:0:0:0:
314,53,175280,1,0,0:0:0:0:
355,77,175380,1,0,0:0:0:0:
388,111,175480,1,0,0:0:0:0:
413,151,175580,1,0,0:0:0:0:
427,197,175680,1,0,0:0:0:0:
429,244,175780,1,0,0:0:0:0:
421,290,175880,1,0,0:0:0:0:
392,328,175980,1,0,0:0:0:0:
256,272,176080,5,0,0:0:0:0:
192,272,177680,5,0,0:0:0:0:
179,220,177780,1,0,0:0:0:0:
188,168,177880,1,0,0:0:0:0:
224,136,177980,2,0,P|296:96|320:112,1,71.2500027179719
313,86,178180,1,0,0:0:0:0:
364,99,178280,1,0,0:0:0:0:
406,131,178380,1,0,0:0:0:0:
416,184,178480,1,0,0:0:0:0:
96,128,178580,5,0,0:0:0:0:
96,128,178680,2,0,L|144:96,1,47.5
128,224,178780,2,0,L|176:208,1,47.5
240,144,178880,2,0,L|272:192,1,47.5
352,144,179280,5,0,0:0:0:0:
368,160,179380,1,0,0:0:0:0:
384,176,179480,1,0,0:0:0:0:
400,192,179580,1,0,0:0:0:0:
416,208,179680,1,0,0:0:0:0:
192,112,179780,6,0,B|224:160|224:160|288:160,1,95
320,96,179980,2,0,B|288:48|288:48|224:48,1,95
80,176,180180,5,0,0:0:0:0:
128,176,180280,1,0,0:0:0:0:
176,176,180380,1,0,0:0:0:0:
208,136,180480,1,0,0:0:0:0:
224,88,180580,1,0,0:0:0:0:
200,48,180680,1,0,0:0:0:0:
152,32,180780,1,0,0:0:0:0:
104,48,180880,1,0,0:0:0:0:
152,272,180980,2,0,B|216:208|216:208|368:216,1,190
376,128,181480,6,0,L|296:48,1,95
192,136,181680,2,0,L|312:224,1,95
80,152,181880,2,0,L|24:56,1,95
96,272,182080,2,0,L|240:224,1,95
336,224,182280,2,0,L|296:128,1,95
144,168,182480,2,0,P|160:48|248:168,1,285
224,280,182880,2,0,B|184:240|184:240|296:208,1,95
320,32,183080,2,0,L|368:128,1,95
104,96,183280,2,0,P|80:152|104:192,1,95
232,176,183780,6,0,P|296:96|312:128,1,190
176,304,184080,2,0,L|128:200,1,95
104,96,184280,1,0,0:0:0:0:
104,96,184380,2,0,L|208:120,1,95
208,224,184580,5,0,0:0:0:0:
234,210,184680,1,0,0:0:0:0:
260,196,184780,1,0,0:0:0:0:
286,183,184880,1,0,0:0:0:0:
176,112,184980,6,0,L|280:72,1,95
80,80,185180,2,0,L|80:200,1,95
200,304,185380,2,0,L|320:256,1,95
336,120,185680,5,0,0:0:0:0:
329,152,185780,1,0,0:0:0:0:
303,174,185880,1,0,0:0:0:0:
270,174,185980,1,0,0:0:0:0:
244,152,186080,1,0,0:0:0:0:
336,120,186180,2,0,L|416:56,1,95
208,72,186380,6,0,L|120:152,1,95
160,288,186580,2,0,L|280:264,1,95
72,128,186780,2,0,L|56:256,1,95
200,128,186980,2,0,L|344:96,1,95
173,192,187280,5,4,0:0:0:0:
297,120,187480,1,4,0:0:0:0:
297,263,187680,1,4,0:0:0:0:
220,253,187880,5,4,0:0:0:0:
220,130,188080,1,4,0:0:0:0:
327,192,188280,1,4,0:0:0:0:
91,191,188480,5,4,0:0:0:0:
338,49,188680,1,4,0:0:0:0:
338,334,188880,1,4,0:0:0:0:
24,224,189080,5,4,0:0:0:0:
312,6,189280,1,4,0:0:0:0:
356,365,189480,1,4,0:0:0:0:
112,96,189680,5,4,0:0:0:0:
424,248,189880,1,4,0:0:0:0:
112,96,190080,1,4,0:0:0:0:
424,248,190280,1,4,0:0:0:0:
176,184,190480,5,0,0:0:0:0:
202,155,190580,1,0,0:0:0:0:
228,126,190680,1,0,0:0:0:0:
256,106,190780,1,0,0:0:0:0:
293,118,190880,1,0,0:0:0:0:
320,136,190980,1,0,0:0:0:0:
344,160,191080,1,0,0:0:0:0:
368,184,191180,1,0,0:0:0:0:
224,256,191280,6,0,L|120:224,1,95
128,80,191480,1,0,0:0:0:0:
128,80,191580,2,0,L|248:48,1,95
200,176,191780,2,0,L|304:136,1,95
224,64,192080,5,0,0:0:0:0:
284,48,192180,1,0,0:0:0:0:
344,69,192280,1,0,0:0:0:0:
382,119,192380,1,0,0:0:0:0:
387,181,192480,1,0,0:0:0:0:
176,240,192580,6,0,L|104:136,1,95
248,152,192780,2,0,L|200:56,1,95
248,152,192980,5,0,0:0:0:0:
293,136,193080,1,0,0:0:0:0:
341,128,193180,1,0,0:0:0:0:
389,129,193280,1,0,0:0:0:0:
64,168,193380,5,0,0:0:0:0:
61,129,193480,1,0,0:0:0:0:
74,93,193580,1,0,0:0:0:0:
101,65,193680,1,0,0:0:0:0:
64,168,193780,2,0,P|168:232|264:224,1,190
272,112,194280,6,0,B|288:64|288:64|368:72,1,95
232,192,194480,2,0,B|176:200|176:200|152:120,1,95
112,48,194680,5,0,0:0:0:0:
141,48,194780,1,0,0:0:0:0:
164,57,194880,1,0,0:0:0:0:
178,84,194980,1,0,0:0:0:0:
64,264,195080,5,0,0:0:0:0:
89,218,195180,1,0,0:0:0:0:
135,193,195280,1,0,0:0:0:0:
304,120,195380,6,0,P|352:88|412:122,1,95
224,256,195580,5,0,0:0:0:0:
224,256,195680,2,0,P|280:304|304:232,1,95
288,301,195880,2,0,P|243:297|224:256,1,95
120,72,196080,5,0,0:0:0:0:
120,72,196180,1,0,0:0:0:0:
120,72,196280,2,0,B|224:64|224:64|192:144,1,190
176,288,196580,5,0,0:0:0:0:
203,297,196680,1,0,0:0:0:0:
232,294,196780,1,0,0:0:0:0:
258,280,196880,1,0,0:0:0:0:
224,120,196980,2,0,L|312:80,1,95
48,128,197180,2,0,L|104:232,1,95
168,88,197380,2,0,L|256:176,1,95
392,224,197580,2,0,L|384:112,1,95
184,224,197780,6,0,L|264:184,1,71.2500027179719
304,144,197980,2,0,L|280:64,1,71.2500027179719
120,120,198180,1,0,0:0:0:0:
232,80,198480,5,0,0:0:0:0:
251,97,198580,1,0,0:0:0:0:
274,106,198680,1,0,0:0:0:0:
300,106,198780,1,0,0:0:0:0:
324,98,198880,1,0,0:0:0:0:
104,240,198980,5,0,0:0:0:0:
90,199,199080,1,0,0:0:0:0:
90,156,199180,1,0,0:0:0:0:
104,116,199280,1,0,0:0:0:0:
129,82,199380,1,0,0:0:0:0:
224,192,199480,1,0,0:0:0:0:
224,192,199580,6,0,L|328:192,1,95
328,72,199780,2,0,L|416:128,1,95
384,288,199980,2,0,L|344:200,1,95
176,296,200180,6,2,L|176:184,1,95
120,80,200380,2,2,L|256:64,1,95
304,184,200580,2,2,L|400:104,1,95
120,232,200780,2,2,L|56:128,1,95
208,152,200980,2,2,L|296:96,1,95
256,280,201180,2,2,L|152:336,1,95
128,120,201380,2,2,L|240:168,1,95
296,104,201580,2,2,L|416:64,1,95
344,264,201780,2,2,L|184:176,1,95
24,264,201980,2,2,L|120:200,1,95
96,40,202180,2,2,L|192:128,1,95
184,288,202380,2,2,L|296:192,1,95
392,64,202580,2,2,L|240:120,1,95
368,312,202780,2,2,L|320:176,1,95
112,128,202980,2,2,L|144:256,1,95
240,144,203180,2,2,L|320:96,1,47.5
232,272,203280,5,0,0:0:0:0:
261,270,203380,1,0,0:0:0:0:
288,260,203480,1,0,0:0:0:0:
311,242,203580,1,0,0:0:0:0:
328,217,203680,1,0,0:0:0:0:
336,189,203780,1,0,0:0:0:0:
336,160,203880,1,0,0:0:0:0:
327,131,203980,1,0,0:0:0:0:
313,106,204080,1,0,0:0:0:0:
152,136,204180,6,0,L|48:88,1,95
176,208,204380,2,0,L|288:168,1,95
192,64,204580,2,0,L|288:128,1,95
96,256,204780,2,0,L|96:96,1,95
368,56,204980,1,0,0:0:0:0:
368,56,205080,1,0,0:0:0:0:
288,256,205280,1,0,0:0:0:0:
160,136,205480,1,0,0:0:0:0:
248,88,205680,1,0,0:0:0:0:
136,320,205880,5,0,0:0:0:0:
97,284,205980,1,0,0:0:0:0:
86,233,206080,1,0,0:0:0:0:
107,184,206180,1,0,0:0:0:0:
151,156,206280,1,0,0:0:0:0:
203,159,206380,1,0,0:0:0:0:
288,208,206480,2,0,L|376:128,1,95
112,40,206680,5,0,0:0:0:0:
157,57,206780,1,0,0:0:0:0:
204,65,206880,1,0,0:0:0:0:
252,61,206980,1,0,0:0:0:0:
297,42,207080,1,0,0:0:0:0:
323,59,207180,1,0,0:0:0:0:
200,256,207280,6,0,L|112:160,1,95
48,72,207480,2,0,L|64:200,1,95
176,128,207680,2,0,L|312:192,1,95
432,240,207880,2,0,L|408:96,1,95
192,248,208080,2,0,P|208:128|264:112,1,190
48,48,208380,2,0,L|152:56,1,95
68,157,208580,5,0,0:0:0:0:
79,199,208680,1,0,0:0:0:0:
101,237,208780,1,0,0:0:0:0:
131,268,208880,1,0,0:0:0:0:
169,291,208980,2,0,P|272:312|328:232,1,190
152,104,209280,5,0,0:0:0:0:
181,87,209380,1,0,0:0:0:0:
214,79,209480,1,0,0:0:0:0:
248,81,209580,1,0,0:0:0:0:
281,92,209680,1,0,0:0:0:0:
308,112,209780,1,0,0:0:0:0:
64,80,209880,5,0,0:0:0:0:
83,123,209980,1,0,0:0:0:0:
103,166,210080,1,0,0:0:0:0:
123,209,210180,1,0,0:0:0:0:
143,252,210280,1,0,0:0:0:0:
232,40,210380,5,0,0:0:0:0:
258,79,210480,1,0,0:0:0:0:
284,119,210580,1,0,0:0:0:0:
312,160,210680,1,0,0:0:0:0:
337,198,210780,1,0,0:0:0:0:
224,240,210880,5,0,0:0:0:0:
177,243,210980,1,0,0:0:0:0:
139,216,211080,1,0,0:0:0:0:
126,171,211180,1,0,0:0:0:0:
144,129,211280,1,0,0:0:0:0:
384,80,211380,6,0,L|376:184,1,95
240,128,211580,2,0,L|160:48,1,95
384,80,211780,2,0,L|376:200,1,95
240,128,211980,2,0,L|168:56,1,95
168,296,212180,5,0,0:0:0:0:
110,261,212280,1,0,0:0:0:0:
89,197,212380,1,0,0:0:0:0:
320,80,212480,5,0,0:0:0:0:
329,117,212580,1,0,0:0:0:0:
338,155,212680,1,0,0:0:0:0:
272,280,212780,5,0,0:0:0:0:
247,243,212880,1,0,0:0:0:0:
222,207,212980,1,0,0:0:0:0:
96,72,213080,5,0,0:0:0:0:
98,110,213180,1,0,0:0:0:0:
100,149,213280,1,0,0:0:0:0:
208,96,213380,5,0,0:0:0:0:
251,88,213480,1,0,0:0:0:0:
294,80,213580,1,0,0:0:0:0:
352,216,213680,5,0,0:0:0:0:
309,225,213780,1,0,0:0:0:0:
266,234,213880,1,0,0:0:0:0:
112,256,213980,5,0,0:0:0:0:
129,221,214080,1,0,0:0:0:0:
146,186,214180,1,0,0:0:0:0:
88,80,214280,5,0,0:0:0:0:
130,71,214380,1,0,0:0:0:0:
173,63,214480,1,0,0:0:0:0:
240,280,214580,5,0,0:0:0:0:
255,239,214680,1,0,0:0:0:0:
270,198,214780,1,0,0:0:0:0:
136,256,214880,5,0,0:0:0:0:
123,214,214980,1,0,0:0:0:0:
110,172,215080,1,0,0:0:0:0:
224,64,215180,5,0,0:0:0:0:
224,64,215280,2,0,L|112:64,1,95
280,208,215480,5,0,0:0:0:0:
315,182,215580,1,0,0:0:0:0:
350,156,215680,1,0,0:0:0:0:
40,232,215780,5,0,0:0:0:0:
45,198,215880,1,0,0:0:0:0:
50,164,215980,1,0,0:0:0:0:
144,80,216080,5,0,0:0:0:0:
182,76,216180,1,0,0:0:0:0:
221,73,216280,1,0,0:0:0:0:
264,72,216380,2,0,P|336:104|352:176,1,95
176,272,216580,2,0,B|112:272|112:272|112:184,1,95
64,120,216780,1,0,0:0:0:0:
64,120,216880,2,0,P|160:120|176:160,1,95
296,192,217080,2,0,L|304:88,1,95
424,72,217280,2,0,L|440:208,1,95
160,232,217480,5,0,0:0:0:0:
160,232,217580,2,0,L|168:112,1,95
104,72,217780,2,0,L|208:64,1,95
280,208,217980,2,0,L|264:96,1,95
88,248,218180,2,0,L|224:312,1,95
176,112,218380,2,0,L|256:40,1,95
368,280,218580,2,0,L|224:256,1,95
216,208,218780,5,0,0:0:0:0:
224,152,218880,1,0,0:0:0:0:
264,107,218980,1,0,0:0:0:0:
320,90,219080,1,0,0:0:0:0:
376,105,219180,1,0,0:0:0:0:
80,208,219280,5,0,0:0:0:0:
43,158,219380,1,0,0:0:0:0:
51,96,219480,1,0,0:0:0:0:
100,59,219580,1,0,0:0:0:0:
240,232,219680,5,0,0:0:0:0:
240,232,219780,2,0,L|376:256,1,95
152,128,219980,5,0,0:0:0:0:
165,91,220080,1,0,0:0:0:0:
193,65,220180,1,0,0:0:0:0:
193,65,220280,2,0,L|304:48,1,95
160,288,220480,2,0,L|280:272,1,95
48,96,220680,2,0,L|40:208,1,95
192,152,220880,2,0,P|224:72|376:56,1,190
326,235,221180,2,0,B|272:264|272:264|190:213,1,95
72,232,221380,5,0,0:0:0:0:
77,188,221480,1,0,0:0:0:0:
97,150,221580,1,0,0:0:0:0:
129,121,221680,1,0,0:0:0:0:
170,106,221780,1,0,0:0:0:0:
208,272,221880,5,0,0:0:0:0:
205,233,221980,1,0,0:0:0:0:
219,197,222080,1,0,0:0:0:0:
246,169,222180,1,0,0:0:0:0:
281,154,222280,5,0,0:0:0:0:
317,130,222380,1,0,0:0:0:0:
332,90,222480,1,0,0:0:0:0:
120,112,222580,5,0,0:0:0:0:
120,112,222680,2,0,L|208:40,1,95
144,280,222880,5,0,0:0:0:0:
101,258,222980,1,0,0:0:0:0:
72,219,223080,1,0,0:0:0:0:
64,172,223180,1,0,0:0:0:0:
256,192,223280,6,0,L|320:112,1,95
384,272,223480,2,0,L|264:328,1,95
144,120,223680,2,0,L|184:256,1,95
376,160,223880,2,0,L|312:88,1,95
56,224,224080,6,0,L|56:104,1,95
208,224,224280,2,0,L|288:152,1,95
120,72,224480,1,0,0:0:0:0:
120,72,224580,2,0,L|128:168,1,95
360,288,224780,1,0,0:0:0:0:
360,288,224880,2,0,L|336:176,1,95
112,288,225080,5,0,0:0:0:0:
118,244,225180,1,0,0:0:0:0:
136,205,225280,1,0,0:0:0:0:
164,171,225380,1,0,0:0:0:0:
199,145,225480,1,0,0:0:0:0:
240,130,225580,1,0,0:0:0:0:
283,125,225680,1,0,0:0:0:0:
256,192,225780,12,0,228480,0:0:0:0:
104,104,228880,5,0,0:0:0:0:
240,112,229080,1,0,0:0:0:0:
160,240,229280,1,0,0:0:0:0:
240,112,229480,1,0,0:0:0:0:
320,240,229680,1,0,0:0:0:0:
240,112,229880,1,0,0:0:0:0:
160,240,230080,1,0,0:0:0:0:
120,112,230280,1,0,0:0:0:0:
305,196,230480,6,0,B|390:281|468:259|468:259|546:180|454:86,1,380
160,144,231280,2,4,P|264:168|312:232,1,190
