osu file format v14

[General]
AudioFilename: listentomynewsongcalledleftbehindonsoundcloud.mp3
AudioLeadIn: 2000
PreviewTime: 46084
Countdown: 0
SampleSet: Soft
StackLeniency: 0.4
Mode: 0
LetterboxInBreaks: 0
WidescreenStoryboard: 0

[Editor]
DistanceSpacing: 2.4
BeatDivisor: 4
GridSize: 8
TimelineZoom: 1.4

[Metadata]
Title:Oshiete
TitleUnicode:オシエテ
Artist:Dual & Dorothy starring Taneda Risa, Sakura Ayane
ArtistUnicode:デュアル&ドロシー starring 種田梨沙、佐倉綾音
Creator:VINXIS
Version:Remo Prototype
Source:ガラスの花と壊す世界
Tags:ENA☆ 横山克 Yokoyama Masaru やしきん yashikin glass no hana to kowasu sekai garakowa restore the world vitreous flower destroy garakowa CelsiusLK Kalibe
BeatmapID:968814
BeatmapSetID:451644

[Difficulty]
HPDrainRate:6
CircleSize:4
OverallDifficulty:8.6
ApproachRate:9
SliderMultiplier:1.8
SliderTickRate:1

[Events]
//Background and Video events
0,0,"ihatekantoku.jpg",0,0
//Break Periods
2,133500,134615
//Storyboard Layer 0 (Background)
//Storyboard Layer 1 (Fail)
//Storyboard Layer 2 (Pass)
//Storyboard Layer 3 (Foreground)
//Storyboard Sound Samples

[TimingPoints]
535,319.148936170213,4,2,1,60,1,0
535,-185.185185185185,4,2,1,60,0,0
1173,-185.185185185185,4,2,1,20,0,0
1652,-185.185185185185,4,2,1,60,0,0
1811,-151.515151515152,4,2,1,65,0,0
2769,-125,4,2,1,70,0,0
3088,-111.111111111111,4,2,1,70,0,0
7077,-185.185185185185,4,2,1,40,0,0
7396,-111.111111111111,4,2,1,70,0,0
33726,-185.185185185185,4,2,1,40,0,0
41386,-135.135135135135,4,2,1,65,0,0
45375,-125,4,2,1,70,0,0
45854,-125,4,2,0,70,0,0
46492,-100,4,2,1,70,0,1
54790,-100,4,2,0,70,0,1
54949,-100,4,2,1,70,0,1
66439,-166.666666666667,4,2,1,70,0,1
66917,-131.578947368421,4,2,1,70,0,0
74577,-131.578947368421,4,2,0,70,0,0
76492,-131.578947368421,4,2,1,70,0,0
76971,-111.111111111111,4,2,1,70,0,0
97556,-185.185185185185,4,2,1,40,0,0
105215,-135.135135135135,4,2,1,65,0,0
109205,-125,4,2,1,70,0,0
109683,-125,4,2,0,70,0,0
110322,-100,4,2,1,70,0,1
118620,-100,4,2,0,70,0,1
118779,-100,4,2,1,70,0,1
130109,-166.666666666667,4,2,1,70,0,1
130747,-131.578947368421,4,2,1,70,0,0
135215,-185.185185185185,4,2,1,40,0,0
140960,-135.135135135135,4,2,1,65,0,0
160269,-125,4,2,1,70,0,0
160747,-125,4,2,0,70,0,0
161386,-185.185185185185,4,2,1,40,0,0
162024,-100,4,2,1,70,0,0
162503,-100,4,2,1,70,0,1
169683,-100,4,2,0,70,0,1
169843,-100,4,2,1,70,0,1
186120,-200,4,2,1,70,0,1
186917,-128.205128205128,4,2,1,70,0,0
204790,-128.205128205128,4,2,1,5,0,0

[Colours]
Combo1 : 255,255,117
Combo2 : 170,208,255
Combo3 : 255,145,200
Combo4 : 107,129,184

[HitObjects]
161,162,535,5,0,3:0:0:0:
161,162,694,2,0,L|264:153,1,97.2000023730469
300,308,1173,6,0,P|295:272|298:236,2,72.9000017797852,8|8|2,0:0|0:0|0:0,0:0:0:0:
353,154,1811,5,8,0:0:0:0:
180,215,1971,1,2,0:0:0:0:
180,215,2130,1,0,0:0:0:0:
238,65,2290,1,8,0:0:0:0:
113,171,2449,6,0,P|102:213|113:256,1,89.0999997280884
139,286,2769,6,0,L|215:291,1,72,8|0,0:0|0:0,0:0:0:0:
398,152,3088,6,0,B|416:219|416:219|399:310,1,161.999995056153,6|0,0:0|0:0,0:0:0:0:
212,130,3566,1,2,0:0:0:0:
398,128,3726,1,8,0:0:0:0:
279,276,3886,2,0,L|193:271,1,80.9999975280763,2|0,0:0|0:0,0:0:0:0:
147,65,4205,5,2,0:0:0:0:
147,65,4843,2,0,P|126:126|155:206,1,121.499996292114
152,199,5162,1,2,0:0:0:0:
253,133,5322,1,0,0:0:0:0:
264,316,5481,1,0,0:0:0:0:
251,104,5641,6,0,P|331:88|410:100,1,161.999995056153,2|0,0:0|0:0,0:0:0:0:
195,276,6120,1,2,0:0:0:0:
378,232,6279,1,8,0:0:0:0:
124,238,6439,2,0,P|115:277|127:317,1,80.9999975280763,2|0,0:0|0:0,0:0:0:0:
253,133,6758,5,2,0:0:0:0:
253,133,7077,6,0,L|325:137,1,72.9000017797852
152,199,7396,6,0,L|162:77,1,121.499996292114
165,47,7715,1,2,0:0:0:0:
100,270,7875,2,0,B|143:288|143:288|217:278,1,121.499996292114
288,208,8194,6,0,P|317:281|285:353,1,161.999995056153,2|0,0:0|0:0,0:0:0:0:
152,199,8673,1,2,0:0:0:0:
384,168,8832,1,8,0:0:0:0:
216,277,8992,1,2,0:0:0:0:
241,88,9152,1,0,0:0:0:0:
207,356,9311,6,0,P|217:316|215:276,1,80.9999975280763,2|0,0:0|0:0,0:0:0:0:
82,150,9630,2,0,P|71:189|73:229,1,80.9999975280763,2|0,0:0|0:0,0:0:0:0:
216,122,9949,1,2,0:0:0:0:
134,310,10109,1,8,0:0:0:0:
281,209,10269,2,0,L|492:218,1,202.499993820191,2|0,0:0|0:0,0:0:0:0:
427,116,10747,6,0,P|387:106|347:108,1,80.9999975280763,2|0,0:0|0:0,0:0:0:0:
483,217,11066,1,2,0:0:0:0:
341,319,11226,2,0,P|381:321|420:311,1,80.9999975280763,8|0,0:0|0:0,0:0:0:0:
209,161,11545,2,0,P|199:200|201:240,1,80.9999975280763,2|0,0:0|0:0,0:0:0:0:
375,213,11864,1,8,0:0:0:0:
375,213,12183,5,0,0:0:0:0:
243,154,12343,1,0,0:0:0:0:
255,343,12503,1,0,0:0:0:0:
254,131,12662,2,0,L|12:153,1,242.999992584229,8|2,0:0|0:0,0:0:0:0:
12,153,13221,1,2,0:0:0:0:
12,153,13300,5,2,0:0:0:0:
326,232,13620,5,0,0:0:0:0:
158,258,13779,1,2,0:0:0:0:
254,24,13939,2,0,L|241:210,1,161.999995056153,8|0,0:0|0:0,0:0:0:0:
51,173,14417,1,2,0:0:0:0:
340,236,14577,5,0,0:0:0:0:
150,230,14737,1,2,0:0:0:0:
340,236,14896,2,0,P|353:135|346:100,1,121.499996292114
332,103,15215,1,8,0:0:0:0:
228,369,15375,2,0,L|389:361,1,161.999995056153
451,209,15854,5,2,0:0:0:0:
150,230,16173,5,0,0:0:0:0:
233,81,16332,1,2,0:0:0:0:
212,291,16492,2,0,P|138:316|75:271,1,161.999995056153,8|0,0:0|0:0,0:0:0:0:
281,200,16971,1,2,0:0:0:0:
282,362,17130,5,0,0:0:0:0:
233,81,17290,2,0,L|431:88,1,161.999995056153,8|2,0:0|0:0,0:0:0:0:
180,272,17769,1,8,0:0:0:0:
282,362,17928,2,0,P|312:288|300:209,1,161.999995056153,2|0,0:0|0:0,0:0:0:0:
308,214,18327,1,0,0:0:0:0:
308,214,18407,6,0,P|363:234|421:217,1,121.499996292114,2|0,0:0|0:0,0:0:0:0:
426,190,18726,1,0,0:0:0:0:
155,273,18886,1,2,0:0:0:0:
205,39,19045,2,0,L|217:200,1,161.999995056153,8|0,0:0|0:0,0:0:0:0:
232,368,19524,1,2,0:0:0:0:
318,252,19683,5,0,0:0:0:0:
155,273,19843,1,2,0:0:0:0:
318,251,20003,2,0,P|335:194|326:135,1,121.499996292114
299,124,20322,1,8,0:0:0:0:
385,4,20481,1,2,0:0:0:0:
414,149,20641,1,0,0:0:0:0:
220,59,20800,6,0,L|53:73,1,161.999995056153,2|0,0:0|0:0,0:0:0:0:
58,72,21279,1,0,0:0:0:0:
315,367,21598,1,8,0:0:0:0:
341,258,21758,2,0,L|174:272,1,161.999995056153,2|2,0:0|0:0,0:0:0:0:
149,161,22237,5,0,0:0:0:0:
244,100,22396,1,2,0:0:0:0:
179,271,22556,1,0,0:0:0:0:
346,162,22715,1,0,0:0:0:0:
346,162,23035,6,0,L|341:-3,1,161.999995056153,2|0,0:0|0:0,0:0:0:0:
247,73,23433,1,0,0:0:0:0:
246,73,23513,6,0,P|178:112|105:82,1,161.999995056153,2|0,0:0|0:0,0:0:0:0:
179,271,23992,1,2,0:0:0:0:
313,156,24152,2,0,P|381:117|454:147,1,161.999995056153,8|0,0:0|0:0,0:0:0:0:
283,268,24630,1,2,0:0:0:0:
387,211,24790,5,0,0:0:0:0:
386,333,24949,1,2,0:0:0:0:
179,271,25109,2,0,L|185:150,1,121.499996292114
185,149,25428,1,8,0:0:0:0:
228,371,25588,2,0,L|66:364,1,161.999995056153
283,267,26066,6,0,P|337:244|394:263,1,121.499996292114,2|0,0:0|0:0,0:0:0:0:
394,263,26386,1,0,0:0:0:0:
231,145,26545,1,2,0:0:0:0:
74,282,26705,2,0,L|81:106,1,161.999995056153,8|0,0:0|0:0,0:0:0:0:
233,284,27183,6,0,L|232:240,2,40.4999987640381,2|0|0,0:0|0:0|0:0,0:0:0:0:
165,104,27503,2,0,P|232:67|296:109,1,161.999995056153,8|2,0:0|0:0,0:0:0:0:
87,23,27981,1,8,0:0:0:0:
74,282,28141,2,0,L|81:106,1,161.999995056153,2|0,0:0|0:0,0:0:0:0:
88,124,28540,1,0,0:0:0:0:
88,124,28620,6,0,P|150:154|253:123,1,161.999995056153,2|0,0:0|0:0,0:0:0:0:
446,152,29098,1,2,0:0:0:0:
267,38,29258,2,0,L|348:41,1,80.9999975280763,8|0,0:0|0:0,0:0:0:0:
444,152,29577,1,0,0:0:0:0:
349,250,29737,1,2,0:0:0:0:
442,71,29896,6,0,P|448:110|444:150,1,80.9999975280763,0|2,0:0|0:0,0:0:0:0:
228,171,30215,1,0,0:0:0:0:
343,62,30375,1,0,0:0:0:0:
349,250,30535,1,8,0:0:0:0:
228,171,30694,1,2,0:0:0:0:
430,170,30854,1,0,0:0:0:0:
339,344,31013,5,2,0:0:0:0:
139,74,31492,5,2,0:0:0:0:
93,212,31652,1,0,0:0:0:0:
265,188,31811,1,8,0:0:0:0:
54,140,31971,2,0,P|13:206|48:281,1,161.999995056153,2|0,0:0|0:0,0:0:0:0:
313,268,32449,5,2,1:2:0:0:
93,212,32609,1,0,0:0:0:0:
265,188,32769,1,0,0:0:0:0:
198,344,32928,2,0,L|117:348,1,80.9999975280763,2|0,1:2|0:0,0:0:0:0:
285,73,33247,2,0,L|365:68,1,80.9999975280763,2|0,1:2|0:0,0:0:0:0:
285,73,33726,5,2,0:0:0:0:
285,73,34364,1,2,0:0:0:0:
285,73,35003,1,2,0:0:0:0:
285,73,35641,1,2,0:0:0:0:
284,156,35800,1,0,0:0:0:0:
205,180,35960,1,0,0:0:0:0:
158,113,36120,1,0,0:0:0:0:
223,270,36279,6,0,L|386:283,1,145.80000355957,2|0,0:0|0:0,0:0:0:0:
461,291,36917,1,2,0:0:0:0:
461,291,37556,1,2,0:0:0:0:
461,291,38194,1,2,0:0:0:0:
361,150,38513,1,0,0:0:0:0:
422,94,38673,1,0,0:0:0:0:
343,68,38832,6,0,L|230:75,1,97.2000023730469,2|0,0:0|0:0,0:0:0:0:
158,162,39311,1,0,0:0:0:0:
158,162,39471,2,0,L|256:156,1,97.2000023730469,2|0,0:0|0:0,0:0:0:0:
424,145,39950,1,2,0:0:0:0:
257,288,40109,5,8,0:0:0:0:
245,74,40269,1,2,0:0:0:0:
245,74,40588,1,8,0:0:0:0:
394,188,40747,1,0,0:0:0:0:
170,184,40907,1,2,0:0:0:0:
371,77,41066,1,8,0:0:0:0:
156,200,41226,1,8,0:0:0:0:
394,187,41386,6,0,L|384:326,1,133.200003251953,8|0,0:0|0:0,0:0:0:0:
308,140,41864,1,2,0:0:0:0:
248,335,42024,2,0,L|238:196,1,133.200003251953,8|0,0:0|0:0,0:0:0:0:
228,83,42503,1,0,0:0:0:0:
383,35,42662,6,0,L|469:45,1,66.6000016259766,8|0,0:0|0:0,0:0:0:0:
308,140,42981,1,2,0:0:0:0:
512,162,43141,1,2,0:0:0:0:
347,319,43300,2,0,P|341:286|343:253,1,66.6000016259766,8|0,0:0|0:0,0:0:0:0:
197,141,43620,1,0,0:0:0:0:
197,141,43699,1,0,0:0:0:0:
197,141,43779,1,0,0:0:0:0:
197,141,43859,1,0,0:0:0:0:
197,141,43939,5,8,0:0:0:0:
414,185,44098,1,0,0:0:0:0:
224,285,44258,1,2,0:0:0:0:
234,20,44417,5,8,0:0:0:0:
224,285,44737,1,8,0:0:0:0:
234,20,45056,1,8,0:0:0:0:
234,20,45375,6,0,L|274:33,3,36
261,111,45694,2,0,L|301:124,1,36
287,201,45854,6,0,P|339:217|392:211,1,108,2|0,0:0|0:0,0:0:0:0:
392,211,46173,1,0,0:0:0:0:
399,365,46332,1,0,0:0:0:0:
388,134,46492,6,0,L|380:-1,1,135,6|0,0:0|0:0,0:0:0:0:
381,0,46811,1,0,0:0:0:0:
272,179,46971,1,2,0:0:0:0:
488,112,47130,1,8,0:0:0:0:
237,78,47290,2,0,L|145:81,1,90,2|0,0:0|0:0,0:0:0:0:
299,158,47609,5,2,0:0:0:0:
16,283,47928,1,8,0:0:0:0:
299,158,48247,5,2,0:0:0:0:
250,384,48407,1,8,0:0:0:0:
162,160,48566,1,0,0:0:0:0:
391,241,48726,1,2,0:0:0:0:
240,268,48886,1,0,0:0:0:0:
432,310,49045,6,0,P|469:233|417:165,1,180,6|0,0:0|0:0,0:0:0:0:
240,268,49524,1,2,0:0:0:0:
306,70,49683,1,8,0:0:0:0:
231,298,49843,2,0,L|140:299,1,90,2|0,0:0|0:0,0:0:0:0:
391,241,50162,5,2,0:0:0:0:
129,124,50481,1,8,0:0:0:0:
391,241,50800,5,2,0:0:0:0:
317,40,50960,1,8,0:0:0:0:
464,182,51120,1,8,0:0:0:0:
254,195,51279,1,2,0:0:0:0:
471,190,51439,1,0,0:0:0:0:
471,190,51519,1,0,0:0:0:0:
470,190,51598,6,0,P|491:126|469:64,1,135,6|0,0:0|0:0,0:0:0:0:
447,57,51917,1,0,0:0:0:0:
278,153,52077,1,2,0:0:0:0:
461,209,52237,1,8,0:0:0:0:
327,36,52396,2,0,P|282:30|237:33,1,90,2|0,0:0|0:0,0:0:0:0:
226,278,52715,5,2,0:0:0:0:
237,34,53035,1,8,0:0:0:0:
226,278,53354,5,2,0:0:0:0:
345,150,53513,1,8,0:0:0:0:
146,146,53673,1,8,0:0:0:0:
409,212,53832,2,0,P|431:168|402:82,1,135,2|0,0:0|0:0,0:0:0:0:
399,69,54152,6,0,B|299:56|299:56|223:82,1,180,2|0,0:0|0:0,0:0:0:0:
226,278,54630,1,2,0:0:0:0:
345,150,54790,1,2,0:0:0:0:
146,146,54950,1,0,0:0:0:0:
368,151,55109,2,0,L|460:156,1,90,0|2,0:0|0:0,0:0:0:0:
245,302,55428,5,2,0:0:0:0:
252,103,55588,1,8,0:0:0:0:
423,348,55907,5,8,0:0:0:0:
121,173,56226,5,2,0:0:0:0:
353,149,56386,2,0,P|372:84|357:19,1,135,8|0,0:0|0:0,0:0:0:0:
332,15,56705,6,0,L|423:18,2,90,6|0|0,0:0|0:0|0:0,0:0:0:0:
174,106,57183,1,2,0:0:0:0:
355,135,57343,1,8,0:0:0:0:
184,207,57503,2,0,L|194:358,1,135,2|0,0:0|0:0,0:0:0:0:
192,341,57822,1,2,0:0:0:0:
315,164,57981,5,0,0:0:0:0:
332,339,58141,1,8,0:0:0:0:
190,194,58300,1,0,0:0:0:0:
424,225,58460,1,2,0:0:0:0:
211,330,58620,1,8,0:0:0:0:
270,57,58779,1,8,0:0:0:0:
352,326,58939,1,2,0:0:0:0:
355,135,59098,1,2,0:0:0:0:
494,296,59258,6,0,L|501:158,1,135,6|0,0:0|0:0,0:0:0:0:
501,162,59577,1,0,0:0:0:0:
364,231,59737,1,2,0:0:0:0:
339,45,59896,1,8,0:0:0:0:
284,285,60056,5,2,0:0:0:0:
339,45,60375,1,2,0:0:0:0:
114,147,60694,1,8,0:0:0:0:
114,147,61013,5,2,0:0:0:0:
330,165,61173,1,8,0:0:0:0:
330,165,61332,1,8,0:0:0:0:
197,318,61492,2,0,P|194:273|199:228,1,90
406,204,61811,6,0,P|409:160|404:115,1,90,2|0,0:0|0:0,0:0:0:0:
315,276,62130,1,2,0:0:0:0:
299,32,62290,5,8,0:0:0:0:
371,335,62609,2,0,P|307:354|249:324,1,135,2|0,0:0|0:0,0:0:0:0:
250,325,62928,1,0,0:0:0:0:
405,116,63088,5,2,0:0:0:0:
406,300,63247,1,0,0:0:0:0:
405,116,63407,1,2,0:0:0:0:
250,325,63566,6,0,P|214:270|235:209,1,135,8|0,0:0|0:0,0:0:0:0:
270,27,63886,2,0,P|305:81|284:142,1,135,2|0,0:0|0:0,0:0:0:0:
220,91,64205,1,0,0:0:0:0:
426,104,64364,6,0,L|436:294,1,180,2|0,0:0|0:0,0:0:0:0:
302,363,64843,1,0,0:0:0:0:
300,209,65003,1,2,0:0:0:0:
300,209,65322,2,0,P|233:212|165:211,1,135
145,197,65641,6,0,P|158:150|145:55,1,135,2|0,0:0|0:0,0:0:0:0:
128,55,65960,1,0,0:0:0:0:
101,298,66120,5,6,0:0:0:0:
101,298,66439,2,0,P|132:343|146:290,1,134.999995880127,2|0,0:0|0:0,0:0:0:0:
106,216,66917,6,0,L|255:204,1,136.799998330078,6|0,0:0|0:0,0:0:0:0:
106,216,67396,1,2,0:0:0:0:
179,66,67556,1,8,0:0:0:0:
255,285,67715,2,0,L|258:383,1,68.3999991650391,2|0,0:0|0:0,0:0:0:0:
358,205,68035,5,2,0:0:0:0:
358,342,68194,1,0,0:0:0:0:
358,205,68354,2,0,L|357:353,1,136.799998330078,2|0,0:0|0:0,0:0:0:0:
477,233,68832,2,0,L|473:331,1,68.3999991650391,8|0,0:0|0:0,0:0:0:0:
293,133,69152,1,0,0:0:0:0:
315,107,69231,1,0,0:0:0:0:
346,94,69311,1,0,0:0:0:0:
380,96,69391,1,0,0:0:0:0:
410,112,69471,6,0,P|439:71|437:20,1,102.599998747559,2|0,0:0|0:0,0:0:0:0:
437,20,69790,1,0,0:0:0:0:
258,19,69949,1,2,0:0:0:0:
361,172,70109,1,8,0:0:0:0:
273,34,70269,1,2,0:0:0:0:
286,252,70428,5,0,0:0:0:0:
444,248,70588,1,2,0:0:0:0:
286,252,70747,1,0,0:0:0:0:
444,248,70907,2,0,P|470:203|472:153,1,102.599998747559,2|0,0:0|0:0,0:0:0:0:
461,127,71226,1,2,0:0:0:0:
393,340,71386,1,8,0:0:0:0:
361,172,71545,1,2,0:0:0:0:
286,252,71705,2,0,L|154:262,1,102.599998747559
148,261,72024,6,0,P|140:227|142:193,1,68.3999991650391,2|0,0:0|0:0,0:0:0:0:
203,97,72343,1,0,0:0:0:0:
51,147,72503,1,2,0:0:0:0:
148,261,72662,1,8,0:0:0:0:
51,116,72822,1,2,0:0:0:0:
223,62,72981,5,0,0:0:0:0:
256,229,73141,1,2,0:0:0:0:
223,62,73300,1,0,0:0:0:0:
255,228,73460,2,0,P|304:243|354:234,1,102.599998747559,2|0,0:0|0:0,0:0:0:0:
365,212,73779,1,2,0:0:0:0:
453,95,73939,1,8,0:0:0:0:
313,107,74098,1,0,0:0:0:0:
475,113,74258,2,2,L|483:268,1,136.799998330078
256,192,74657,12,10,76492,0:0:0:0:
383,219,76971,6,0,L|375:178,1,40.4999987640381
355,76,77130,1,2,0:0:0:0:
101,212,77449,5,0,0:0:0:0:
197,158,77609,1,2,0:0:0:0:
98,50,77769,2,0,L|101:212,1,161.999995056153,8|0,0:0|0:0,0:0:0:0:
291,209,78247,5,2,0:0:0:0:
197,158,78407,1,0,0:0:0:0:
195,366,78566,1,2,0:0:0:0:
288,315,78726,2,0,P|348:303|406:316,1,121.499996292114
406,316,79045,1,8,0:0:0:0:
469,212,79205,2,0,L|461:47,1,161.999995056153
233,182,79683,6,0,P|306:213|383:190,1,161.999995056153,2|0,0:0|0:0,0:0:0:0:
211,71,80162,1,2,0:0:0:0:
159,223,80322,2,0,L|167:384,1,161.999995056153,8|0,0:0|0:0,0:0:0:0:
66,162,80800,1,2,0:0:0:0:
7,331,80960,5,0,0:0:0:0:
98,161,81120,2,0,L|89:0,1,161.999995056153,8|2,0:0|0:0,0:0:0:0:
66,162,81598,1,8,0:0:0:0:
184,90,81758,2,0,P|263:72|344:79,1,161.999995056153,2|0,0:0|0:0,0:0:0:0:
350,86,82157,1,0,0:0:0:0:
350,86,82237,6,0,L|346:262,1,161.999995056153,2|0,0:0|0:0,0:0:0:0:
142,248,82715,1,2,0:0:0:0:
271,357,82875,1,8,0:0:0:0:
271,357,83194,1,0,0:0:0:0:
239,180,83354,1,2,0:0:0:0:
125,276,83513,5,0,0:0:0:0:
325,268,83673,1,2,0:0:0:0:
125,276,83832,2,0,P|106:228|122:154,1,121.499996292114
118,160,84152,1,8,0:0:0:0:
223,353,84311,1,2,0:0:0:0:
248,103,84471,1,0,0:0:0:0:
382,344,84630,6,0,L|368:101,1,242.999992584229,2|0,0:0|0:0,0:0:0:0:
46,252,85428,1,8,0:0:0:0:
115,178,85588,2,0,L|104:0,1,161.999995056153,2|0,0:0|0:0,0:0:0:0:
201,125,86066,5,0,0:0:0:0:
268,35,86226,1,2,0:0:0:0:
346,171,86386,1,0,0:0:0:0:
273,5,86545,1,0,0:0:0:0:
272,5,86864,2,0,P|267:82|319:21,1,202.499993820191,2|0,0:0|0:0,0:0:0:0:
348,140,87343,6,0,P|284:161|195:117,1,161.999995056153,2|0,0:0|0:0,0:0:0:0:
424,208,87822,1,2,0:0:0:0:
219,271,87981,2,0,P|283:250|372:294,1,161.999995056153,8|0,0:0|0:0,0:0:0:0:
121,374,88460,5,2,0:0:0:0:
144,198,88620,1,0,0:0:0:0:
121,374,88779,1,2,0:0:0:0:
203,135,88939,2,0,P|149:110|93:128,1,121.499996292114
79,145,89258,1,8,0:0:0:0:
259,217,89417,2,0,P|301:151|281:74,1,161.999995056153
203,135,89896,5,2,0:0:0:0:
461,266,90215,5,0,0:0:0:0:
437,122,90375,1,2,0:0:0:0:
368,338,90535,2,0,L|206:328,1,161.999995056153,8|0,0:0|0:0,0:0:0:0:
202,134,91013,1,2,0:0:0:0:
286,243,91173,5,0,0:0:0:0:
33,227,91332,2,0,L|194:236,1,161.999995056153,8|0,0:0|0:0,0:0:0:0:
262,32,91811,1,8,0:0:0:0:
231,146,91971,2,0,P|309:162|389:148,1,161.999995056153,2|0,0:0|0:0,0:0:0:0:
473,88,92370,1,0,0:0:0:0:
473,88,92449,6,0,L|476:251,1,161.999995056153,2|0,0:0|0:0,0:0:0:0:
284,288,92928,1,2,0:0:0:0:
360,116,93088,1,8,0:0:0:0:
74,216,93407,5,0,0:0:0:0:
202,108,93566,1,2,0:0:0:0:
170,295,93726,2,0,P|158:258|166:218,1,80.9999975280763,0|2,0:0|0:0,0:0:0:0:
284,288,94045,1,0,0:0:0:0:
164,201,94205,1,0,0:0:0:0:
221,372,94364,1,8,0:0:0:0:
274,163,94524,1,2,0:0:0:0:
384,346,94683,1,0,0:0:0:0:
258,270,94843,5,2,0:0:0:0:
444,60,95322,5,2,0:0:0:0:
259,127,95481,1,0,0:0:0:0:
400,267,95641,1,8,0:0:0:0:
313,69,95800,2,0,P|238:48|183:103,1,161.999995056153,2|2,0:0|0:0,0:0:0:0:
191,321,96279,5,2,1:2:0:0:
269,168,96439,1,2,0:0:0:0:
77,191,96598,1,0,0:0:0:0:
400,267,96758,2,0,L|400:151,1,80.9999975280763,2|0,1:2|0:0,0:0:0:0:
183,101,97077,2,0,L|183:217,1,80.9999975280763,2|0,1:2|0:0,0:0:0:0:
183,101,97556,5,2,0:0:0:0:
183,101,98194,1,2,0:0:0:0:
183,101,98832,1,2,0:0:0:0:
183,101,99471,1,2,0:0:0:0:
254,142,99630,1,0,0:0:0:0:
327,103,99790,1,0,0:0:0:0:
395,149,99949,1,0,0:0:0:0:
254,142,100109,6,0,L|258:290,1,145.80000355957,2|0,0:0|0:0,0:0:0:0:
261,377,100747,1,2,0:0:0:0:
261,377,101386,1,2,0:0:0:0:
261,377,102024,1,2,0:0:0:0:
112,194,102343,1,0,0:0:0:0:
69,265,102503,1,0,0:0:0:0:
29,192,102662,6,0,L|41:84,1,97.2000023730469,2|0,0:0|0:0,0:0:0:0:
208,106,103141,1,0,0:0:0:0:
208,106,103300,2,0,L|196:214,1,97.2000023730469,2|0,0:0|0:0,0:0:0:0:
184,305,103779,1,0,0:0:0:0:
349,174,103939,5,8,0:0:0:0:
112,194,104098,1,2,0:0:0:0:
112,194,104417,1,8,0:0:0:0:
252,35,104577,1,0,0:0:0:0:
282,259,104737,1,2,0:0:0:0:
168,110,104896,1,8,0:0:0:0:
355,91,105056,1,8,0:0:0:0:
189,263,105215,6,0,L|196:117,1,133.200003251953,8|0,0:0|0:0,0:0:0:0:
286,232,105694,1,2,0:0:0:0:
376,129,105854,2,0,L|383:263,1,133.200003251953,8|2,0:0|0:0,0:0:0:0:
282,129,106332,1,0,0:0:0:0:
430,53,106492,6,0,P|462:47|495:54,1,66.6000016259766,8|0,0:0|0:0,0:0:0:0:
357,279,106811,1,2,0:0:0:0:
296,96,106971,1,2,0:0:0:0:
483,131,107130,2,0,L|484:208,1,66.6000016259766,8|0,0:0|0:0,0:0:0:0:
259,354,107449,1,0,0:0:0:0:
253,321,107528,1,0,0:0:0:0:
251,287,107608,1,0,0:0:0:0:
253,254,107688,1,0,0:0:0:0:
259,221,107769,5,8,0:0:0:0:
392,121,107928,1,0,0:0:0:0:
158,194,108088,1,2,0:0:0:0:
397,286,108247,5,8,0:0:0:0:
158,194,108566,1,8,0:0:0:0:
397,286,108886,1,8,0:0:0:0:
397,286,109205,6,0,L|401:239,3,36
320,210,109524,2,0,L|324:163,1,36
243,134,109683,6,0,L|231:270,1,108,2|0,0:0|0:0,0:0:0:0:
233,241,110003,1,0,0:0:0:0:
324,59,110162,1,0,0:0:0:0:
324,59,110242,1,0,0:0:0:0:
324,59,110322,6,0,L|189:46,1,135,6|0,0:0|0:0,0:0:0:0:
168,43,110641,1,0,0:0:0:0:
324,154,110800,1,2,0:0:0:0:
116,173,110960,1,8,0:0:0:0:
351,157,111120,2,0,L|444:148,1,90,2|0,0:0|0:0,0:0:0:0:
297,43,111439,5,2,0:0:0:0:
261,293,111758,1,8,0:0:0:0:
297,43,112077,5,2,0:0:0:0:
469,150,112237,1,8,0:0:0:0:
251,180,112396,1,0,0:0:0:0:
410,35,112556,1,2,0:0:0:0:
410,35,112715,1,0,0:0:0:0:
313,244,112875,6,0,P|229:265|166:206,1,180,6|0,0:0|0:0,0:0:0:0:
297,43,113354,1,2,0:0:0:0:
88,36,113513,1,8,0:0:0:0:
314,65,113673,2,0,L|314:155,1,90,2|0,0:0|0:0,0:0:0:0:
308,366,113992,5,2,0:0:0:0:
38,265,114311,1,8,0:0:0:0:
308,366,114630,5,2,0:0:0:0:
243,170,114790,1,8,0:0:0:0:
165,291,114949,1,0,0:0:0:0:
386,225,115109,1,2,0:0:0:0:
168,110,115269,1,0,0:0:0:0:
168,110,115348,1,0,0:0:0:0:
168,109,115428,6,0,P|148:174|171:236,1,135,6|0,0:0|0:0,0:0:0:0:
194,254,115747,1,0,0:0:0:0:
55,126,115907,1,2,0:0:0:0:
317,108,116066,1,8,0:0:0:0:
131,306,116226,2,0,P|114:264|119:220,1,90,2|0,0:0|0:0,0:0:0:0:
346,214,116545,5,2,0:0:0:0:
55,126,116864,1,8,0:0:0:0:
346,214,117183,5,0,0:0:0:0:
224,65,117343,1,8,0:0:0:0:
194,254,117503,1,8,0:0:0:0:
239,41,117662,2,0,L|103:49,1,135,2|0,0:0|0:0,0:0:0:0:
71,55,117981,6,0,P|32:133|63:216,1,180,2|0,0:0|0:0,0:0:0:0:
282,211,118460,1,2,0:0:0:0:
140,139,118620,1,2,0:0:0:0:
149,298,118779,1,0,0:0:0:0:
282,211,118939,2,0,L|277:121,1,90,0|2,0:0|0:0,0:0:0:0:
165,269,119258,5,2,0:0:0:0:
376,259,119417,1,8,0:0:0:0:
272,0,119737,5,8,0:0:0:0:
149,298,120056,5,2,0:0:0:0:
282,211,120215,2,0,L|275:76,1,135,8|0,0:0|0:0,0:0:0:0:
270,37,120535,6,0,P|314:29|362:33,2,90,6|0|0,0:0|0:0|0:0,0:0:0:0:
459,75,121013,1,2,0:0:0:0:
300,189,121173,1,8,0:0:0:0:
475,100,121332,2,0,L|476:252,1,135,2|0,0:0|0:0,0:0:0:0:
488,259,121652,1,2,0:0:0:0:
268,166,121811,5,0,0:0:0:0:
290,366,121971,1,8,0:0:0:0:
259,135,122130,1,0,0:0:0:0:
97,276,122290,1,2,0:0:0:0:
303,267,122449,1,8,0:0:0:0:
176,87,122609,1,8,0:0:0:0:
192,317,122769,1,2,0:0:0:0:
268,166,122928,1,2,0:0:0:0:
268,166,123008,1,0,0:0:0:0:
268,166,123088,6,0,P|343:148|407:173,1,135,6|0,0:0|0:0,0:0:0:0:
412,187,123407,1,0,0:0:0:0:
206,284,123566,1,2,0:0:0:0:
257,58,123726,1,8,0:0:0:0:
329,283,123886,5,2,0:0:0:0:
57,149,124205,1,2,0:0:0:0:
350,71,124524,1,8,0:0:0:0:
350,71,124843,5,2,0:0:0:0:
208,174,125003,1,8,0:0:0:0:
208,174,125162,1,8,0:0:0:0:
361,243,125322,2,0,L|463:252,1,90,2|0,0:0|0:0,0:0:0:0:
208,174,125641,6,0,L|106:165,1,90,2|0,0:0|0:0,0:0:0:0:
257,289,125960,1,2,0:0:0:0:
255,45,126120,5,8,0:0:0:0:
190,343,126439,2,0,P|247:374|311:355,1,135,2|0,0:0|0:0,0:0:0:0:
325,334,126758,1,0,0:0:0:0:
182,145,126917,5,2,0:0:0:0:
159,323,127077,1,0,0:0:0:0:
182,145,127237,1,2,0:0:0:0:
325,334,127396,6,0,L|332:192,1,135,10|0,0:0|0:0,0:0:0:0:
213,0,127715,2,0,L|206:142,1,135,10|0,0:0|0:0,0:0:0:0:
298,107,128035,1,0,0:0:0:0:
120,170,128194,6,0,P|85:251|109:336,1,180,2|0,0:0|0:0,0:0:0:0:
283,338,128673,1,0,0:0:0:0:
206,258,128832,1,2,0:0:0:0:
206,258,129152,2,0,L|376:248,1,135
321,305,129471,6,0,L|311:135,1,135,2|0,0:0|0:0,0:0:0:0:
311,137,129790,1,0,0:0:0:0:
110,192,129949,5,6,0:0:0:0:
110,192,130269,2,0,L|118:69,1,107.999996704102,2|0,0:0|0:0,0:0:0:0:
128,0,130747,5,6,0:0:0:0:
256,192,130827,12,2,133300,0:0:0:0:
169,314,135215,5,2,0:0:0:0:
334,207,135535,1,0,0:0:0:0:
173,96,135854,6,0,L|375:88,1,194.400004746094,2|2,0:0|0:0,0:0:0:0:
199,187,136811,2,0,L|131:193,1,48.6000011865235,2|0,0:3|0:0,0:0:0:0:
195,105,137130,6,0,L|397:97,1,194.400004746094,2|2,0:0|0:0,0:0:0:0:
199,187,138088,2,0,L|131:193,1,48.6000011865235,2|0,0:3|0:0,0:0:0:0:
204,272,138407,6,0,P|214:308|193:373,1,97.2000023730469,2|0,0:0|0:0,0:0:0:0:
116,313,138886,1,0,0:0:0:0:
36,367,139045,1,2,0:0:0:0:
36,367,139364,6,0,L|38:269,1,97.2000023730469,0|2,0:0|0:0,0:0:0:0:
42,172,139843,1,0,0:0:0:0:
42,172,140003,1,0,0:0:0:0:
156,234,140162,6,0,P|202:246|249:236,1,97.2000023730469,2|0,0:3|0:0,0:0:0:0:
319,308,140641,1,0,0:0:0:0:
323,176,140800,1,0,0:0:0:0:
319,339,140960,5,6,0:0:0:0:
225,67,141279,5,0,0:0:0:0:
223,239,141439,1,2,0:0:0:0:
226,39,141598,2,0,P|163:22|100:42,1,133.200003251953,8|0,0:0|0:0,0:0:0:0:
117,228,142077,5,2,0:0:0:0:
383,307,142396,5,2,0:0:0:0:
310,207,142556,1,0,0:0:0:0:
278,380,142715,1,0,0:0:0:0:
365,154,142875,2,0,P|323:131|237:179,1,133.200003251953,8|0,0:0|0:0,0:0:0:0:
487,220,143354,1,0,0:0:0:0:
487,220,143433,1,0,0:0:0:0:
487,220,143513,6,0,L|489:80,1,133.200003251953,2|0,0:0|0:0,0:0:0:0:
383,307,143992,1,2,0:0:0:0:
357,76,144152,1,8,0:0:0:0:
357,75,144471,6,0,P|295:98|233:78,1,133.200003251953
359,242,144949,1,8,0:0:0:0:
165,178,145109,1,0,0:0:0:0:
253,338,145269,1,2,0:0:0:0:
229,50,145428,1,8,0:0:0:0:
146,200,145588,1,2,0:0:0:0:
335,154,145747,1,0,0:0:0:0:
335,154,145907,1,0,0:0:0:0:
124,222,146066,6,0,L|138:64,1,133.200003251953,2|0,0:0|0:0,0:0:0:0:
57,304,146545,1,2,0:0:0:0:
222,304,146705,2,0,L|236:146,1,133.200003251953,8|0,0:0|0:0,0:0:0:0:
374,323,147183,6,0,P|341:328|307:327,1,66.6000016259766,2|0,0:0|0:0,0:0:0:0:
193,87,147503,2,0,P|225:81|259:82,1,66.6000016259766,2|0,0:0|0:0,0:0:0:0:
174,224,147822,1,0,0:0:0:0:
354,102,147981,2,0,L|365:234,1,133.200003251953,8|0,0:0|0:0,0:0:0:0:
241,178,148460,1,0,0:0:0:0:
241,178,148540,1,0,0:0:0:0:
241,178,148620,6,0,P|226:113|242:49,1,133.200003251953,2|0,0:0|0:0,0:0:0:0:
166,243,149098,1,2,0:0:0:0:
61,91,149258,1,8,0:0:0:0:
61,91,149577,6,0,L|51:235,1,133.200003251953,2|0,0:0|0:0,0:0:0:0:
243,209,150056,1,8,0:0:0:0:
137,364,150215,1,0,0:0:0:0:
163,153,150375,1,2,0:0:0:0:
282,340,150535,1,8,0:0:0:0:
268,186,150694,1,0,0:0:0:0:
136,265,150854,1,0,0:0:0:0:
341,264,151013,1,0,0:0:0:0:
341,264,151093,1,0,0:0:0:0:
341,264,151173,6,0,P|366:225|362:126,1,133.200003251953,2|0,0:0|0:0,0:0:0:0:
250,329,151652,1,2,0:0:0:0:
262,144,151811,2,0,L|139:154,1,99.9000024389649,8|0,0:0|0:0,0:0:0:0:
138,157,152130,1,2,0:0:0:0:
262,57,152290,1,0,0:0:0:0:
191,240,152449,5,0,0:0:0:0:
59,142,152609,2,0,P|84:97|163:81,1,133.200003251953,8|2,0:0|0:0,0:0:0:0:
111,313,153088,1,8,0:0:0:0:
292,249,153247,2,0,L|386:256,1,66.6000016259766,2|0,0:0|0:0,0:0:0:0:
191,240,153566,1,0,0:0:0:0:
191,240,153646,1,0,0:0:0:0:
191,240,153726,6,0,P|162:173|188:95,1,133.200003251953,2|0,0:0|0:0,0:0:0:0:
353,117,154205,1,2,0:0:0:0:
193,90,154364,2,0,L|355:99,1,133.200003251953,8|2,0:0|0:0,0:0:0:0:
358,253,154843,6,0,P|324:255|292:249,1,66.6000016259766
481,169,155162,1,8,0:0:0:0:
396,337,155322,1,0,0:0:0:0:
398,171,155481,1,2,0:0:0:0:
512,256,155641,1,8,0:0:0:0:
358,253,155800,1,0,0:0:0:0:
439,93,155960,1,0,0:0:0:0:
260,102,156120,1,2,0:0:0:0:
472,89,156279,6,0,L|332:96,1,133.200003251953,8|0,0:0|0:0,0:0:0:0:
508,167,156758,1,2,0:0:0:0:
343,235,156917,2,0,L|477:242,1,133.200003251953,8|0,0:0|0:0,0:0:0:0:
271,170,157396,1,0,0:0:0:0:
255,332,157556,6,0,P|287:340|320:339,1,66.6000016259766,8|0,0:0|0:0,0:0:0:0:
251,147,157875,1,2,0:0:0:0:
140,290,158035,1,2,0:0:0:0:
136,105,158194,2,0,P|103:96|70:97,1,66.6000016259766,8|0,0:0|0:0,0:0:0:0:
306,219,158513,1,2,0:0:0:0:
329,194,158592,1,0,0:0:0:0:
342,164,158672,1,0,0:0:0:0:
342,131,158752,1,0,0:0:0:0:
330,100,158832,5,8,0:0:0:0:
123,194,158992,1,0,0:0:0:0:
191,16,159152,1,2,0:0:0:0:
189,263,159311,6,0,P|140:287|59:267,2,133.200003251953,8|8|8,0:0|0:0|0:0,0:0:0:0:
208,37,160269,6,0,L|202:73,3,36
283,100,160588,2,0,L|277:136,1,36
357,162,160747,6,0,P|410:175|463:167,1,108,2|0,0:0|0:0,0:0:0:0:
471,144,161066,1,0,0:0:0:0:
283,100,161226,1,0,0:0:0:0:
347,278,161386,6,0,P|274:282|188:284,1,145.80000355957
283,100,162024,1,2,0:0:0:0:
471,144,162183,5,2,0:0:0:0:
471,144,162503,5,6,0:0:0:0:
287,0,162822,1,8,0:0:0:0:
217,256,163141,5,2,0:0:0:0:
451,181,163300,1,8,0:0:0:0:
227,73,163460,1,8,0:0:0:0:
341,296,163620,1,2,0:0:0:0:
407,62,163779,1,0,0:0:0:0:
407,62,163859,1,0,0:0:0:0:
407,62,163939,6,0,L|196:75,1,180,6|0,0:0|0:0,0:0:0:0:
33,85,164417,1,2,0:0:0:0:
219,270,164577,1,8,0:0:0:0:
138,117,164737,2,0,P|127:73|137:30,1,90,2|0,0:0|0:0,0:0:0:0:
32,237,165056,5,2,0:0:0:0:
336,221,165375,1,8,0:0:0:0:
32,237,165694,5,2,0:0:0:0:
227,73,165854,1,8,0:0:0:0:
207,321,166013,1,8,0:0:0:0:
218,39,166173,1,2,0:0:0:0:
408,173,166332,1,0,0:0:0:0:
408,173,166412,1,0,0:0:0:0:
407,172,166492,6,0,P|418:238|381:298,1,135,6|0,0:0|0:0,0:0:0:0:
385,294,166811,1,0,0:0:0:0:
301,124,166971,1,2,0:0:0:0:
207,321,167130,1,8,0:0:0:0:
253,59,167290,2,0,P|294:44|338:53,1,90,2|0,0:0|0:0,0:0:0:0:
165,209,167609,5,2,0:0:0:0:
502,187,167928,1,8,0:0:0:0:
165,209,168247,5,2,0:0:0:0:
312,95,168407,1,8,0:0:0:0:
227,282,168566,1,8,0:0:0:0:
177,83,168726,2,0,L|311:94,1,135,2|0,0:0|0:0,0:0:0:0:
345,98,169045,6,0,P|355:186|323:269,1,180,2|0,0:0|0:0,0:0:0:0:
143,229,169524,1,2,0:0:0:0:
197,112,169683,1,2,0:0:0:0:
227,282,169843,1,0,0:0:0:0:
59,176,170003,2,0,L|64:86,1,90,0|2,0:0|0:0,0:0:0:0:
116,315,170322,5,2,0:0:0:0:
346,305,170481,1,8,0:0:0:0:
59,176,170800,5,8,0:0:0:0:
451,234,171120,5,2,0:0:0:0:
346,304,171279,2,0,L|355:170,1,135,8|0,0:0|0:0,0:0:0:0:
335,145,171598,6,0,L|341:55,2,90,6|0|0,0:0|0:0|0:0,0:0:0:0:
227,216,172077,1,2,0:0:0:0:
183,38,172237,1,8,0:0:0:0:
155,249,172396,2,0,P|193:290|284:268,1,135,2|0,0:0|0:0,0:0:0:0:
285,271,172715,1,2,0:0:0:0:
76,152,172875,5,0,0:0:0:0:
77,363,173035,1,8,0:0:0:0:
285,271,173194,1,0,0:0:0:0:
19,262,173354,1,2,0:0:0:0:
210,104,173513,1,8,0:0:0:0:
224,346,173673,1,8,0:0:0:0:
98,158,173832,1,2,0:0:0:0:
107,345,173992,1,2,0:0:0:0:
281,256,174152,6,0,L|291:122,1,135,6|0,0:0|0:0,0:0:0:0:
291,121,174471,1,0,0:0:0:0:
187,253,174630,1,2,0:0:0:0:
122,58,174790,1,8,0:0:0:0:
320,100,174949,5,2,0:0:0:0:
0,142,175269,1,2,0:0:0:0:
151,332,175588,5,8,0:0:0:0:
151,332,175907,1,2,0:0:0:0:
301,157,176066,1,8,0:0:0:0:
80,204,176226,1,8,0:0:0:0:
284,307,176386,1,2,0:0:0:0:
181,103,176545,1,0,0:0:0:0:
181,103,176625,1,0,0:0:0:0:
180,103,176705,6,0,P|175:147|179:192,1,90,6|0,0:0|0:0,0:0:0:0:
304,36,177024,1,0,0:0:0:0:
284,307,177183,5,8,0:0:0:0:
304,36,177503,2,0,L|308:200,1,135,2|0,0:0|0:0,0:0:0:0:
310,195,177822,1,0,0:0:0:0:
442,53,177981,5,2,0:0:0:0:
454,222,178141,1,0,0:0:0:0:
442,53,178300,1,2,0:0:0:0:
384,308,178460,2,0,P|442:330|521:306,1,135,10|0,0:0|0:0,0:0:0:0:
378,136,178779,2,0,P|320:114|241:138,1,135,10|0,0:0|0:0,0:0:0:0:
232,165,179098,1,0,0:0:0:0:
160,383,179258,6,0,L|154:203,1,180,2|0,0:0|0:0,0:0:0:0:
150,96,179737,1,0,0:0:0:0:
62,157,179896,1,2,0:0:0:0:
311,195,180215,2,0,L|306:329,1,135
305,357,180535,6,0,P|238:369|173:353,1,135,2|0,0:0|0:0,0:0:0:0:
153,328,180854,1,0,0:0:0:0:
150,96,181013,6,0,P|106:88|63:98,1,90,10|0,0:0|0:0,0:0:0:0:
228,185,181332,2,0,P|271:192|314:182,1,90,10|2,0:0|0:0,0:0:0:0:
109,211,181652,1,8,0:0:0:0:
241,370,181811,6,0,L|233:280,1,90,6|0,0:0|0:0,0:0:0:0:
209,57,182130,1,2,0:0:0:0:
109,211,182290,5,8,0:0:0:0:
372,240,182609,2,0,P|394:177|366:115,1,135,2|0,0:0|0:0,0:0:0:0:
339,108,182928,1,0,0:0:0:0:
281,330,183088,5,2,0:0:0:0:
509,322,183247,1,0,0:0:0:0:
281,330,183407,1,2,0:0:0:0:
369,115,183566,6,0,L|220:122,1,135,10|0,0:0|0:0,0:0:0:0:
125,219,183886,2,0,L|274:226,1,135,10|0,0:0|0:0,0:0:0:0:
197,124,184205,1,0,0:0:0:0:
280,330,184364,6,0,P|353:279|359:191,1,180,2|0,0:0|0:0,0:0:0:0:
275,97,184843,1,0,0:0:0:0:
259,225,185003,1,2,0:0:0:0:
259,225,185322,2,0,L|118:230,1,135
83,234,185641,6,0,P|73:167|86:101,1,135,2|0,0:0|0:0,0:0:0:0:
105,82,185960,1,0,0:0:0:0:
252,193,186120,5,6,0:0:0:0:
252,193,186439,2,0,P|248:234|231:197,1,112.5,2|0,0:0|0:0,0:0:0:0:
258,103,186917,6,0,L|403:113,1,140.400004713135,6|0,0:0|0:0,0:0:0:0:
211,200,187396,1,2,0:0:0:0:
239,2,187556,1,8,0:0:0:0:
189,221,187715,2,0,L|52:227,1,105.300003534851,2|0,0:0|0:0,0:0:0:0:
53,226,188035,1,2,0:0:0:0:
53,226,188673,5,2,0:0:0:0:
289,220,188832,1,8,0:0:0:0:
53,226,188992,2,0,L|48:85,1,140.400004713135,2|0,0:0|0:0,0:0:0:0:
193,216,189470,6,0,L|48:226,1,140.400004713135,2|0,0:0|0:0,0:0:0:0:
240,312,189949,1,2,0:0:0:0:
212,115,190109,1,8,0:0:0:0:
262,334,190268,2,0,L|399:340,1,105.300003534851,2|0,0:0|0:0,0:0:0:0:
398,339,190588,1,2,0:0:0:0:
193,216,190907,1,2,0:0:0:0:
398,339,191226,5,2,0:0:0:0:
162,333,191385,1,8,0:0:0:0:
398,339,191545,2,0,L|402:198,1,140.400004713135,2|0,0:0|0:0,0:0:0:0:
297,237,191944,1,0,0:0:0:0:
297,237,192024,6,0,L|293:96,1,140.400004713135,2|0,0:0|0:0,0:0:0:0:
194,214,192503,1,2,0:0:0:0:
151,33,192662,1,8,0:0:0:0:
117,312,192822,5,2,0:0:0:0:
419,189,193141,1,2,0:0:0:0:
118,44,193460,1,2,0:0:0:0:
273,313,193779,5,2,0:0:0:0:
121,193,193939,1,8,0:0:0:0:
309,151,194098,2,0,L|301:10,1,140.400004713135,2|0,0:0|0:0,0:0:0:0:
120,167,194577,6,0,P|179:179|235:162,1,105.300003534851,2|0,0:0|0:0,0:0:0:0:
230,140,194896,2,0,L|225:67,1,70.2000023565675
388,168,195215,2,0,L|393:241,1,70.2000023565675,2|0,0:0|0:0,0:0:0:0:
275,255,195535,1,0,0:0:0:0:
275,255,195694,1,0,0:0:0:0:
72,168,195854,5,2,0:0:0:0:
72,168,196173,2,0,L|67:241,1,70.2000023565675
230,140,196492,2,0,L|235:67,1,70.2000023565675,2|0,0:0|0:0,0:0:0:0:
117,53,196812,1,0,0:0:0:0:
117,53,196971,1,0,0:0:0:0:
230,140,197130,6,0,P|289:152|345:135,1,105.300003534851,2|0,0:0|0:0,0:0:0:0:
340,113,197449,2,0,L|335:40,1,70.2000023565675
498,141,197768,2,0,L|503:214,1,70.2000023565675,2|0,0:0|0:0,0:0:0:0:
385,228,198088,1,0,0:0:0:0:
385,228,198247,1,0,0:0:0:0:
182,141,198407,5,2,0:0:0:0:
182,141,198726,2,0,L|177:214,1,70.2000023565675
318,81,199045,1,8,0:0:0:0:
299,333,199205,2,0,L|309:193,1,140.400004713135,2|0,0:0|0:0,0:0:0:0:
318,81,199683,5,2,0:0:0:0:
256,192,199763,12,0,204790,0:0:0:0:
