osu file format v14

[General]
AudioFilename: listentomynewsongcalledleftbehindonsoundcloud.mp3
AudioLeadIn: 2000
PreviewTime: 46084
Countdown: 0
SampleSet: Soft
StackLeniency: 0.4
Mode: 0
LetterboxInBreaks: 0
WidescreenStoryboard: 1

[Editor]
DistanceSpacing: 1
BeatDivisor: 4
GridSize: 16
TimelineZoom: 1.4

[Metadata]
Title:Oshiete
TitleUnicode:オシエテ
Artist:Dual & Dorothy starring Taneda Risa, Sakura Ayane
ArtistUnicode:デュアル&ドロシー starring 種田梨沙、佐倉綾音
Creator:VINXIS
Version:Normal
Source:ガラスの花と壊す世界
Tags:ENA☆ 横山克 Yokoyama Masaru やしきん yashikin glass no hana to kowasu sekai garakowa restore the world vitreous flower destroy garakowa CelsiusLK Kalibe
BeatmapID:969352
BeatmapSetID:451644

[Difficulty]
HPDrainRate:5
CircleSize:3
OverallDifficulty:5
ApproachRate:5
SliderMultiplier:1.1
SliderTickRate:1

[Events]
//Background and Video events
0,0,"ihatekantoku.jpg",0,0
//Break Periods
2,67117,73128
2,130947,139760
//Storyboard Layer 0 (Background)
//Storyboard Layer 1 (Fail)
//Storyboard Layer 2 (Pass)
//Storyboard Layer 3 (Foreground)
//Storyboard Sound Samples

[TimingPoints]
535,319.148936170213,4,2,1,60,1,0
1173,-100,4,2,1,20,0,0
1652,-100,4,2,1,60,0,0
1811,-100,4,2,1,65,0,0
2769,-100,4,2,1,70,0,0
7077,-100,4,2,1,40,0,0
7396,-100,4,2,1,70,0,0
33726,-100,4,2,1,40,0,0
41386,-100,4,2,1,65,0,0
45375,-100,4,2,1,70,0,0
46492,-100,4,2,1,70,0,1
54790,-100,4,2,0,70,0,1
54949,-100,4,2,1,70,0,1
66917,-100,4,2,1,70,0,0
97556,-100,4,2,1,40,0,0
105215,-100,4,2,1,65,0,0
109205,-100,4,2,1,70,0,0
110322,-100,4,2,1,70,0,1
118620,-100,4,2,0,70,0,1
118779,-100,4,2,1,70,0,1
130747,-100,4,2,1,70,0,0
135215,-100,4,2,1,40,0,0
140960,-100,4,2,1,65,0,0
160269,-100,4,2,1,70,0,0
161386,-100,4,2,1,40,0,0
162024,-100,4,2,1,70,0,0
162503,-100,4,2,1,70,0,1
169683,-100,4,2,0,70,0,1
169843,-100,4,2,1,70,0,1
186917,-100,4,2,1,70,0,0
204790,-100,4,2,1,5,0,0

[Colours]
Combo1 : 255,255,117
Combo2 : 170,208,255
Combo3 : 255,145,200
Combo4 : 107,129,184

[HitObjects]
259,287,1811,6,0,P|338:309|420:285,2,165,8|8|8,0:0|0:0|0:0,0:0:0:0:
211,258,2928,1,0,0:0:0:0:
170,220,3088,6,0,L|181:0,1,220,6|8,0:0|0:0,0:0:0:0:
180,0,4205,1,2,0:0:0:0:
274,198,4843,2,0,P|355:207|433:182,1,165,0|0,0:0|0:0,0:0:0:0:
461,135,5481,1,0,0:0:0:0:
488,87,5641,6,0,L|495:316,1,220,2|8,0:0|0:0,0:0:0:0:
494,306,6758,1,2,0:0:0:0:
377,119,7396,2,0,P|296:102|215:115,1,165,0|0,0:0|0:0,0:0:0:0:
105,111,8194,6,0,L|95:343,1,220,2|8,0:0|0:0,0:0:0:0:
97,384,8992,1,2,0:0:0:0:
192,329,9311,2,0,L|316:341,1,110,2|2,0:0|0:0,0:0:0:0:
411,349,9949,2,0,P|424:311|412:237,1,110,2|2,0:0|0:0,0:0:0:0:
256,192,10747,12,8,11864,0:0:0:0:
232,150,13300,6,0,P|334:182|434:141,1,220,2|8,0:0|0:0,0:0:0:0:
269,287,14577,2,0,P|166:254|66:295,1,220,0|8,0:0|0:0,0:0:0:0:
130,84,15854,5,2,0:0:0:0:
348,104,16492,1,8,0:0:0:0:
471,286,17130,2,0,L|455:58,1,220,0|8,0:0|0:0,0:0:0:0:
455,66,17928,1,2,0:0:0:0:
371,208,18407,6,0,P|265:211|188:135,1,220,2|8,0:0|0:0,0:0:0:0:
56,311,19683,2,0,P|162:307|239:383,1,220,0|8,0:0|0:0,0:0:0:0:
273,221,20800,6,0,B|-1:200,1,275,2|8,0:0|0:0,0:0:0:0:
108,74,22237,6,0,L|166:72,1,55,0|2,0:0|0:0,0:0:0:0:
382,57,23035,1,2,0:0:0:0:
501,164,23513,6,0,L|496:389,1,220,2|8,0:0|0:0,0:0:0:0:
281,332,24790,2,0,L|276:112,1,220,0|8,0:0|0:0,0:0:0:0:
63,169,26066,5,2,0:0:0:0:
168,362,26705,1,8,0:0:0:0:
255,160,27343,2,0,P|327:130|431:161,1,165,0|2,0:0|0:0,0:0:0:0:
409,146,28141,1,2,0:0:0:0:
342,297,28620,6,0,L|114:297,1,220,2|8,0:0|0:0,0:0:0:0:
313,188,29896,2,0,P|261:109|341:22,1,220,0|8,0:0|0:0,0:0:0:0:
425,158,31013,6,0,P|450:252|320:351,1,275,2|8,0:0|0:0,0:0:0:0:
325,351,31971,1,2,0:0:0:0:
272,195,32449,6,0,L|151:182,1,110,2|0,1:2|0:0,0:0:0:0:
108,173,32928,2,0,P|94:231|99:289,1,110,2|2,1:2|1:2,0:0:0:0:
131,323,33407,1,0,0:0:0:0:
256,192,33726,12,2,36279,0:0:0:0:
220,338,37556,5,2,0:0:0:0:
439,320,38194,1,2,0:0:0:0:
380,109,38832,6,0,P|253:215|282:42,1,440,2|8,0:0|0:0,0:0:0:0:
118,193,40747,2,0,P|63:199|8:193,1,110,0|8,0:0|0:0,0:0:0:0:
66,99,41386,5,8,0:0:0:0:
242,230,42024,2,0,L|247:345,1,110,8|0,0:0|0:0,0:0:0:0:
136,340,42662,2,0,L|131:225,1,110,8|2,0:0|0:0,0:0:0:0:
87,196,43141,1,2,0:0:0:0:
50,155,43300,2,0,L|45:40,1,110,8|0,0:0|0:0,0:0:0:0:
147,87,43939,6,0,P|202:108|312:75,1,165,8|8,0:0|0:0,0:0:0:0:
376,1,44737,2,0,L|491:12,1,110,8|8,0:0|0:0,0:0:0:0:
199,334,46173,5,0,0:0:0:0:
283,273,46492,2,0,B|300:214|300:214|275:48,1,220,6|8,0:0|0:0,0:0:0:0:
276,57,47609,1,2,0:0:0:0:
77,152,48247,2,0,L|60:323,1,165,2|2,0:0|0:0,0:0:0:0:
170,324,49045,6,0,P|226:253|331:311,1,220,6|8,0:0|0:0,0:0:0:0:
327,301,50162,1,2,0:0:0:0:
128,206,50800,2,0,L|132:26,1,165,2|2,0:0|0:0,0:0:0:0:
231,88,51598,6,0,L|223:320,1,220,6|8,0:0|0:0,0:0:0:0:
223,307,52715,1,2,0:0:0:0:
20,219,53354,2,0,P|81:243|182:205,1,165,2|2,0:0|0:0,0:0:0:0:
173,103,54152,6,0,L|398:114,1,220,2|2,0:0|0:0,0:0:0:0:
330,324,55428,2,0,L|502:337,2,165,2|8|8,0:0|0:0|0:0,0:0:0:0:
222,354,56705,6,0,P|191:278|207:198,2,165,6|2|0,0:0|0:0|0:0,0:0:0:0:
331,365,57981,2,0,P|361:289|345:209,2,165,0|2|2,0:0|0:0|0:0,0:0:0:0:
221,353,59258,6,0,B|49:353|49:353|98:302,1,220,6|8,0:0|0:0,0:0:0:0:
204,206,60375,1,2,0:0:0:0:
371,349,61013,2,0,L|377:171,1,165,2|0,0:0|0:0,0:0:0:0:
371,73,61811,6,0,P|289:62|210:83,1,165,2|8,0:0|0:0,0:0:0:0:
220,193,62609,2,0,L|242:373,1,165,2|2,0:0|0:0,0:0:0:0:
365,249,63566,2,0,L|349:136,1,110,8|2,0:0|0:0,0:0:0:0:
197,76,64364,5,2,0:0:0:0:
256,192,64524,12,6,66120,0:0:0:0:
256,192,66917,5,6,0:0:0:0:
256,192,74577,12,10,76492,0:0:0:0:
256,190,77769,5,8,0:0:0:0:
425,69,78407,2,0,L|435:295,1,220,0|8,0:0|0:0,0:0:0:0:
227,361,79683,6,0,P|158:279|178:175,2,220,2|8|0,0:0|0:0|0:0,0:0:0:0:
315,159,81598,1,8,0:0:0:0:
341,110,81758,2,0,L|456:112,1,110,2|0,0:0|0:0,0:0:0:0:
475,161,82237,6,0,B|501:268|501:268|472:374,1,220,2|8,0:0|0:0,0:0:0:0:
252,368,83513,2,0,B|223:261|223:261|249:154,1,220,0|8,0:0|0:0,0:0:0:0:
132,271,84630,6,0,P|52:245|158:182,1,275,2|8,0:0|0:0,0:0:0:0:
346,282,86066,6,0,L|345:213,1,55,0|2,0:0|0:0,0:0:0:0:
342,6,86864,1,2,0:0:0:0:
232,130,87343,6,0,P|127:154|26:116,1,220,2|8,0:0|0:0,0:0:0:0:
201,249,88620,2,0,P|306:224|407:262,1,220,0|8,0:0|0:0,0:0:0:0:
284,80,89896,5,2,0:0:0:0:
211,288,90535,1,8,0:0:0:0:
103,95,91173,2,0,L|86:319,1,220,0|8,0:0|0:0,0:0:0:0:
86,314,91971,1,2,0:0:0:0:
220,220,92449,6,0,P|327:196|432:226,1,220,2|8,0:0|0:0,0:0:0:0:
427,5,93726,2,0,L|205:36,1,220,0|8,0:0|0:0,0:0:0:0:
49,77,94843,6,0,B|16:213|16:213|61:339,1,275,2|8,0:0|0:0,0:0:0:0:
61,339,95800,1,2,0:0:0:0:
192,238,96279,6,0,L|320:249,1,110,2|0,1:2|0:0,0:0:0:0:
333,202,96758,2,0,L|461:213,1,110,2|2,1:2|1:2,0:0:0:0:
488,181,97237,1,0,0:0:0:0:
256,192,97556,12,2,100109,0:0:0:0:
220,338,101386,5,2,0:0:0:0:
398,209,102024,1,2,0:0:0:0:
265,35,102662,6,0,P|138:141|315:133,1,440,2|8,0:0|0:0,0:0:0:0:
338,363,104577,2,0,P|392:368|447:362,1,110,0|8,0:0|0:0,0:0:0:0:
447,252,105216,5,8,0:0:0:0:
227,247,105854,2,0,L|222:137,1,110,8|2,0:0|0:0,0:0:0:0:
317,82,106492,2,0,L|322:197,1,110,8|2,0:0|0:0,0:0:0:0:
366,226,106971,1,2,0:0:0:0:
403,267,107130,2,0,L|408:382,1,110,8|0,0:0|0:0,0:0:0:0:
306,332,107769,6,0,P|251:311|141:344,1,165,8|8,0:0|0:0,0:0:0:0:
108,233,108567,2,0,L|-1:222,1,110,8|8,0:0|0:0,0:0:0:0:
336,37,110003,5,0,0:0:0:0:
245,99,110322,2,0,B|228:158|228:158|253:324,1,220,6|8,0:0|0:0,0:0:0:0:
251,314,111439,1,2,0:0:0:0:
431,188,112077,2,0,L|448:17,1,165,2|2,0:0|0:0,0:0:0:0:
342,60,112875,6,0,P|286:131|181:73,1,220,6|8,0:0|0:0,0:0:0:0:
185,83,113992,1,2,0:0:0:0:
384,178,114630,2,0,L|380:358,1,165,2|2,0:0|0:0,0:0:0:0:
281,296,115428,6,0,L|289:64,1,220,6|8,0:0|0:0,0:0:0:0:
289,77,116545,1,2,0:0:0:0:
492,165,117184,2,0,P|431:141|330:179,1,165,0|2,0:0|0:0,0:0:0:0:
261,91,117981,6,0,L|36:80,1,220,2|2,0:0|0:0,0:0:0:0:
212,217,119258,2,0,L|40:204,2,165,2|8|8,0:0|0:0|0:0,0:0:0:0:
316,181,120535,6,0,L|488:168,2,165,6|2|0,0:0|0:0|0:0,0:0:0:0:
206,175,121811,2,0,L|34:162,2,165,0|2|2,0:0|0:0|0:0,0:0:0:0:
316,181,123088,6,0,B|488:181|488:181|439:232,1,220,6|8,0:0|0:0,0:0:0:0:
332,326,124205,1,2,0:0:0:0:
145,209,124843,2,0,L|145:25,1,165,2|2,0:0|0:0,0:0:0:0:
242,96,125641,6,0,P|324:107|403:86,1,165,2|8,0:0|0:0,0:0:0:0:
448,186,126439,2,0,L|468:349,1,165,2|2,0:0|0:0,0:0:0:0:
335,383,127396,2,0,L|320:275,1,110,10|10,0:0|0:0,0:0:0:0:
294,111,128194,5,2,0:0:0:0:
256,192,128354,12,6,129949,0:0:0:0:
256,192,130747,5,6,0:0:0:0:
289,308,140960,6,0,P|345:326|500:294,1,220,6|8,0:0|0:0,0:0:0:0:
428,145,142077,6,0,B|408:94|408:94|417:39,2,110,2|2|0,0:0|0:0|0:0,0:0:0:0:
428,145,142875,1,8,0:0:0:0:
222,223,143513,6,0,L|2:233,1,220,2|8,0:0|0:0,0:0:0:0:
58,138,144471,6,0,B|178:134|178:134|220:92,1,165,0|8,0:0|0:0,0:0:0:0:
236,53,145109,2,0,B|356:57|356:57|398:99,1,165,0|2,0:0|0:0,0:0:0:0:
415,136,145747,1,0,0:0:0:0:
324,197,146066,6,0,P|303:276|331:352,1,165,2|2,0:0|0:0,0:0:0:0:
331,352,146705,1,8,0:0:0:0:
180,286,147183,6,0,B|126:275|126:275|73:291,2,110,2|2|0,0:0|0:0|0:0,0:0:0:0:
180,286,147981,1,8,0:0:0:0:
157,66,148620,6,0,L|393:80,1,220,2|8,0:0|0:0,0:0:0:0:
486,86,149577,6,0,B|464:165|464:165|486:244,1,165,2|8,0:0|0:0,0:0:0:0:
512,294,150215,2,0,B|460:278|460:278|407:295,1,110,0|8,0:0|0:0,0:0:0:0:
307,342,150854,1,0,0:0:0:0:
215,281,151173,6,0,L|219:38,1,220,2|8,0:0|0:0,0:0:0:0:
313,116,152130,1,2,0:0:0:0:
411,66,152449,6,0,L|414:285,1,220,0|8,0:0|0:0,0:0:0:0:
323,348,153407,1,0,0:0:0:0:
247,268,153726,6,0,P|175:251|75:280,1,165,2|2,0:0|0:0,0:0:0:0:
88,272,154364,1,8,0:0:0:0:
36,175,154683,1,2,0:0:0:0:
36,175,154843,6,0,L|49:46,1,110,0|8,0:0|0:0,0:0:0:0:
47,65,155322,1,0,0:0:0:0:
152,34,155641,1,8,0:0:0:0:
235,105,155960,2,0,L|308:100,1,55,0|2,0:0|0:0,0:0:0:0:
344,96,156279,6,0,L|331:323,1,220,8|8,0:0|0:0,0:0:0:0:
223,336,157237,1,0,0:0:0:0:
169,239,157556,6,0,P|115:227|62:240,1,110,8|2,0:0|0:0,0:0:0:0:
18,273,158035,1,2,0:0:0:0:
18,273,158194,2,0,L|22:139,1,110,8|2,0:0|0:0,0:0:0:0:
62,61,158832,6,0,B|181:39|181:39|246:52,1,165,8|8,0:0|0:0,0:0:0:0:
325,92,159630,2,0,P|378:104|445:88,1,110,8|8,0:0|0:0,0:0:0:0:
143,348,161066,6,0,P|115:350|20:348,1,110,0|0,0:0|0:0,0:0:0:0:
50,129,162024,2,0,L|127:132,1,55,2|2,0:0|0:0,0:0:0:0:
215,136,162503,5,6,0:0:0:0:
435,152,163141,2,0,L|452:323,1,165,2|2,0:0|0:0,0:0:0:0:
342,324,163939,6,0,P|286:253|181:311,1,220,6|8,0:0|0:0,0:0:0:0:
185,301,165056,1,2,0:0:0:0:
384,206,165694,2,0,L|380:26,1,165,2|2,0:0|0:0,0:0:0:0:
281,88,166492,6,0,L|289:320,1,220,6|8,0:0|0:0,0:0:0:0:
289,307,167609,1,2,0:0:0:0:
492,219,168248,2,0,P|431:243|330:205,1,165,2|2,0:0|0:0,0:0:0:0:
232,187,169046,6,0,L|7:198,1,220,2|0,0:0|0:0,0:0:0:0:
179,340,170322,2,4,L|7:353,2,165,2|8|8,0:0|0:0|0:0,0:0:0:0:
290,354,171599,6,0,P|321:278|305:198,2,165,6|2|0,0:0|0:0|0:0,0:0:0:0:
181,365,172875,2,0,P|151:289|167:209,2,165,0|2|2,0:0|0:0|0:0,0:0:0:0:
291,353,174152,6,0,B|463:353|463:353|414:302,1,220,6|8,0:0|0:0,0:0:0:0:
308,206,175269,1,2,0:0:0:0:
141,349,175907,2,0,L|135:171,1,165,2|2,0:0|0:0,0:0:0:0:
141,73,176705,6,0,P|223:62|302:83,1,165,6|8,0:0|0:0,0:0:0:0:
292,193,177503,2,0,L|270:373,1,165,2|2,0:0|0:0,0:0:0:0:
154,241,178460,2,0,L|138:349,1,110,10|10,0:0|0:0,0:0:0:0:
263,243,179258,6,0,P|336:267|471:226,2,220,2|2|2,0:0|0:0|0:0,0:0:0:0:
105,193,181013,1,10,0:0:0:0:
75,298,181332,1,10,0:0:0:0:
231,351,181811,6,0,P|313:340|392:361,1,165,6|8,0:0|0:0,0:0:0:0:
501,361,182609,2,0,L|480:197,1,165,2|2,0:0|0:0,0:0:0:0:
341,108,183566,2,0,L|356:216,1,110,10|10,0:0|0:0,0:0:0:0:
195,182,184364,6,0,P|147:225|1:215,2,220,2|2|2,0:0|0:0|0:0,0:0:0:0:
341,258,186120,1,6,0:0:0:0:
444,220,186439,1,2,0:0:0:0:
371,73,186917,6,0,P|289:62|210:83,1,165,6|2,0:0|0:0,0:0:0:0:
198,137,187556,2,0,L|207:319,1,165,8|2,0:0|0:0,0:0:0:0:
420,353,188673,5,2,0:0:0:0:
420,353,188832,2,0,L|303:348,1,110,8|0,0:0|0:0,0:0:0:0:
313,238,189471,6,0,P|347:180|314:68,1,165,2|2,0:0|0:0,0:0:0:0:
281,112,190109,2,0,P|202:131|130:94,1,165,8|2,0:0|0:0,0:0:0:0:
55,175,190907,6,0,L|61:291,1,110,2|2,0:0|0:0,0:0:0:0:
69,339,191386,2,0,L|185:333,1,110,8|0,0:0|0:0,0:0:0:0:
288,320,192024,6,0,L|282:137,1,165,2|2,0:0|0:0,0:0:0:0:
228,164,192662,2,0,L|234:-19,1,165,8|2,0:0|0:0,0:0:0:0:
132,44,193460,5,2,0:0:0:0:
41,106,193779,1,2,0:0:0:0:
41,106,193939,2,0,L|46:233,1,110,8|0,0:0|0:0,0:0:0:0:
133,281,194577,6,0,P|191:310|295:285,1,165,2|0,0:0|0:0,0:0:0:0:
293,236,195215,2,0,P|371:215|446:246,1,165,2|0,0:0|0:0,0:0:0:0:
476,292,195854,6,0,L|476:120,1,165,2|0,0:0|0:0,0:0:0:0:
478,71,196492,1,2,0:0:0:0:
270,142,197130,6,0,B|189:162|189:162|117:123,1,165,2|0,0:0|0:0,0:0:0:0:
68,96,197769,2,0,B|48:177|48:177|86:248,1,165,2|0,0:0|0:0,0:0:0:0:
123,289,198407,5,2,0:0:0:0:
342,285,199045,2,0,L|400:284,1,55,8|2,0:0|0:0,0:0:0:0:
256,192,199683,12,0,204790,0:0:0:0:
