osu file format v14

[General]
AudioFilename: audio.mp3
AudioLeadIn: 0
PreviewTime: 42632
Countdown: 0
SampleSet: Soft
StackLeniency: 1
Mode: 0
LetterboxInBreaks: 0
WidescreenStoryboard: 0

[Editor]
Bookmarks: 80795
DistanceSpacing: 0.1
BeatDivisor: 4
GridSize: 8
TimelineZoom: 1.4

[Metadata]
Title:Physical
TitleUnicode:Physical
Artist:Dua Lipa
ArtistUnicode:Dua Lipa
Creator:schoolboy
Version:baby keep on dancing
Source:
Tags:future nostalgia gladiool appleeaterx mint yuuya_ke komore pop english
BeatmapID:2440133
BeatmapSetID:1169699

[Difficulty]
HPDrainRate:5
CircleSize:5
OverallDifficulty:7.5
ApproachRate:8.8
SliderMultiplier:1.4
SliderTickRate:2

[Events]
//Background and Video events
0,0,"8270_17_h-v2.jpg",0,0
//Break Periods
//Storyboard Layer 0 (Background)
//Storyboard Layer 1 (Fail)
//Storyboard Layer 2 (Pass)
//Storyboard Layer 3 (Foreground)
//Storyboard Layer 4 (Overlay)
//Storyboard Sound Samples
Sample,124306,0,"cheers.wav",70

[TimingPoints]
13356,408.163265306122,4,2,1,60,1,0
14580,-100,4,2,23,60,0,0
14682,-100,4,2,1,60,0,0
15804,-100,4,2,22,60,0,0
15907,-100,4,2,1,60,0,0
18253,-100,4,2,22,60,0,0
18355,-100,4,2,1,60,0,0
20192,-100,4,2,1,5,0,0
20294,-100,4,2,1,60,0,0
38253,-100,4,2,23,60,0,0
38355,-100,4,2,1,60,0,0
42335,-100,4,2,1,44,0,0
42437,-100,4,2,1,55,0,0
42539,-100,4,2,1,66,0,0
42641,-100,4,2,1,5,0,0
42743,-83.3333333333333,4,2,1,75,0,0
45192,-83.3333333333333,4,2,22,75,0,0
45294,-83.3333333333333,4,2,1,75,0,0
48458,-83.3333333333333,4,2,22,75,0,0
48560,-83.3333333333333,4,2,1,75,0,0
50294,-83.3333333333333,4,2,22,75,0,0
50396,-83.3333333333333,4,2,1,75,0,0
54172,-66.6666666666667,4,2,1,75,0,0
55804,-83.3333333333333,4,2,1,75,0,0
58253,-83.3333333333333,4,2,22,75,0,0
58355,-83.3333333333333,4,2,1,75,0,0
61519,-83.3333333333333,4,2,22,75,0,0
61621,-83.3333333333333,4,2,1,75,0,0
63151,-133.333333333333,4,2,1,75,0,0
63355,-133.333333333333,4,2,22,75,0,0
63458,-133.333333333333,4,2,1,75,0,0
63560,-83.3333333333333,4,2,1,75,0,0
65600,-200,4,2,1,75,0,0
66009,-200,4,2,23,75,0,0
66111,-200,4,2,1,75,0,0
66417,-200,4,2,22,75,0,0
66825,-200,4,2,23,75,0,0
67233,-66.6666666666667,4,2,1,75,0,0
68866,-133.333333333333,4,2,1,50,0,0
72131,-100,4,2,1,60,0,0
73355,-100,4,2,23,60,0,0
73458,-100,4,2,1,60,0,0
74580,-100,4,2,22,60,0,0
74682,-100,4,2,1,60,0,0
77029,-100,4,2,22,60,0,0
77131,-100,4,2,1,60,0,0
78968,-100,4,2,1,5,0,0
79070,-100,4,2,1,60,0,0
80702,-100,4,2,23,60,0,0
80804,-100,4,2,1,60,0,0
91723,-100,4,2,22,60,0,0
91825,-100,4,2,1,60,0,0
92947,-100,4,2,23,60,0,0
93049,-100,4,2,1,60,0,0
94988,-200,4,2,1,50,0,0
98253,-83.3333333333333,4,2,1,75,0,0
103968,-83.3333333333333,4,2,22,75,0,0
104070,-83.3333333333333,4,2,1,75,0,0
105804,-83.3333333333333,4,2,22,75,0,0
105907,-83.3333333333333,4,2,1,75,0,0
106315,-83.3333333333333,4,2,1,75,0,0
109682,-66.6666666666667,4,2,1,75,0,0
111111,-83.3333333333333,4,2,1,75,0,0
113764,-83.3333333333333,4,2,22,75,0,0
113866,-83.3333333333333,4,2,1,75,0,0
117029,-83.3333333333333,4,2,22,75,0,0
117131,-83.3333333333333,4,2,1,75,0,0
118355,-133.333333333333,4,2,1,75,0,0
118866,-133.333333333333,4,2,22,75,0,0
118968,-133.333333333333,4,2,1,75,0,0
119070,-83.3333333333333,4,2,1,75,0,0
121111,-200,4,2,1,75,0,0
121519,-200,4,2,23,75,0,0
121621,-200,4,2,1,75,0,0
121927,-200,4,2,22,75,0,0
122335,-200,4,2,23,75,0,0
122743,-66.6666666666667,4,2,1,75,0,0
124376,-133.333333333333,4,2,1,88,0,1
124478,-66.6666666666667,4,2,1,88,0,1
124682,-66.6666666666667,4,2,1,5,0,1
124784,-66.6666666666667,4,2,1,88,0,1
128662,-66.6666666666667,4,2,22,88,0,1
128764,-66.6666666666667,4,2,1,88,0,1
131723,-100,4,2,1,88,0,1
131927,-100,4,2,22,88,0,1
132029,-100,4,2,1,88,0,1
132845,-100,4,2,1,5,0,1
132947,-66.6666666666667,4,2,1,88,0,1
137437,-133.333333333333,4,2,1,88,0,1
137539,-66.6666666666667,4,2,1,88,0,1
137743,-66.6666666666667,4,2,1,5,0,1
137845,-66.6666666666667,4,2,1,88,0,1
141723,-66.6666666666667,4,2,22,88,0,1
141832,-66.6666666666667,4,2,1,88,0,1
144784,-100,4,2,1,88,0,1
144988,-100,4,2,22,88,0,1
145090,-100,4,2,1,88,0,1
145907,-100,4,2,1,5,0,1
146009,-66.6666666666667,4,2,1,88,0,1
150498,-66.6666666666667,4,2,1,60,0,0
160294,-100,4,2,1,60,0,0
163560,-83.3333333333333,4,2,1,79,0,0
166009,-83.3333333333333,4,2,22,79,0,0
166111,-83.3333333333333,4,2,1,79,0,0
169274,-83.3333333333333,4,2,22,79,0,0
169376,-83.3333333333333,4,2,1,79,0,0
170907,-133.333333333333,4,2,1,79,0,0
171111,-83.3333333333333,4,2,22,79,0,0
171213,-83.3333333333333,4,2,1,79,0,0
174886,-66.6666666666667,4,2,1,79,0,0
175918,-83.3333333333333,4,2,1,79,0,0
179784,-83.3333333333333,4,2,1,5,0,0
179886,-83.3333333333333,4,2,1,79,0,0
183049,-83.3333333333333,4,2,1,5,0,0
183151,-83.3333333333333,4,2,1,79,0,0
186315,-83.3333333333333,4,2,1,5,0,0
186417,-83.3333333333333,4,2,1,79,0,0
189682,-83.3333333333333,4,2,1,40,0,0
190090,-83.3333333333333,4,2,1,30,0,0
190498,-83.3333333333333,4,2,1,20,0,0
190907,-83.3333333333333,4,2,1,10,0,0
191315,-83.3333333333333,4,2,1,5,0,0

[Colours]
Combo1 : 247,227,121
Combo2 : 91,173,255

[HitObjects]
45,117,12947,5,8,0:0:0:0:
45,117,13355,2,0,L|58:185,1,70,6|0,1:2|0:0,0:0:0:0:
72,267,13764,2,0,P|41:281|6:284,1,70,10|0,0:0|0:0,0:0:0:0:
146,212,14172,1,2,1:2:0:0:
224,246,14376,2,0,P|240:314|236:384,1,140,2|2,1:2|0:0,0:0:0:0:
146,212,14988,6,0,L|152:142,1,70,2|0,1:2|0:0,0:0:0:0:
225,247,15396,1,10,0:0:0:0:
67,135,15600,2,0,P|60:204|53:274,1,140,0|10,0:0|0:2,0:0:0:0:
129,323,16213,1,10,1:2:0:0:
152,142,16417,1,2,0:0:0:0:
297,263,16621,5,2,1:2:0:0:
212,241,16825,1,0,0:0:0:0:
297,263,17029,2,0,P|332:258|365:248,1,70,10|0,0:0|0:0,0:0:0:0:
500,201,17437,1,2,1:2:0:0:
426,173,17641,1,2,1:2:0:0:
440,254,17845,1,8,0:0:0:0:
490,119,18049,6,0,P|492:49|453:-18,1,140,2|0,0:0|0:0,0:0:0:0:
426,173,18662,2,0,B|352:173|376:206|292:206,1,140,8|0,0:0|0:0,0:0:0:0:
181,101,19274,1,10,0:2:0:0:
254,136,19478,2,0,P|266:103|269:68,1,70,10|2,1:2|0:0,0:0:0:0:
197,214,19886,6,0,L|211:317,1,105,6|0,1:2|0:0,0:0:0:0:
216,335,20294,2,0,P|147:343|85:374,1,140,10|2,0:0|1:2,0:0:0:0:
16,331,20907,1,2,1:2:0:0:
72,267,21111,2,0,P|81:231|78:194,1,70,8|2,0:0|0:0,0:0:0:0:
6,19,21519,6,0,P|63:60|132:67,1,140,2|8,1:2|0:0,0:0:0:0:
130,67,22335,1,2,1:2:0:0:
265,32,22539,1,10,0:2:0:0:
224,158,22743,2,0,P|213:126|210:91,1,70,10|2,1:2|0:0,0:0:0:0:
265,32,23151,6,0,L|334:42,1,70,2|0,1:2|0:0,0:0:0:0:
490,101,23560,1,10,0:0:0:0:
410,122,23764,1,0,0:0:0:0:
490,101,23968,1,2,1:2:0:0:
334,149,24172,1,2,1:2:0:0:
410,122,24376,2,0,P|420:89|420:54,1,70,8|2,0:0|0:0,0:0:0:0:
348,8,24784,6,0,P|279:20|210:33,1,140,2|8,1:2|0:0,0:0:0:0:
122,154,25396,2,0,P|137:122|143:87,1,70,2|0,0:0|1:2,0:0:0:0:
79,35,25804,1,10,0:2:0:0:
211,140,26009,2,0,P|246:134|278:120,1,70,10|2,1:2|1:2,0:0:0:0:
343,51,26417,6,0,P|310:37|276:31,1,70,6|0,1:2|0:0,0:0:0:0:
362,138,26825,2,0,P|432:135|490:98,1,140,10|2,0:0|1:2,0:0:0:0:
443,27,27437,1,2,1:2:0:0:
489,98,27641,2,0,P|483:135|478:167,1,70,8|2,0:0|0:0,0:0:0:0:
494,370,28049,6,0,P|476:306|411:287,1,140,2|10,1:2|0:0,0:0:0:0:
210,210,28662,1,2,0:0:0:0:
337,245,28866,2,0,P|304:258|270:266,1,70,2|10,1:2|0:2,0:0:0:0:
210,210,29274,1,10,1:2:0:0:
252,348,29478,1,2,0:0:0:0:
155,300,29682,5,2,1:2:0:0:
270,266,29886,1,0,0:0:0:0:
155,300,30090,1,10,0:0:0:0:
270,266,30294,1,0,0:0:0:0:
172,383,30498,5,2,1:2:0:0:
187,168,30702,2,0,P|203:210|205:242,1,70,2|8,1:2|0:0,0:0:0:0:
155,300,31111,1,2,0:0:0:0:
187,168,31315,5,2,1:2:0:0:
107,206,31519,1,0,0:0:0:0:
114,117,31723,2,0,L|128:19,1,70,8|0,0:0|0:0,0:0:0:0:
187,168,32131,1,2,1:2:0:0:
36,155,32335,5,10,0:2:0:0:
123,47,32539,1,10,1:2:0:0:
36,155,32743,1,2,0:0:0:0:
123,47,32947,6,0,B|209:47|176:13|256:13,1,140,6|10,1:2|0:0,0:0:0:0:
331,67,33560,2,0,P|304:91|272:102,1,70,0|0,0:0|0:0,0:0:0:0:
256,12,33968,1,2,1:2:0:0:
206,166,34172,2,0,P|188:131|185:75,1,70,8|2,0:0|0:0,0:0:0:0:
289,188,34580,6,0,P|291:255|261:330,1,140,2|10,1:2|0:0,0:0:0:0:
187,357,35192,2,0,L|100:376,1,70,0|2,0:0|1:2,0:0:0:0:
48,218,35600,1,10,0:2:0:0:
0,290,35804,2,0,L|68:304,1,70,10|2,1:2|0:0,0:0:0:0:
186,196,36213,6,0,L|33:220,1,140,2|10,1:2|0:0,0:0:0:0:
0,148,36825,1,0,0:0:0:0:
59,82,37029,2,0,P|94:87|128:102,1,70,2|0,1:2|0:0,0:0:0:0:
226,3,37437,2,0,P|195:15|159:24,1,70,8|2,0:0|0:0,0:0:0:0:
125,100,37845,5,2,1:2:0:0:
207,134,38049,2,0,B|291:134|267:101|341:101,1,140,2|2,0:0|0:0,0:0:0:0:
425,126,38662,2,0,P|420:92|411:43,1,70,2|10,1:2|0:2,0:0:0:0:
500,81,39070,2,0,P|505:47|514:-2,1,70,10|2,1:2|0:0,0:0:0:0:
507,216,39478,5,0,3:0:0:0:
508,217,42335,2,2,P|446:236|400:274,1,105,2|0,0:0|0:0,0:0:0:0:
362,329,42743,6,0,P|378:248|361:166,1,167.999994873047,6|10,1:2|0:0,0:0:0:0:
170,24,43560,1,2,1:2:0:0:
199,140,43764,1,10,0:0:0:0:
170,24,43968,1,8,1:2:0:0:
140,199,44172,5,2,0:0:0:0:
199,140,44376,2,0,P|245:146|290:161,1,83.9999974365235,2|2,1:2|0:0,0:0:0:0:
412,0,44784,1,8,0:0:0:0:
486,50,44988,2,0,P|444:78|310:81,1,167.999994873047,2|10,0:0|1:2,0:0:0:0:
202,4,45600,1,14,1:2:0:0:
233,96,45804,1,2,0:0:0:0:
66,93,46009,6,0,P|106:79|156:73,1,83.9999974365235,6|2,1:2|0:0,0:0:0:0:
233,96,46417,1,8,0:0:0:0:
202,4,46621,1,2,0:0:0:0:
166,163,46825,1,2,1:2:0:0:
202,4,47029,1,10,0:0:0:0:
166,163,47233,5,10,1:2:0:0:
79,194,47437,1,2,0:0:0:0:
166,163,47641,2,0,P|211:168|256:185,1,83.9999974365235,2|2,1:2|0:0,0:0:0:0:
400,141,48049,1,10,0:0:0:0:
334,215,48253,2,0,P|315:130|325:46,1,167.999994873047,2|10,0:0|1:2,0:0:0:0:
421,235,48866,1,14,1:2:0:0:
389,320,49070,1,2,0:0:0:0:
310,359,49274,6,0,P|223:355|142:383,1,167.999994873047,6|10,1:2|0:0,0:0:0:0:
67,186,49886,1,2,0:0:0:0:
0,248,50090,2,0,P|78:273|176:270,1,167.999994873047,2|10,1:2|1:2,0:0:0:0:
233,221,50702,1,2,0:0:0:0:
181,9,50907,6,0,P|161:61|161:173,1,167.999994873047,6|10,1:2|0:0,0:0:0:0:
233,221,51519,1,2,0:0:0:0:
302,166,51723,2,0,P|294:121|276:84,1,83.9999974365235,2|10,1:2|0:2,0:0:0:0:
164,273,52131,1,10,1:2:0:0:
344,347,52335,1,2,0:0:0:0:
164,273,52539,6,0,B|52:273|115:304|0:304,1,167.999994873047,6|10,1:2|0:0,0:0:0:0:
34,219,53151,1,2,0:0:0:0:
0,134,53355,2,0,P|17:95|27:36,1,83.9999974365235,2|2,1:2|1:2,0:0:0:0:
105,13,53764,1,10,1:2:0:0:
34,219,53968,1,2,0:0:0:0:
105,13,54172,6,0,P|168:29|208:67,1,105.000004005432,6|0,1:2|0:0,0:0:0:0:
423,196,54580,2,0,P|405:148|405:96,1,105.000004005432,10|0,0:0|0:0,0:0:0:0:
253,187,54988,1,6,1:2:0:0:
391,318,55192,1,10,1:2:0:0:
320,25,55396,5,14,1:2:0:0:
231,355,55600,1,10,0:0:0:0:
231,355,55702,1,2,0:0:0:0:
231,355,55804,6,0,B|119:355|182:324|67:324,1,167.999994873047,6|10,1:2|0:0,0:0:0:0:
6,80,56621,1,2,1:2:0:0:
134,146,56825,1,10,0:0:0:0:
15,221,57029,1,8,1:2:0:0:
53,146,57233,5,2,0:0:0:0:
107,225,57437,2,0,P|169:246|209:243,1,83.9999974365235,2|2,1:2|0:0,0:0:0:0:
331,377,57845,1,8,0:0:0:0:
387,292,58049,2,0,P|268:300|207:347,1,167.999994873047,2|10,0:0|1:2,0:0:0:0:
465,376,58662,1,14,1:2:0:0:
508,297,58866,1,2,0:0:0:0:
454,220,59070,6,0,P|446:152|451:107,1,83.9999974365235,6|2,1:2|0:0,0:0:0:0:
490,49,59478,1,8,0:0:0:0:
355,189,59682,1,2,0:0:0:0:
508,297,59886,1,2,1:2:0:0:
446,136,60090,1,10,0:0:0:0:
328,292,60294,1,8,1:2:0:0:
265,121,60498,1,2,0:0:0:0:
216,195,60702,5,2,1:2:0:0:
352,121,60907,1,2,0:0:0:0:
215,45,61111,1,10,0:0:0:0:
265,121,61315,2,0,B|377:121|314:90|429:90,1,167.999994873047,2|10,0:0|1:2,0:0:0:0:
512,146,61927,1,14,1:2:0:0:
413,0,62131,1,2,0:0:0:0:
360,209,62335,6,0,P|299:254|193:250,1,167.999994873047,6|10,1:2|0:0,0:0:0:0:
72,155,62947,1,2,0:0:0:0:
106,302,63151,2,2,P|134:262|137:200,1,105.000004005432,2|10,1:2|1:2,0:0:0:0:
22,312,63764,1,2,0:0:0:0:
80,383,63968,6,0,B|192:383|129:352|244:352,1,167.999994873047,6|10,1:2|0:0,0:0:0:0:
367,246,64580,1,2,0:0:0:0:
287,286,64784,2,0,P|279:244|280:203,1,83.9999974365235,2|2,1:2|1:2,0:0:0:0:
354,356,65192,1,10,1:2:0:0:
318,119,65396,1,2,0:0:0:0:
354,356,65600,6,0,P|416:265|524:313,1,245,6|2,1:2|0:0,0:0:0:0:
512,327,67233,6,0,P|475:269|482:222,1,105.000004005432,6|0,1:2|0:0,0:0:0:0:
162,110,67641,2,0,P|233:118|279:172,1,105.000004005432,10|0,0:0|0:0,0:0:0:0:
434,37,68049,1,6,1:2:0:0:
344,283,68253,1,10,1:2:0:0:
225,28,68458,5,14,1:2:0:0:
315,375,68662,1,10,0:0:0:0:
258,137,68866,6,0,L|245:252,1,105.000004005432,2|8,1:2|0:0,0:0:0:0:
246,241,69682,2,0,P|276:227|297:208,1,52.5000020027161,0|0,1:0|1:0,0:0:0:0:
353,270,70090,1,8,0:0:0:0:
353,270,70498,5,2,1:2:0:0:
408,221,70702,2,0,L|401:169,1,52.5000020027161,2|8,0:0|0:0,0:0:0:0:
451,105,71111,2,0,L|444:53,1,52.5000020027161,2|0,0:0|0:0,0:0:0:0:
381,4,71519,5,8,1:2:0:0:
322,227,71723,1,8,1:2:0:0:
322,227,72131,6,0,P|257:219|233:203,1,70,6|0,1:2|0:0,0:0:0:0:
170,108,72539,2,0,P|179:137|185:203,1,70,10|0,0:0|0:0,0:0:0:0:
45,278,72947,1,2,1:2:0:0:
130,302,73151,2,0,P|110:227|105:155,1,140,2|2,1:2|0:0,0:0:0:0:
219,60,73764,6,0,P|196:90|167:109,1,70,2|0,1:2|0:0,0:0:0:0:
93,71,74172,1,10,0:0:0:0:
185,189,74376,2,0,P|235:199|313:254,1,140,0|10,0:0|0:2,0:0:0:0:
469,114,74988,1,10,1:2:0:0:
356,149,75192,1,2,0:0:0:0:
416,266,75396,6,0,P|438:210|438:174,1,70,2|0,1:2|0:0,0:0:0:0:
395,59,75804,1,10,0:0:0:0:
469,114,76009,1,0,0:0:0:0:
356,149,76213,2,0,L|273:139,1,70,2|0,1:2|0:0,0:0:0:0:
126,199,76621,1,8,0:0:0:0:
195,256,76825,6,0,P|214:198|201:99,1,140,2|0,0:0|0:0,0:0:0:0:
0,354,77437,2,0,B|74:354|50:321|134:321,1,140,8|2,0:0|1:2,0:0:0:0:
206,365,78049,1,10,0:2:0:0:
273,309,78253,2,0,P|266:257|255:224,1,70,10|2,1:2|0:0,0:0:0:0:
354,83,78662,6,0,P|333:128|340:200,1,105,6|0,1:2|0:0,0:0:0:0:
344,196,79070,2,0,P|281:192|186:186,1,140,10|2,0:0|1:2,0:0:0:0:
139,132,79682,1,2,1:2:0:0:
71,189,79886,2,0,P|38:213|1:222,1,70,8|2,0:0|0:0,0:0:0:0:
139,132,80294,5,2,1:2:0:0:
62,81,80498,2,0,P|118:41|185:54,1,140,2|2,0:0|0:0,0:0:0:0:
266,96,81111,2,0,P|282:51|281:15,1,70,2|10,1:2|0:2,0:0:0:0:
195,142,81519,2,2,P|202:173|206:210,1,70,10|2,1:2|0:0,0:0:0:0:
287,180,81927,6,0,P|331:192|393:268,1,140,2|10,1:2|0:0,0:0:0:0:
473,232,82539,1,0,0:0:0:0:
422,156,82743,2,0,P|415:106|416:67,1,70,2|2,1:2|1:2,0:0:0:0:
482,24,83151,1,8,0:0:0:0:
473,232,83355,1,2,0:0:0:0:
330,134,83560,5,2,1:2:0:0:
248,90,83764,2,0,P|215:96|169:126,1,70,2|8,0:0|0:0,0:0:0:0:
99,82,84172,2,0,P|112:31|112:-2,1,70,2|2,0:0|1:2,0:0:0:0:
190,119,84580,1,10,0:2:0:0:
132,238,84784,2,0,P|119:186|123:156,1,70,10|2,1:2|1:2,0:0:0:0:
190,119,85192,5,6,1:2:0:0:
39,149,85396,1,0,0:0:0:0:
190,119,85600,2,0,P|249:128|315:186,1,140,10|2,0:0|1:2,0:0:0:0:
428,124,86213,1,2,1:2:0:0:
352,85,86417,2,2,P|339:40|341:-7,1,70,8|2,0:0|0:0,0:0:0:0:
486,185,86825,6,0,P|468:295|437:336,1,140,2|10,1:2|0:0,0:0:0:0:
378,363,87437,2,0,L|361:275,1,70,2|0,0:0|0:0,0:0:0:0:
209,349,87845,1,10,0:2:0:0:
279,300,88049,2,0,P|290:260|296:212,1,70,10|2,1:2|0:0,0:0:0:0:
223,179,88458,6,0,B|149:179|173:212|89:212,1,140,2|10,1:2|0:0,0:0:0:0:
23,150,89070,1,0,0:0:0:0:
88,88,89274,2,0,P|123:87|159:99,1,70,2|0,1:2|0:0,0:0:0:0:
294,0,89682,1,8,0:0:0:0:
209,26,89886,1,2,0:0:0:0:
273,84,90090,6,0,P|281:158|276:226,1,140,2|10,1:2|0:0,0:0:0:0:
115,315,90702,1,0,0:0:0:0:
200,346,90907,2,0,P|192:272|197:204,1,140,2|10,1:2|1:2,0:0:0:0:
128,147,91519,6,0,P|59:152|13:203,1,140,2|2,0:0|0:0,0:0:0:0:
192,93,92131,2,0,P|208:52|213:9,1,70,10|0,0:0|0:0,0:0:0:0:
251,162,92539,1,2,1:2:0:0:
320,105,92743,2,0,P|391:127|429:184,1,140,2|2,1:2|0:0,0:0:0:0:
494,126,93355,6,0,P|494:87|483:43,1,70,2|0,1:2|0:0,0:0:0:0:
427,178,93764,1,10,0:0:0:0:
499,300,93968,2,0,P|497:277|513:212,1,70,0|2,0:0|1:2,0:0:0:0:
427,178,94376,1,10,0:2:0:0:
451,377,94580,1,10,1:2:0:0:
427,178,94784,1,2,0:0:0:0:
331,296,94988,6,0,P|293:301|284:303,1,35,2|0,0:0|0:0,0:0:0:0:
232,272,95396,1,2,0:0:0:0:
232,272,96009,6,0,P|194:277|185:279,1,35,2|0,0:0|0:0,0:0:0:0:
197,275,96621,6,2,B|165:277|140:264|140:264|130:273|130:273|95:272|77:284|77:284|83:248|130:244|130:244|143:249,1,210,2|10,0:0|1:2,0:0:0:0:
443,361,98253,6,0,P|450:278|476:183,1,167.999994873047,6|8,1:2|0:0,0:0:0:0:
264,14,99070,1,2,1:2:0:0:
304,172,99274,1,10,0:0:0:0:
264,14,99478,1,8,1:2:0:0:
350,96,99682,5,2,0:0:0:0:
304,172,99886,2,0,P|260:187|184:186,1,83.9999974365235,2|2,1:2|0:0,0:0:0:0:
49,145,100294,1,10,0:0:0:0:
122,76,100498,2,0,P|142:135|135:242,1,167.999994873047,2|10,0:0|1:2,0:0:0:0:
63,287,101111,1,14,1:2:0:0:
202,370,101315,1,2,0:0:0:0:
63,287,101519,5,6,1:2:0:0:
244,213,101723,1,2,0:0:0:0:
63,287,101927,1,10,0:0:0:0:
143,326,102131,1,2,0:0:0:0:
149,158,102335,2,0,P|135:193|135:240,1,83.9999974365235,2|10,1:2|0:0,0:0:0:0:
217,94,102743,1,8,1:2:0:0:
39,183,102947,1,2,0:0:0:0:
212,283,103151,6,0,P|290:277|331:273,1,83.9999974365235,2|2,1:2|0:0,0:0:0:0:
445,147,103560,1,10,0:0:0:0:
487,233,103764,2,0,P|398:225|333:174,1,167.999994873047,2|10,0:0|1:2,0:0:0:0:
237,15,104376,1,14,1:2:0:0:
304,78,104580,1,2,0:0:0:0:
221,109,104784,6,0,B|109:109|172:78|57:78,1,167.999994873047,6|10,1:2|0:0,0:0:0:0:
109,298,105396,1,2,0:0:0:0:
31,237,105600,2,0,B|143:237|80:206|195:206,1,167.999994873047,2|10,1:2|1:2,0:0:0:0:
355,75,106213,1,2,0:0:0:0:
294,11,106417,6,0,P|276:67|282:179,1,167.999994873047,6|10,1:2|0:0,0:0:0:0:
435,138,107029,1,2,0:0:0:0:
365,276,107233,2,0,P|370:223|357:176,1,83.9999974365235,2|10,1:2|0:2,0:0:0:0:
222,62,107641,1,10,1:2:0:0:
294,11,107845,1,2,0:0:0:0:
233,154,108049,6,0,P|164:153|84:68,1,167.999994873047,6|10,1:2|0:0,0:0:0:0:
12,60,108662,1,2,0:0:0:0:
3,148,108866,2,0,P|20:194|23:240,1,83.9999974365235,2|2,1:2|1:2,0:0:0:0:
90,289,109274,1,10,1:2:0:0:
12,60,109478,1,2,0:0:0:0:
18,358,109682,6,0,P|81:362|130:407,1,105.000004005432,6|0,1:2|0:0,0:0:0:0:
512,173,110090,2,0,P|476:200|393:198,1,105.000004005432,10|0,0:0|0:0,0:0:0:0:
219,73,110498,1,6,1:2:0:0:
309,349,110702,1,10,1:2:0:0:
319,3,110907,5,14,1:2:0:0:
200,359,111111,1,10,0:0:0:0:
200,359,111213,1,2,0:0:0:0:
200,359,111315,6,0,P|184:270|208:175,1,167.999994873047,6|10,1:2|0:0,0:0:0:0:
501,309,112131,1,2,1:2:0:0:
415,333,112335,1,10,0:0:0:0:
438,247,112539,1,8,1:2:0:0:
501,309,112743,5,2,0:0:0:0:
415,333,112947,2,0,P|372:327|331:322,1,83.9999974365235,2|2,1:2|0:0,0:0:0:0:
193,224,113355,1,10,0:0:0:0:
88,361,113560,2,0,P|180:351|241:287,1,167.999994873047,2|10,0:0|1:2,0:0:0:0:
292,131,114172,1,14,1:2:0:0:
193,224,114376,1,2,0:0:0:0:
333,259,114580,6,0,L|445:244,1,83.9999974365235,6|2,1:2|0:0,0:0:0:0:
499,287,114988,1,10,0:0:0:0:
390,81,115192,1,2,0:0:0:0:
262,189,115396,1,2,1:2:0:0:
416,247,115600,1,10,0:0:0:0:
474,91,115804,1,8,1:2:0:0:
320,33,116009,1,2,0:0:0:0:
333,259,116213,5,2,1:2:0:0:
390,81,116417,1,2,0:0:0:0:
207,121,116621,1,10,0:0:0:0:
308,160,116825,2,0,P|387:165|466:236,1,167.999994873047,2|10,0:0|1:2,0:0:0:0:
509,139,117437,1,14,1:2:0:0:
228,200,117641,1,2,0:0:0:0:
509,139,117845,6,0,P|492:55|430:-5,1,167.999994873047,6|10,1:2|0:0,0:0:0:0:
370,110,118458,1,2,0:0:0:0:
408,268,118662,2,0,P|436:203|421:152,1,105.000004005432,2|10,1:2|1:2,0:0:0:0:
294,51,119274,1,2,0:0:0:0:
207,79,119478,6,0,B|319:79|256:110|371:110,1,167.999994873047,6|10,1:2|0:0,0:0:0:0:
431,48,120090,1,2,0:0:0:0:
512,192,120294,2,0,P|506:150|491:112,1,83.9999974365235,2|10,1:2|0:2,0:0:0:0:
431,48,120702,1,10,1:2:0:0:
444,349,120907,1,2,0:0:0:0:
457,262,121111,6,0,P|347:244|256:344,1,245,6|2,1:2|0:0,0:0:0:0:
273,348,122743,6,0,P|297:316|297:272,1,52.5000020027161,6|0,1:2|0:0,0:0:0:0:
233,140,122947,1,0,3:0:0:0:
235,260,123151,6,0,P|214:225|173:209,1,52.5000020027161,10|0,0:2|0:0,0:0:0:0:
27,219,123355,1,0,3:0:0:0:
190,364,123560,5,6,1:2:0:0:
290,12,123764,1,10,1:2:0:0:
68,120,123968,5,14,1:2:0:0:
420,220,124172,1,10,0:0:0:0:
260,183,124376,6,0,P|252:144|253:105,1,78.7500030040742,6|0,1:2|0:0,0:0:0:70:cheers.wav
251,202,124784,6,0,P|189:201|151:162,1,105.000004005432,10|0,0:0|0:0,0:0:0:0:
158,174,125090,1,2,0:0:0:0:
158,174,125192,1,2,1:2:0:0:
337,87,125396,1,2,1:2:0:0:
302,336,125600,1,10,0:0:0:0:
483,202,125804,1,2,0:0:0:0:
483,202,125907,1,2,0:0:0:0:
483,202,126009,6,0,P|409:213|364:256,1,105.000004005432,2|2,1:2|0:0,0:0:0:0:
396,16,126315,1,2,0:0:0:0:
396,16,126417,2,0,P|425:61|420:125,1,105.000004005432,10|2,0:0|0:0,0:0:0:0:
251,275,126825,2,0,P|244:223|267:177,1,105.000004005432,2|10,1:2|0:0,0:0:0:0:
413,305,127233,1,10,1:2:0:0:
210,384,127437,1,2,0:0:0:0:
210,384,127539,1,2,0:0:0:0:
210,384,127641,6,0,B|70:385|146:337|3:337,1,210.000008010865,6|10,1:2|0:0,0:0:0:0:
281,198,128253,1,2,0:0:0:0:
281,198,128355,1,2,0:0:0:0:
281,198,128458,2,0,B|421:199|345:151|488:151,1,210.000008010865,2|10,1:2|0:0,0:0:0:0:
214,20,129070,1,2,0:0:0:0:
311,384,129274,6,0,P|336:338|337:286,1,105.000004005432,2|0,1:2|0:0,0:0:0:0:
217,160,129682,1,10,0:0:0:0:
152,357,129886,1,2,0:0:0:0:
152,357,129988,1,2,0:0:0:0:
152,357,130090,2,0,P|221:336|253:303,1,105.000004005432,2|10,1:2|0:0,0:0:0:0:
336,179,130498,1,10,1:2:0:0:
507,351,130702,1,2,0:0:0:0:
507,351,130804,1,2,0:0:0:0:
507,351,130907,6,0,P|451:282|322:297,1,210.000008010865,6|10,1:2|0:0,0:0:0:0:
426,57,131519,1,2,0:0:0:0:
426,57,131621,1,2,0:0:0:0:
426,57,131723,2,0,P|476:102|460:175,1,140,2|10,1:2|0:0,0:0:0:0:
389,235,132335,1,2,0:0:0:0:
389,235,132437,1,2,0:0:0:0:
389,235,132539,6,0,L|259:225,1,105,2|0,1:2|0:0,0:0:0:0:
205,187,132947,6,0,P|214:239|222:290,1,105.000004005432,10|0,0:0|0:0,0:0:0:0:
222,290,133253,1,2,0:0:0:0:
222,290,133355,1,2,1:2:0:0:
266,114,133560,1,10,0:0:0:0:
97,249,133764,1,10,1:2:0:0:
316,348,133968,1,2,0:0:0:0:
316,348,134070,1,2,0:0:0:0:
316,348,134172,6,0,P|366:354|444:393,1,105.000004005432,6|0,1:2|0:0,0:0:0:0:
508,157,134580,2,0,P|474:215|330:236,1,210.000008010865,10|2,0:0|1:2,0:0:0:0:
277,169,135192,1,2,1:2:0:0:
501,332,135396,1,10,0:0:0:0:
277,169,135600,2,0,L|268:90,1,52.5000020027161,2|2,0:0|0:0,0:0:0:0:
328,50,135804,6,0,P|459:27|477:24,1,105.000004005432,6|0,1:2|0:0,0:0:0:0:
70,298,136213,2,0,P|64:207|32:170,1,105.000004005432,6|0,1:2|0:0,0:0:0:0:
406,275,136621,1,6,1:2:0:0:
180,384,136825,1,10,1:2:0:0:
187,55,137029,5,14,1:2:0:0:
344,371,137233,1,2,0:0:0:0:
344,371,137335,1,2,0:0:0:0:
344,371,137437,6,0,P|385:371|432:386,1,78.7500030040742,6|0,1:2|0:0,0:0:0:0:
499,342,137845,6,0,P|495:292|459:247,1,105.000004005432,10|0,0:0|0:0,0:0:0:0:
462,249,138151,1,2,0:0:0:0:
462,249,138253,1,2,1:2:0:0:
245,159,138458,1,2,1:2:0:0:
465,64,138662,2,0,P|422:127|373:138,1,105.000004005432,10|0,0:0|0:0,0:0:0:0:
319,104,138968,1,2,0:0:0:0:
319,104,139070,6,0,L|295:-41,1,105.000004005432,2|2,1:2|0:0,0:0:0:0:
301,0,139376,1,2,0:0:0:0:
301,0,139478,1,10,0:0:0:0:
135,252,139682,1,2,0:0:0:0:
135,252,139784,1,0,0:0:0:0:
135,252,139886,2,0,P|194:261|247:283,1,105.000004005432,2|10,1:2|0:0,0:0:0:0:
309,205,140294,1,10,1:2:0:0:
53,306,140498,1,2,0:0:0:0:
53,306,140600,1,2,0:0:0:0:
53,306,140702,6,0,P|28:241|46:105,1,210.000008010865,6|10,1:2|0:0,0:0:0:0:
459,78,141315,1,2,0:0:0:0:
459,78,141417,1,2,0:0:0:0:
459,78,141519,2,0,P|484:143|466:279,1,210.000008010865,2|10,1:2|0:0,0:0:0:0:
394,331,142131,1,2,0:0:0:0:
374,103,142335,6,0,L|392:-9,1,105.000004005432,2|0,1:2|0:0,0:0:0:0:
465,279,142743,1,10,0:0:0:0:
251,230,142947,1,2,0:0:0:0:
251,230,143049,1,2,0:0:0:0:
251,230,143151,2,0,P|298:207|365:213,1,105.000004005432,2|10,1:2|0:0,0:0:0:0:
126,114,143560,1,10,1:2:0:0:
204,345,143764,1,2,0:0:0:0:
204,345,143866,1,2,0:0:0:0:
204,344,143968,6,0,P|102:342|46:258,1,210.000008010865,6|10,1:2|0:0,0:0:0:0:
193,64,144580,1,2,0:0:0:0:
193,64,144682,1,2,0:0:0:0:
193,64,144784,2,0,P|179:129|116:150,1,140,2|10,1:2|0:0,0:0:0:0:
39,105,145396,1,2,0:0:0:0:
39,105,145498,1,2,0:0:0:0:
39,105,145600,6,0,L|24:-9,1,105,2|0,1:2|0:0,0:0:0:0:
37,0,146009,6,0,P|98:20|131:86,1,105.000004005432,10|0,0:0|0:0,0:0:0:0:
121,51,146315,1,2,0:0:0:0:
127,57,146417,1,2,1:2:0:0:
336,156,146621,1,10,0:0:0:0:
132,265,146825,1,10,1:2:0:0:
220,12,147029,1,2,0:0:0:0:
220,12,147131,1,2,0:0:0:0:
220,12,147233,6,0,P|243:58|245:110,1,105.000004005432,6|0,1:2|0:0,0:0:0:0:
37,358,147641,2,0,P|5:264|83:151,1,210.000008010865,10|2,0:0|1:2,0:0:0:0:
345,261,148253,1,2,1:2:0:0:
170,360,148458,1,10,0:0:0:0:
345,261,148662,2,0,L|428:273,1,52.5000020027161,2|2,0:0|0:0,0:0:0:0:
467,214,148866,6,0,P|467:161|418:100,1,105.000004005432,6|0,1:2|0:0,0:0:0:0:
11,270,149274,2,0,P|92:254|128:205,1,105.000004005432,6|0,1:2|0:0,0:0:0:0:
400,377,149682,1,6,1:2:0:0:
136,348,149886,1,10,1:2:0:0:
331,58,150090,5,14,1:2:0:0:
260,384,150294,1,2,0:0:0:0:
320,308,150498,5,2,1:2:0:0:
192,76,150907,1,8,0:0:0:0:
383,228,151315,5,0,1:0:0:0:
256,192,151519,1,0,1:0:0:0:
128,155,151723,1,8,0:0:0:0:
372,128,152131,5,2,1:2:0:0:
140,256,152539,1,8,0:0:0:0:
292,64,152947,5,0,1:0:0:0:
256,192,153151,1,0,1:0:0:0:
219,319,153355,1,8,0:0:0:0:
372,128,153764,5,2,1:2:0:0:
140,256,154172,1,8,0:0:0:0:
383,228,154580,5,0,1:0:0:0:
256,192,154784,1,0,1:0:0:0:
128,155,154988,1,8,0:0:0:0:
320,308,155396,5,2,1:2:0:0:
192,76,155804,1,8,0:0:0:0:
219,319,156213,5,0,1:0:0:0:
256,192,156417,1,0,1:0:0:0:
292,64,156621,1,8,0:0:0:0:
446,306,157029,5,2,1:2:0:0:
398,47,157437,1,8,0:0:0:0:
66,306,157845,5,0,1:0:0:0:
88,176,158049,1,0,1:0:0:0:
114,47,158253,1,8,0:0:0:0:
446,306,158662,5,2,1:2:0:0:
398,47,159070,1,8,0:0:0:0:
66,306,159478,5,0,1:0:0:0:
88,176,159682,1,0,1:0:0:0:
114,47,159886,1,8,0:0:0:0:
100,320,161927,5,2,0:0:0:0:
100,320,162335,1,2,0:0:0:0:
100,320,162743,5,0,3:0:0:0:
60,251,162947,5,8,3:0:0:0:
81,154,163151,5,12,3:0:0:0:
160,80,163355,5,8,3:0:0:0:
296,34,163560,6,0,B|408:34|345:3|460:3,1,167.999994873047,6|10,1:2|0:0,0:0:0:0:
238,322,164376,1,2,1:2:0:0:
194,185,164580,1,10,0:0:0:0:
330,142,164784,1,8,1:2:0:0:
374,278,164988,5,2,0:0:0:0:
442,224,165192,2,0,P|484:241|516:272,1,83.9999974365235,2|2,1:2|0:0,0:0:0:0:
330,142,165600,1,10,0:0:0:0:
479,97,165804,2,0,P|424:176|348:212,1,167.999994873047,2|10,0:0|1:2,0:0:0:0:
252,156,166417,1,14,1:2:0:0:
275,323,166621,1,2,0:0:0:0:
275,323,166723,1,2,0:0:0:0:
275,323,166825,6,0,P|287:256|284:209,1,83.9999974365235,6|2,1:2|0:0,0:0:0:0:
101,116,167233,1,10,0:0:0:0:
144,267,167437,1,2,0:0:0:0:
394,214,167641,1,2,1:2:0:0:
352,62,167845,1,10,0:0:0:0:
269,101,168049,1,8,1:2:0:0:
351,153,168253,1,2,0:0:0:0:
352,62,168458,5,2,1:2:0:0:
184,191,168662,1,2,0:0:0:0:
184,191,168764,1,2,0:0:0:0:
184,191,168866,1,10,0:0:0:0:
309,338,169070,2,0,P|316:246|280:170,1,167.999994873047,2|10,0:0|1:2,0:0:0:0:
223,363,169682,1,14,1:2:0:0:
148,307,169886,1,2,0:0:0:0:
148,307,169988,1,2,0:0:0:0:
148,307,170090,6,0,P|65:314|0:365,1,167.999994873047,6|10,1:2|0:0,0:0:0:0:
201,233,170702,1,2,0:0:0:0:
43,125,170907,2,0,P|73:169|140:197,1,105.000004005432,2|10,1:2|1:2,0:0:0:0:
331,87,171519,1,2,0:0:0:0:
269,14,171723,6,0,P|220:41|190:159,1,167.999994873047,6|10,1:2|0:0,0:0:0:0:
285,280,172335,1,2,0:0:0:0:
285,280,172437,1,2,0:0:0:0:
285,280,172539,2,0,P|282:218|260:180,1,83.9999974365235,2|10,1:2|0:2,0:0:0:0:
194,257,172947,1,10,1:2:0:0:
374,221,173151,1,2,0:0:0:0:
374,221,173253,1,2,0:0:0:0:
374,221,173355,6,0,P|404:145|393:38,1,167.999994873047,6|10,1:2|0:0,0:0:0:0:
326,6,173968,1,2,0:0:0:0:
326,6,174070,1,2,0:0:0:0:
326,6,174172,1,2,1:2:0:0:
285,243,174376,1,2,1:2:0:0:
497,165,174580,1,10,0:0:0:0:
304,113,174784,1,2,0:0:0:0:
304,113,174886,1,2,0:0:0:0:
304,113,174988,6,0,L|171:128,1,105.000004005432,6|0,1:2|0:0,0:0:0:0:
494,379,175396,2,0,P|497:315|522:258,1,105.000004005432,10|0,0:0|0:0,0:0:0:0:
240,334,175804,1,6,1:2:0:0:
417,60,176009,1,10,1:2:0:0:
362,374,176213,5,14,1:2:0:0:
292,2,176417,1,10,0:0:0:0:
42,219,176621,6,0,B|154:219|91:188|206:188,1,167.999994873047,6|10,1:2|0:0,0:0:0:0:
281,140,177233,1,2,0:0:0:0:
281,140,177335,1,2,0:0:0:0:
281,140,177437,2,0,P|264:80|241:46,1,83.9999974365235,2|2,1:2|1:2,0:0:0:0:
205,189,177845,1,10,0:0:0:0:
294,238,178049,1,2,0:0:0:0:
294,238,178151,1,2,0:0:0:0:
294,238,178253,6,0,P|341:226|390:175,1,83.9999974365235,2|0,1:2|0:0,0:0:0:0:
432,44,178662,2,0,P|421:79|418:148,1,83.9999974365235,10|0,0:0|0:0,0:0:0:0:
487,191,179070,1,2,1:2:0:0:
512,0,179274,1,10,0:2:0:0:
335,88,179478,2,0,P|278:88|206:53,1,125.999996154785,10|0,1:2|0:0,0:0:0:0:
143,10,179886,6,0,P|175:50|167:172,1,167.999994873047,6|10,1:2|0:0,0:0:0:0:
98,217,180498,1,2,0:0:0:0:
98,217,180600,1,2,0:0:0:0:
98,217,180702,2,0,L|-4:236,1,83.9999974365235,2|2,1:2|1:2,0:0:0:0:
45,140,181111,1,10,0:0:0:0:
171,275,181315,1,2,0:0:0:0:
171,275,181417,1,2,0:0:0:0:
171,275,181519,6,0,P|130:351|35:370,1,167.999994873047,2|10,1:2|0:0,0:0:0:0:
0,309,182131,1,2,0:0:0:0:
0,309,182233,1,2,0:0:0:0:
0,309,182335,1,2,1:2:0:0:
224,372,182539,1,10,0:2:0:0:
123,153,182743,2,0,P|102:184|99:287,1,125.999996154785,10|0,1:2|0:0,0:0:0:0:
152,334,183151,6,0,B|264:334|201:303|316:303,1,167.999994873047,6|10,1:2|0:0,0:0:0:0:
404,334,183764,2,0,P|390:298|385:240,1,83.9999974365235,2|0,0:0|0:0,0:0:0:0:
469,277,184172,1,2,1:2:0:0:
469,112,184376,2,0,P|455:151|452:193,1,83.9999974365235,10|0,0:0|0:0,0:0:0:0:
367,162,184784,6,0,P|324:172|284:197,1,83.9999974365235,2|0,1:2|0:0,0:0:0:0:
71,51,185192,2,0,P|127:78|171:78,1,83.9999974365235,10|0,0:0|0:0,0:0:0:0:
221,25,185600,1,2,1:2:0:0:
158,185,185804,1,10,0:2:0:0:
221,25,186009,2,0,P|283:54|301:113,1,125.999996154785,10|0,1:2|0:0,0:0:0:0:
367,162,186417,6,0,P|436:152|502:60,1,167.999994873047,6|10,1:2|0:0,0:0:0:0:
438,19,187029,1,2,0:0:0:0:
438,19,187131,1,2,0:0:0:0:
438,19,187233,2,0,P|392:28|341:37,1,83.9999974365235,2|2,1:2|1:2,0:0:0:0:
208,112,187641,1,10,0:0:0:0:
293,178,187845,2,0,P|293:155|303:113,2,41.9999987182618,2|2|2,0:0|0:0|1:2,0:0:0:0:
409,343,188253,5,2,1:2:0:0:
413,335,188458,1,10,1:2:0:0:
417,327,188662,1,2,1:2:0:0:
421,319,188866,5,6,1:2:0:0:
216,352,189070,1,10,1:2:0:0:
296,377,189274,5,14,1:2:0:0:
91,344,189478,2,0,P|17:357|-24:367,1,83.9999974365235,2|0,0:0|0:0,0:0:0:0:
256,192,189784,12,0,191315,0:0:0:0:
