osu file format v14

[General]
AudioFilename: audio.mp3
AudioLeadIn: 0
PreviewTime: -1
Countdown: 1
SampleSet: Normal
StackLeniency: 0.7
Mode: 0
LetterboxInBreaks: 0
WidescreenStoryboard: 0

[Editor]
Bookmarks: 39
DistanceSpacing: 0.8
BeatDivisor: 1
GridSize: 32
TimelineZoom: 1

[Metadata]
Title:Enemy
TitleUnicode:Enemy
Artist:Drowning Pool
ArtistUnicode:Drowning Pool
Creator:Tojfel11
Version:Insane
Source:
Tags:
BeatmapID:1085907
BeatmapSetID:510763

[Difficulty]
HPDrainRate:7
CircleSize:4
OverallDifficulty:9
ApproachRate:9.5
SliderMultiplier:1.4
SliderTickRate:1

[Events]
//Background and Video events
//Break Periods
//Storyboard Layer 0 (Background)
//Storyboard Layer 1 (Fail)
//Storyboard Layer 2 (Pass)
//Storyboard Layer 3 (Foreground)
//Storyboard Sound Samples

[TimingPoints]
39.1709147792201,333.333333333333,4,1,0,100,1,0

[HitObjects]
64,32,9039,5,0,0:0:0:0:
224,352,9372,1,8,0:0:0:0:
192,32,9705,1,8,0:0:0:0:
480,96,10039,1,8,0:0:0:0:
256,320,10372,1,8,0:0:0:0:
96,224,10705,1,0,0:0:0:0:
256,96,11039,1,0,0:0:0:0:
288,256,11372,1,0,0:0:0:0:
64,96,11705,1,0,0:0:0:0:
192,320,12039,1,0,0:0:0:0:
64,64,12372,1,0,0:0:0:0:
384,96,12705,1,0,0:0:0:0:
224,352,13039,1,0,0:0:0:0:
384,96,13372,1,8,0:0:0:0:
256,320,13705,1,0,0:0:0:0:
64,160,14039,1,0,0:0:0:0:
288,320,14372,1,8,0:0:0:0:
96,160,14705,1,0,0:0:0:0:
352,32,15039,1,0,0:0:0:0:
288,320,15372,1,0,0:0:0:0:
384,64,15705,1,0,0:0:0:0:
448,64,16039,1,8,0:0:0:0:
96,96,16372,1,8,0:0:0:0:
96,96,16705,1,8,0:0:0:0:
96,96,17039,1,8,0:0:0:0:
96,96,17372,1,8,0:0:0:0:
96,96,17705,1,8,0:0:0:0:
96,96,18039,1,8,0:0:0:0:
288,224,18705,1,0,0:0:0:0:
288,64,19039,1,0,0:0:0:0:
320,256,19372,1,0,0:0:0:0:
96,256,19705,1,0,0:0:0:0:
224,160,20039,1,0,0:0:0:0:
96,96,20705,1,0,0:0:0:0:
352,96,21039,1,0,0:0:0:0:
288,288,21372,1,0,0:0:0:0:
128,256,21705,1,0,0:0:0:0:
192,64,22039,1,0,0:0:0:0:
96,64,23372,1,0,0:0:0:0:
320,288,23705,1,0,0:0:0:0:
128,256,24039,1,0,0:0:0:0:
64,32,24372,1,0,0:0:0:0:
352,320,24705,1,0,0:0:0:0:
416,64,25039,1,0,0:0:0:0:
416,64,25372,1,0,0:0:0:0:
416,64,25705,1,0,0:0:0:0:
416,64,26372,1,0,0:0:0:0:
96,64,27705,1,0,0:0:0:0:
288,256,28039,1,0,0:0:0:0:
384,64,28372,1,0,0:0:0:0:
64,128,28705,1,0,0:0:0:0:
64,64,29705,1,0,0:0:0:0:
160,320,30039,1,0,0:0:0:0:
352,160,30705,2,0,B|192:32|128:32|128:64|96:64|96:96,1,280
96,64,32039,1,0,0:0:0:0:
320,128,32372,1,0,0:0:0:0:
352,96,33039,1,0,0:0:0:0:
32,128,33372,1,0,0:0:0:0:
96,96,34039,1,0,0:0:0:0:
32,128,34372,1,0,0:0:0:0:
384,96,34705,1,0,0:0:0:0:
0,128,35039,1,0,0:0:0:0:
416,96,35372,1,0,0:0:0:0:
96,128,36705,1,0,0:0:0:0:
416,128,37039,1,0,0:0:0:0:
32,192,37705,1,0,0:0:0:0:
416,128,38039,1,0,0:0:0:0:
64,64,38705,1,0,0:0:0:0:
288,352,39039,1,0,0:0:0:0:
64,32,41039,1,0,0:0:0:0:
288,320,41372,1,0,0:0:0:0:
416,64,41705,1,0,0:0:0:0:
128,128,42039,1,0,0:0:0:0:
224,288,42705,1,0,0:0:0:0:
384,128,43039,1,0,0:0:0:0:
160,64,43705,1,0,0:0:0:0:
96,64,45372,1,0,0:0:0:0:
224,288,46039,1,0,0:0:0:0:
384,96,47039,1,0,0:0:0:0:
128,96,47372,1,0,0:0:0:0:
96,256,48039,1,0,0:0:0:0:
224,96,49705,1,8,0:0:0:0:
224,128,50039,1,8,0:0:0:0:
256,96,50372,1,8,0:0:0:0:
256,96,50705,1,8,0:0:0:0:
192,160,51039,1,8,0:0:0:0:
288,224,51372,1,8,0:0:0:0:
320,96,51705,1,8,0:0:0:0:
96,192,52039,1,8,0:0:0:0:
256,288,52372,1,8,0:0:0:0:
384,192,52705,1,8,0:0:0:0:
96,128,53039,1,8,0:0:0:0:
160,256,53372,1,8,0:0:0:0:
320,256,53705,1,8,0:0:0:0:
352,160,54039,1,8,0:0:0:0:
96,128,54705,1,8,0:0:0:0:
448,64,55372,1,0,0:0:0:0:
96,320,55705,1,0,0:0:0:0:
96,64,56039,1,0,0:0:0:0:
384,96,56705,1,0,0:0:0:0:
128,160,57039,1,0,0:0:0:0:
352,96,58372,1,0,0:0:0:0:
96,224,58705,1,0,0:0:0:0:
384,224,59039,1,0,0:0:0:0:
128,128,59372,1,0,0:0:0:0:
384,96,59705,1,0,0:0:0:0:
384,96,60705,1,0,0:0:0:0:
64,224,61039,1,0,0:0:0:0:
416,160,61372,1,0,0:0:0:0:
320,288,61705,1,0,0:0:0:0:
64,32,62705,1,0,0:0:0:0:
416,320,63039,1,0,0:0:0:0:
96,352,63372,1,0,0:0:0:0:
64,32,63705,1,0,0:0:0:0:
96,64,65039,1,0,0:0:0:0:
384,96,65372,1,0,0:0:0:0:
160,320,65705,1,0,0:0:0:0:
128,128,66039,1,8,0:0:0:0:
64,32,66705,1,0,0:0:0:0:
384,384,67039,1,0,0:0:0:0:
128,128,67372,1,0,0:0:0:0:
384,96,67705,1,0,0:0:0:0:
288,320,68039,1,8,0:0:0:0:
96,320,68372,1,8,0:0:0:0:
320,128,69372,1,0,0:0:0:0:
160,320,69705,1,0,0:0:0:0:
416,64,70372,1,0,0:0:0:0:
320,352,70705,1,0,0:0:0:0:
96,288,71372,1,0,0:0:0:0:
352,96,71705,1,0,0:0:0:0:
128,224,72039,1,8,0:0:0:0:
384,128,72372,1,8,0:0:0:0:
224,320,72705,1,8,0:0:0:0:
192,96,73039,1,0,0:0:0:0:
384,192,73372,1,0,0:0:0:0:
320,320,73705,1,0,0:0:0:0:
96,128,74372,1,8,0:0:0:0:
256,96,74705,1,8,0:0:0:0:
416,160,75039,1,8,0:0:0:0:
352,256,75372,1,8,0:0:0:0:
224,288,75705,1,8,0:0:0:0:
64,192,76039,1,8,0:0:0:0:
128,64,76372,1,8,0:0:0:0:
288,64,76705,1,8,0:0:0:0:
352,224,77039,1,8,0:0:0:0:
256,288,77372,1,0,0:0:0:0:
160,288,77705,1,0,0:0:0:0:
96,192,78039,1,0,0:0:0:0:
128,128,78372,1,0,0:0:0:0:
160,64,78705,1,0,0:0:0:0:
256,64,79039,1,0,0:0:0:0:
320,96,79372,1,0,0:0:0:0:
320,160,79705,1,8,0:0:0:0:
224,256,80039,1,8,0:0:0:0:
160,192,80372,1,8,0:0:0:0:
192,160,80705,1,0,0:0:0:0:
256,160,81039,1,0,0:0:0:0:
288,224,81372,1,0,0:0:0:0:
224,256,81705,1,0,0:0:0:0:
192,224,82039,1,0,0:0:0:0:
96,96,82705,1,0,0:0:0:0:
352,96,83039,1,0,0:0:0:0:
96,224,83372,1,0,0:0:0:0:
352,256,84372,1,8,0:0:0:0:
352,128,84705,1,8,0:0:0:0:
160,128,85039,1,8,0:0:0:0:
192,256,85372,1,8,0:0:0:0:
320,288,85705,1,8,0:0:0:0:
480,32,87039,1,0,0:0:0:0:
64,64,87372,1,0,0:0:0:0:
352,288,87705,1,0,0:0:0:0:
416,64,88039,1,0,0:0:0:0:
96,352,88372,1,0,0:0:0:0:
0,0,88705,1,0,0:0:0:0:
384,320,89039,1,0,0:0:0:0:
480,32,89372,1,0,0:0:0:0:
96,128,89705,1,0,0:0:0:0:
64,32,90039,1,0,0:0:0:0:
352,256,90372,1,0,0:0:0:0:
