osu file format v14

[General]
AudioFilename: audio.mp3
AudioLeadIn: 0
PreviewTime: -1
Countdown: 1
SampleSet: None
StackLeniency: 0.7
Mode: 3
LetterboxInBreaks: 0
SpecialStyle: 0
WidescreenStoryboard: 0

[Editor]
DistanceSpacing: 0.8
BeatDivisor: 4
GridSize: 8
TimelineZoom: 1

[Metadata]
Title:Rupture
TitleUnicode:Rupture
Artist:Droptek
ArtistUnicode:Droptek
Creator:StellarJay
Version:Gravitational Disruption
Source:Monstercat
Tags:Drum 'n bass, Monstercat
BeatmapID:1047495
BeatmapSetID:491579

[Difficulty]
HPDrainRate:9
CircleSize:4
OverallDifficulty:5
ApproachRate:5
SliderMultiplier:1.10000000596046
SliderTickRate:1

[Events]
//Background and Video events
0,0,"117633_CaLKNvgCPJ_brofist_from_god_by_kuldarleemen.jpg",0,0
//Break Periods
//Storyboard Layer 0 (Background)
//Storyboard Layer 1 (Fail)
//Storyboard Layer 2 (Pass)
//Storyboard Layer 3 (Foreground)
//Storyboard Sound Samples

[TimingPoints]
143.887443916343,172.354360565322,4,1,0,100,1,0

[HitObjects]
64,192,100,5,0,0:0:0:0:
320,192,100,1,0,0:0:0:0:
192,192,100,1,0,0:0:0:0:
448,192,100,1,0,0:0:0:0:
448,192,445,1,0,0:0:0:0:
192,192,445,1,0,0:0:0:0:
448,192,660,1,0,0:0:0:0:
320,192,660,1,0,0:0:0:0:
448,192,790,1,0,0:0:0:0:
192,192,790,1,0,0:0:0:0:
64,192,962,1,0,0:0:0:0:
320,192,962,1,0,0:0:0:0:
192,192,962,1,0,0:0:0:0:
192,192,1134,1,0,0:0:0:0:
448,192,1134,1,0,0:0:0:0:
320,192,1307,1,0,0:0:0:0:
64,192,1307,1,0,0:0:0:0:
448,192,1479,1,0,0:0:0:0:
320,192,1479,1,0,0:0:0:0:
192,192,1479,1,0,0:0:0:0:
64,192,1479,1,0,0:0:0:0:
64,192,1824,1,0,0:0:0:0:
320,192,1824,1,0,0:0:0:0:
192,192,1996,1,0,0:0:0:0:
320,192,1996,1,0,0:0:0:0:
192,192,2169,1,0,0:0:0:0:
448,192,2169,1,0,0:0:0:0:
64,192,2341,1,0,0:0:0:0:
192,192,2341,1,0,0:0:0:0:
448,192,2341,1,0,0:0:0:0:
320,192,2513,1,0,0:0:0:0:
192,192,2513,1,0,0:0:0:0:
448,192,2686,1,0,0:0:0:0:
64,192,2686,1,0,0:0:0:0:
448,192,2858,1,0,0:0:0:0:
320,192,2858,1,0,0:0:0:0:
192,192,2858,1,0,0:0:0:0:
64,192,2858,1,0,0:0:0:0:
192,192,3203,1,0,0:0:0:0:
320,192,3203,1,0,0:0:0:0:
64,192,3375,1,0,0:0:0:0:
192,192,3375,1,0,0:0:0:0:
192,192,3547,1,0,0:0:0:0:
448,192,3547,1,0,0:0:0:0:
448,192,3677,1,0,0:0:0:0:
64,192,3677,1,0,0:0:0:0:
320,192,3677,1,0,0:0:0:0:
64,192,3892,1,0,0:0:0:0:
320,192,3892,1,0,0:0:0:0:
192,192,4064,1,0,0:0:0:0:
448,192,4064,1,0,0:0:0:0:
448,192,4280,1,0,0:0:0:0:
320,192,4280,1,0,0:0:0:0:
192,192,4280,1,0,0:0:0:0:
64,192,4280,1,0,0:0:0:0:
448,192,4582,1,0,0:0:0:0:
192,192,4582,1,0,0:0:0:0:
320,192,4754,1,0,0:0:0:0:
64,192,4754,1,0,0:0:0:0:
448,192,4926,1,0,0:0:0:0:
192,192,4926,1,0,0:0:0:0:
192,192,5099,1,0,0:0:0:0:
64,192,5099,1,0,0:0:0:0:
320,192,5099,1,0,0:0:0:0:
448,192,5271,1,0,0:0:0:0:
320,192,5271,1,0,0:0:0:0:
192,192,5443,1,0,0:0:0:0:
64,192,5443,1,0,0:0:0:0:
448,192,5616,1,0,0:0:0:0:
320,192,5616,1,0,0:0:0:0:
192,192,5616,1,0,0:0:0:0:
64,192,5616,1,0,0:0:0:0:
192,192,5960,1,0,0:0:0:0:
320,192,5960,1,0,0:0:0:0:
448,192,6133,1,0,0:0:0:0:
64,192,6133,1,0,0:0:0:0:
320,192,6305,1,0,0:0:0:0:
192,192,6305,1,0,0:0:0:0:
64,192,6477,1,0,0:0:0:0:
192,192,6477,1,0,0:0:0:0:
448,192,6477,1,0,0:0:0:0:
448,192,6650,1,0,0:0:0:0:
192,192,6650,1,0,0:0:0:0:
64,192,6822,1,0,0:0:0:0:
320,192,6822,1,0,0:0:0:0:
64,192,6994,1,0,0:0:0:0:
192,192,6994,1,0,0:0:0:0:
320,192,6994,1,0,0:0:0:0:
448,192,6994,1,0,0:0:0:0:
192,192,7339,1,0,0:0:0:0:
64,192,7339,1,0,0:0:0:0:
192,192,7512,1,0,0:0:0:0:
448,192,7512,1,0,0:0:0:0:
320,192,7684,1,0,0:0:0:0:
64,192,7684,1,0,0:0:0:0:
448,192,7856,1,0,0:0:0:0:
320,192,7856,1,0,0:0:0:0:
64,192,7856,1,0,0:0:0:0:
192,192,8029,1,0,0:0:0:0:
64,192,8029,1,0,0:0:0:0:
320,192,8201,1,0,0:0:0:0:
448,192,8201,1,0,0:0:0:0:
64,192,8373,1,0,0:0:0:0:
192,192,8373,1,0,0:0:0:0:
320,192,8373,1,0,0:0:0:0:
448,192,8373,1,0,0:0:0:0:
448,192,8718,1,0,0:0:0:0:
320,192,8718,1,0,0:0:0:0:
192,192,8890,1,0,0:0:0:0:
64,192,8890,1,0,0:0:0:0:
64,192,9063,1,0,0:0:0:0:
192,192,9063,1,0,0:0:0:0:
448,192,9235,1,0,0:0:0:0:
192,192,9235,1,0,0:0:0:0:
320,192,9235,1,0,0:0:0:0:
64,192,9407,1,0,0:0:0:0:
320,192,9407,1,0,0:0:0:0:
192,192,9580,1,0,0:0:0:0:
448,192,9580,1,0,0:0:0:0:
64,192,9752,1,0,0:0:0:0:
192,192,9752,1,0,0:0:0:0:
320,192,9752,1,0,0:0:0:0:
448,192,9752,1,0,0:0:0:0:
192,192,10097,1,0,0:0:0:0:
64,192,10097,1,0,0:0:0:0:
192,192,10312,1,0,0:0:0:0:
448,192,10312,1,0,0:0:0:0:
192,192,10442,1,0,0:0:0:0:
448,192,10442,1,0,0:0:0:0:
448,192,10614,1,0,0:0:0:0:
320,192,10614,1,0,0:0:0:0:
64,192,10614,1,0,0:0:0:0:
64,192,10786,1,0,0:0:0:0:
320,192,10786,1,0,0:0:0:0:
192,192,10959,1,0,0:0:0:0:
448,192,10959,1,0,0:0:0:0:
64,192,11174,5,0,0:0:0:0:
192,192,11174,1,0,0:0:0:0:
320,192,11174,1,0,0:0:0:0:
448,192,11174,1,0,0:0:0:0:
448,192,11519,1,0,0:0:0:0:
192,192,11519,1,0,0:0:0:0:
448,192,11734,1,0,0:0:0:0:
320,192,11734,1,0,0:0:0:0:
448,192,11863,1,0,0:0:0:0:
192,192,11863,1,0,0:0:0:0:
64,192,12036,1,0,0:0:0:0:
320,192,12036,1,0,0:0:0:0:
192,192,12036,1,0,0:0:0:0:
192,192,12208,1,0,0:0:0:0:
448,192,12208,1,0,0:0:0:0:
320,192,12381,1,0,0:0:0:0:
64,192,12381,1,0,0:0:0:0:
448,192,12553,1,0,0:0:0:0:
320,192,12553,1,0,0:0:0:0:
192,192,12553,1,0,0:0:0:0:
64,192,12553,1,0,0:0:0:0:
64,192,12898,1,0,0:0:0:0:
320,192,12898,1,0,0:0:0:0:
192,192,13070,1,0,0:0:0:0:
448,192,13070,1,0,0:0:0:0:
192,192,13242,1,0,0:0:0:0:
448,192,13242,1,0,0:0:0:0:
64,192,13415,1,0,0:0:0:0:
192,192,13415,1,0,0:0:0:0:
448,192,13415,1,0,0:0:0:0:
320,192,13587,1,0,0:0:0:0:
192,192,13587,1,0,0:0:0:0:
448,192,13759,1,0,0:0:0:0:
64,192,13759,1,0,0:0:0:0:
448,192,13932,1,0,0:0:0:0:
320,192,13932,1,0,0:0:0:0:
192,192,13932,1,0,0:0:0:0:
64,192,13932,1,0,0:0:0:0:
192,192,14276,1,0,0:0:0:0:
320,192,14276,1,0,0:0:0:0:
64,192,14449,1,0,0:0:0:0:
320,192,14449,1,0,0:0:0:0:
192,192,14621,1,0,0:0:0:0:
448,192,14621,1,0,0:0:0:0:
448,192,14750,1,0,0:0:0:0:
64,192,14750,1,0,0:0:0:0:
320,192,14750,1,0,0:0:0:0:
64,192,14966,1,0,0:0:0:0:
320,192,14966,1,0,0:0:0:0:
192,192,15138,1,0,0:0:0:0:
448,192,15138,1,0,0:0:0:0:
448,192,15354,1,0,0:0:0:0:
320,192,15354,1,0,0:0:0:0:
192,192,15354,1,0,0:0:0:0:
64,192,15354,1,0,0:0:0:0:
448,192,15655,1,0,0:0:0:0:
192,192,15655,1,0,0:0:0:0:
320,192,15828,1,0,0:0:0:0:
192,192,15828,1,0,0:0:0:0:
448,192,16000,1,0,0:0:0:0:
64,192,16000,1,0,0:0:0:0:
192,192,16172,1,0,0:0:0:0:
64,192,16172,1,0,0:0:0:0:
320,192,16172,1,0,0:0:0:0:
448,192,16345,1,0,0:0:0:0:
320,192,16345,1,0,0:0:0:0:
192,192,16517,1,0,0:0:0:0:
64,192,16517,1,0,0:0:0:0:
448,192,16689,1,0,0:0:0:0:
320,192,16689,1,0,0:0:0:0:
192,192,16689,1,0,0:0:0:0:
64,192,16689,1,0,0:0:0:0:
192,192,17034,1,0,0:0:0:0:
320,192,17034,1,0,0:0:0:0:
448,192,17163,1,0,0:0:0:0:
64,192,17163,1,0,0:0:0:0:
448,192,17336,1,0,0:0:0:0:
64,192,17336,1,0,0:0:0:0:
64,192,17551,1,0,0:0:0:0:
192,192,17551,1,0,0:0:0:0:
448,192,17551,1,0,0:0:0:0:
448,192,17724,1,0,0:0:0:0:
192,192,17724,1,0,0:0:0:0:
320,192,17853,1,0,0:0:0:0:
64,192,17853,1,0,0:0:0:0:
64,192,18068,1,0,0:0:0:0:
192,192,18068,1,0,0:0:0:0:
320,192,18068,1,0,0:0:0:0:
448,192,18068,1,0,0:0:0:0:
192,192,18413,1,0,0:0:0:0:
64,192,18413,1,0,0:0:0:0:
320,192,18542,1,0,0:0:0:0:
448,192,18542,1,0,0:0:0:0:
320,192,18715,1,0,0:0:0:0:
64,192,18715,1,0,0:0:0:0:
448,192,18930,1,0,0:0:0:0:
320,192,18930,1,0,0:0:0:0:
64,192,18930,1,0,0:0:0:0:
192,192,19102,1,0,0:0:0:0:
64,192,19102,1,0,0:0:0:0:
320,192,19232,1,0,0:0:0:0:
448,192,19232,1,0,0:0:0:0:
64,192,19447,1,0,0:0:0:0:
192,192,19447,1,0,0:0:0:0:
320,192,19447,1,0,0:0:0:0:
448,192,19447,1,0,0:0:0:0:
448,192,19792,1,0,0:0:0:0:
320,192,19792,1,0,0:0:0:0:
64,192,19921,1,0,0:0:0:0:
192,192,19921,1,0,0:0:0:0:
64,192,20093,1,0,0:0:0:0:
320,192,20093,1,0,0:0:0:0:
448,192,20309,1,0,0:0:0:0:
192,192,20309,1,0,0:0:0:0:
320,192,20309,1,0,0:0:0:0:
64,192,20481,1,0,0:0:0:0:
320,192,20481,1,0,0:0:0:0:
448,192,20610,1,0,0:0:0:0:
192,192,20610,1,0,0:0:0:0:
64,192,20826,1,0,0:0:0:0:
192,192,20826,1,0,0:0:0:0:
320,192,20826,1,0,0:0:0:0:
448,192,20826,1,0,0:0:0:0:
192,192,21171,1,0,0:0:0:0:
64,192,21171,1,0,0:0:0:0:
192,192,21300,1,0,0:0:0:0:
320,192,21300,1,0,0:0:0:0:
192,192,21472,1,0,0:0:0:0:
448,192,21472,1,0,0:0:0:0:
448,192,21688,1,0,0:0:0:0:
320,192,21688,1,0,0:0:0:0:
64,192,21688,1,0,0:0:0:0:
64,192,21860,1,0,0:0:0:0:
320,192,21860,1,0,0:0:0:0:
192,192,21989,1,0,0:0:0:0:
448,192,21989,1,0,0:0:0:0:
448,192,22162,1,0,0:0:0:0:
320,192,22162,1,0,0:0:0:0:
192,192,22162,1,0,0:0:0:0:
64,192,22162,128,0,22506:0:0:0:0:
448,192,22506,1,0,0:0:0:0:
192,192,22506,1,0,0:0:0:0:
320,192,22636,1,0,0:0:0:0:
448,192,22636,1,0,0:0:0:0:
192,192,22722,1,0,0:0:0:0:
64,192,22808,1,0,0:0:0:0:
192,192,22894,1,0,0:0:0:0:
448,192,23023,1,0,0:0:0:0:
320,192,23023,1,0,0:0:0:0:
64,192,23023,1,0,0:0:0:0:
448,192,23196,1,0,0:0:0:0:
192,192,23196,1,0,0:0:0:0:
320,192,23368,1,0,0:0:0:0:
320,192,23540,1,0,0:0:0:0:
192,192,23540,1,0,0:0:0:0:
64,192,23540,1,0,0:0:0:0:
448,192,23540,128,0,23885:0:0:0:0:
192,192,23885,1,0,0:0:0:0:
320,192,23885,1,0,0:0:0:0:
64,192,24014,1,0,0:0:0:0:
320,192,24014,1,0,0:0:0:0:
192,192,24101,1,0,0:0:0:0:
320,192,24187,1,0,0:0:0:0:
448,192,24273,1,0,0:0:0:0:
320,192,24402,1,0,0:0:0:0:
192,192,24402,1,0,0:0:0:0:
64,192,24402,1,0,0:0:0:0:
448,192,24575,1,0,0:0:0:0:
192,192,24575,1,0,0:0:0:0:
320,192,24747,1,0,0:0:0:0:
192,192,24919,1,0,0:0:0:0:
320,192,24919,1,0,0:0:0:0:
448,192,24919,1,0,0:0:0:0:
64,192,24919,128,0,25264:0:0:0:0:
192,192,25264,1,0,0:0:0:0:
320,192,25264,1,0,0:0:0:0:
448,192,25393,1,0,0:0:0:0:
192,192,25393,1,0,0:0:0:0:
320,192,25479,1,0,0:0:0:0:
192,192,25566,1,0,0:0:0:0:
64,192,25652,1,0,0:0:0:0:
192,192,25781,1,0,0:0:0:0:
320,192,25781,1,0,0:0:0:0:
448,192,25781,1,0,0:0:0:0:
320,192,25953,1,0,0:0:0:0:
64,192,25953,1,0,0:0:0:0:
192,192,26083,1,0,0:0:0:0:
320,192,26298,128,0,26643:0:0:0:0:
192,192,26298,1,0,0:0:0:0:
64,192,26298,1,0,0:0:0:0:
448,192,26298,1,0,0:0:0:0:
192,192,26643,1,0,0:0:0:0:
64,192,26643,1,0,0:0:0:0:
192,192,26772,1,0,0:0:0:0:
448,192,26772,1,0,0:0:0:0:
320,192,26858,1,0,0:0:0:0:
448,192,26944,1,0,0:0:0:0:
320,192,27031,1,0,0:0:0:0:
64,192,27160,1,0,0:0:0:0:
192,192,27160,1,0,0:0:0:0:
448,192,27160,1,0,0:0:0:0:
320,192,27332,1,0,0:0:0:0:
192,192,27332,1,0,0:0:0:0:
448,192,27505,1,0,0:0:0:0:
448,192,27677,1,0,0:0:0:0:
320,192,27677,1,0,0:0:0:0:
64,192,27677,1,0,0:0:0:0:
192,192,27677,128,0,28022:0:0:0:0:
320,192,28022,1,0,0:0:0:0:
448,192,28022,1,0,0:0:0:0:
64,192,28151,1,0,0:0:0:0:
448,192,28151,1,0,0:0:0:0:
192,192,28237,1,0,0:0:0:0:
320,192,28323,1,0,0:0:0:0:
448,192,28410,1,0,0:0:0:0:
320,192,28539,1,0,0:0:0:0:
64,192,28539,1,0,0:0:0:0:
192,192,28539,1,0,0:0:0:0:
448,192,28668,1,0,0:0:0:0:
192,192,28668,1,0,0:0:0:0:
320,192,28883,1,0,0:0:0:0:
64,192,28883,1,0,0:0:0:0:
448,192,29056,1,0,0:0:0:0:
320,192,29056,1,0,0:0:0:0:
192,192,29056,1,0,0:0:0:0:
64,192,29056,128,0,29401:0:0:0:0:
192,192,29401,1,0,0:0:0:0:
320,192,29401,1,0,0:0:0:0:
448,192,29530,1,0,0:0:0:0:
192,192,29530,1,0,0:0:0:0:
320,192,29616,1,0,0:0:0:0:
448,192,29702,1,0,0:0:0:0:
320,192,29788,1,0,0:0:0:0:
448,192,29918,1,0,0:0:0:0:
192,192,29918,1,0,0:0:0:0:
64,192,29918,1,0,0:0:0:0:
320,192,30090,1,0,0:0:0:0:
64,192,30090,1,0,0:0:0:0:
192,192,30262,1,0,0:0:0:0:
448,192,30435,1,0,0:0:0:0:
320,192,30435,1,0,0:0:0:0:
192,192,30435,1,0,0:0:0:0:
64,192,30435,128,0,30779:0:0:0:0:
448,192,30779,1,0,0:0:0:0:
320,192,30779,1,0,0:0:0:0:
192,192,30909,1,0,0:0:0:0:
64,192,30909,1,0,0:0:0:0:
320,192,30995,1,0,0:0:0:0:
448,192,31081,1,0,0:0:0:0:
320,192,31167,1,0,0:0:0:0:
192,192,31296,1,0,0:0:0:0:
64,192,31296,1,0,0:0:0:0:
448,192,31296,1,0,0:0:0:0:
320,192,31469,1,0,0:0:0:0:
64,192,31469,1,0,0:0:0:0:
192,192,31641,1,0,0:0:0:0:
320,192,31814,1,0,0:0:0:0:
192,192,31814,1,0,0:0:0:0:
64,192,31814,1,0,0:0:0:0:
448,192,31814,128,0,32158:0:0:0:0:
320,192,32158,1,0,0:0:0:0:
192,192,32158,1,0,0:0:0:0:
448,192,32287,1,0,0:0:0:0:
320,192,32374,1,0,0:0:0:0:
64,192,32460,1,0,0:0:0:0:
192,192,32546,1,0,0:0:0:0:
448,192,32675,1,0,0:0:0:0:
320,192,32675,1,0,0:0:0:0:
64,192,32675,1,0,0:0:0:0:
192,192,32848,1,0,0:0:0:0:
448,192,32848,1,0,0:0:0:0:
320,192,33020,1,0,0:0:0:0:
64,192,33020,1,0,0:0:0:0:
448,192,33235,1,0,0:0:0:0:
320,192,33235,1,0,0:0:0:0:
192,192,33235,1,0,0:0:0:0:
64,192,33235,128,0,33580:0:0:0:0:
448,192,33580,1,0,0:0:0:0:
192,192,33580,1,0,0:0:0:0:
320,192,33709,1,0,0:0:0:0:
64,192,33709,1,0,0:0:0:0:
192,192,33796,1,0,0:0:0:0:
64,192,33882,1,0,0:0:0:0:
192,192,33968,1,0,0:0:0:0:
448,192,34097,1,0,0:0:0:0:
320,192,34097,1,0,0:0:0:0:
64,192,34097,1,0,0:0:0:0:
448,192,34270,1,0,0:0:0:0:
192,192,34270,1,0,0:0:0:0:
320,192,34442,1,0,0:0:0:0:
320,192,34614,1,0,0:0:0:0:
192,192,34614,1,0,0:0:0:0:
64,192,34614,1,0,0:0:0:0:
448,192,34614,128,0,34959:0:0:0:0:
192,192,34959,1,0,0:0:0:0:
320,192,34959,1,0,0:0:0:0:
64,192,35088,1,0,0:0:0:0:
320,192,35088,1,0,0:0:0:0:
192,192,35174,1,0,0:0:0:0:
320,192,35261,1,0,0:0:0:0:
448,192,35347,1,0,0:0:0:0:
320,192,35476,1,0,0:0:0:0:
192,192,35476,1,0,0:0:0:0:
64,192,35476,1,0,0:0:0:0:
448,192,35648,1,0,0:0:0:0:
192,192,35648,1,0,0:0:0:0:
320,192,35821,1,0,0:0:0:0:
192,192,35950,1,0,0:0:0:0:
320,192,35950,1,0,0:0:0:0:
448,192,35950,1,0,0:0:0:0:
64,192,35950,128,0,36295:0:0:0:0:
192,192,36295,1,0,0:0:0:0:
320,192,36295,1,0,0:0:0:0:
448,192,36424,1,0,0:0:0:0:
192,192,36424,1,0,0:0:0:0:
320,192,36510,1,0,0:0:0:0:
192,192,36596,1,0,0:0:0:0:
64,192,36683,1,0,0:0:0:0:
192,192,36812,1,0,0:0:0:0:
320,192,36812,1,0,0:0:0:0:
448,192,36812,1,0,0:0:0:0:
320,192,36984,1,0,0:0:0:0:
64,192,36984,1,0,0:0:0:0:
192,192,37113,1,0,0:0:0:0:
320,192,37329,128,0,37674:0:0:0:0:
192,192,37329,1,0,0:0:0:0:
64,192,37329,1,0,0:0:0:0:
448,192,37329,1,0,0:0:0:0:
192,192,37674,1,0,0:0:0:0:
64,192,37674,1,0,0:0:0:0:
192,192,37803,1,0,0:0:0:0:
448,192,37803,1,0,0:0:0:0:
320,192,37889,1,0,0:0:0:0:
448,192,37975,1,0,0:0:0:0:
320,192,38061,1,0,0:0:0:0:
64,192,38191,1,0,0:0:0:0:
192,192,38191,1,0,0:0:0:0:
448,192,38191,1,0,0:0:0:0:
320,192,38363,1,0,0:0:0:0:
192,192,38363,1,0,0:0:0:0:
448,192,38535,1,0,0:0:0:0:
448,192,38708,1,0,0:0:0:0:
320,192,38708,1,0,0:0:0:0:
64,192,38708,1,0,0:0:0:0:
192,192,38708,128,0,39052:0:0:0:0:
320,192,39052,1,0,0:0:0:0:
448,192,39052,1,0,0:0:0:0:
64,192,39182,1,0,0:0:0:0:
448,192,39182,1,0,0:0:0:0:
192,192,39268,1,0,0:0:0:0:
320,192,39354,1,0,0:0:0:0:
448,192,39440,1,0,0:0:0:0:
320,192,39569,1,0,0:0:0:0:
64,192,39569,1,0,0:0:0:0:
192,192,39569,1,0,0:0:0:0:
448,192,39699,1,0,0:0:0:0:
192,192,39699,1,0,0:0:0:0:
320,192,39914,1,0,0:0:0:0:
64,192,39914,1,0,0:0:0:0:
448,192,40087,1,0,0:0:0:0:
320,192,40087,1,0,0:0:0:0:
192,192,40087,1,0,0:0:0:0:
64,192,40087,128,0,40431:0:0:0:0:
192,192,40431,1,0,0:0:0:0:
320,192,40431,1,0,0:0:0:0:
448,192,40560,1,0,0:0:0:0:
192,192,40560,1,0,0:0:0:0:
320,192,40647,1,0,0:0:0:0:
448,192,40733,1,0,0:0:0:0:
320,192,40819,1,0,0:0:0:0:
448,192,40948,1,0,0:0:0:0:
192,192,40948,1,0,0:0:0:0:
64,192,40948,1,0,0:0:0:0:
320,192,41121,1,0,0:0:0:0:
64,192,41121,1,0,0:0:0:0:
192,192,41293,1,0,0:0:0:0:
448,192,41465,1,0,0:0:0:0:
320,192,41465,1,0,0:0:0:0:
192,192,41465,1,0,0:0:0:0:
64,192,41465,128,0,41810:0:0:0:0:
448,192,41810,1,0,0:0:0:0:
320,192,41810,1,0,0:0:0:0:
192,192,41939,1,0,0:0:0:0:
448,192,41939,1,0,0:0:0:0:
320,192,42025,1,0,0:0:0:0:
448,192,42112,1,0,0:0:0:0:
320,192,42198,1,0,0:0:0:0:
192,192,42327,1,0,0:0:0:0:
64,192,42327,1,0,0:0:0:0:
448,192,42327,1,0,0:0:0:0:
320,192,42499,1,0,0:0:0:0:
64,192,42499,1,0,0:0:0:0:
192,192,42672,1,0,0:0:0:0:
320,192,42844,1,0,0:0:0:0:
192,192,42844,1,0,0:0:0:0:
64,192,42844,1,0,0:0:0:0:
448,192,42844,128,0,43189:0:0:0:0:
320,192,43189,1,0,0:0:0:0:
192,192,43189,1,0,0:0:0:0:
448,192,43318,1,0,0:0:0:0:
320,192,43404,1,0,0:0:0:0:
64,192,43491,1,0,0:0:0:0:
192,192,43577,1,0,0:0:0:0:
448,192,43706,1,0,0:0:0:0:
320,192,43706,1,0,0:0:0:0:
64,192,43706,1,0,0:0:0:0:
192,192,43878,1,0,0:0:0:0:
448,192,43878,1,0,0:0:0:0:
320,192,44051,1,0,0:0:0:0:
64,192,44051,1,0,0:0:0:0:
192,192,44223,1,0,0:0:0:0:
320,192,44223,1,0,0:0:0:0:
448,192,44223,128,0,49738:0:0:0:0:
64,192,44223,128,0,49738:0:0:0:0:
320,192,49738,128,0,52496:0:0:0:0:
192,192,49738,1,0,0:0:0:0:
448,192,49911,1,0,0:0:0:0:
192,192,50083,1,0,0:0:0:0:
64,192,50255,1,0,0:0:0:0:
192,192,50471,1,0,0:0:0:0:
448,192,50600,1,0,0:0:0:0:
192,192,50772,1,0,0:0:0:0:
64,192,50945,1,0,0:0:0:0:
192,192,51117,1,0,0:0:0:0:
448,192,51290,1,0,0:0:0:0:
64,192,51462,1,0,0:0:0:0:
192,192,51634,1,0,0:0:0:0:
64,192,51807,1,0,0:0:0:0:
448,192,51979,1,0,0:0:0:0:
192,192,52151,1,0,0:0:0:0:
64,192,52324,1,0,0:0:0:0:
448,192,52496,1,0,0:0:0:0:
192,192,52496,128,0,55254:0:0:0:0:
64,192,52668,1,0,0:0:0:0:
448,192,52841,1,0,0:0:0:0:
320,192,53013,1,0,0:0:0:0:
448,192,53185,1,0,0:0:0:0:
64,192,53358,1,0,0:0:0:0:
320,192,53530,1,0,0:0:0:0:
448,192,53703,1,0,0:0:0:0:
64,192,53875,1,0,0:0:0:0:
320,192,54047,1,0,0:0:0:0:
448,192,54220,1,0,0:0:0:0:
64,192,54392,1,0,0:0:0:0:
448,192,54564,1,0,0:0:0:0:
320,192,54737,1,0,0:0:0:0:
64,192,54909,1,0,0:0:0:0:
448,192,55081,1,0,0:0:0:0:
64,192,55254,128,0,59390:0:0:0:0:
320,192,55254,1,0,0:0:0:0:
192,192,55426,1,0,0:0:0:0:
320,192,55598,1,0,0:0:0:0:
448,192,55771,1,0,0:0:0:0:
192,192,55943,1,0,0:0:0:0:
448,192,56115,1,0,0:0:0:0:
320,192,56288,1,0,0:0:0:0:
192,192,56460,1,0,0:0:0:0:
448,192,56633,1,0,0:0:0:0:
320,192,56805,1,0,0:0:0:0:
448,192,56977,1,0,0:0:0:0:
192,192,57150,1,0,0:0:0:0:
320,192,57322,1,0,0:0:0:0:
448,192,57494,1,0,0:0:0:0:
192,192,57667,1,0,0:0:0:0:
448,192,57839,1,0,0:0:0:0:
320,192,58011,1,0,0:0:0:0:
192,192,58184,1,0,0:0:0:0:
320,192,58356,1,0,0:0:0:0:
448,192,58528,1,0,0:0:0:0:
192,192,58701,1,0,0:0:0:0:
320,192,58873,1,0,0:0:0:0:
448,192,59045,1,0,0:0:0:0:
192,192,59218,1,0,0:0:0:0:
448,192,59390,1,0,0:0:0:0:
320,192,59390,128,0,60769:0:0:0:0:
192,192,59563,1,0,0:0:0:0:
64,192,59735,1,0,0:0:0:0:
192,192,59907,1,0,0:0:0:0:
448,192,60080,1,0,0:0:0:0:
192,192,60252,1,0,0:0:0:0:
448,192,60424,1,0,0:0:0:0:
192,192,60597,1,0,0:0:0:0:
448,192,60769,128,0,63527:0:0:0:0:
64,192,60769,1,0,0:0:0:0:
320,192,60941,1,0,0:0:0:0:
192,192,61114,1,0,0:0:0:0:
64,192,61286,1,0,0:0:0:0:
320,192,61458,1,0,0:0:0:0:
64,192,61631,1,0,0:0:0:0:
192,192,61803,1,0,0:0:0:0:
320,192,61976,1,0,0:0:0:0:
192,192,62148,1,0,0:0:0:0:
64,192,62320,1,0,0:0:0:0:
192,192,62493,1,0,0:0:0:0:
320,192,62665,1,0,0:0:0:0:
192,192,62837,1,0,0:0:0:0:
64,192,63010,1,0,0:0:0:0:
320,192,63182,1,0,0:0:0:0:
192,192,63354,1,0,0:0:0:0:
320,192,63527,128,0,64906:0:0:0:0:
64,192,63527,1,0,0:0:0:0:
192,192,63699,1,0,0:0:0:0:
448,192,63871,1,0,0:0:0:0:
192,192,64044,1,0,0:0:0:0:
448,192,64216,1,0,0:0:0:0:
64,192,64388,1,0,0:0:0:0:
192,192,64561,1,0,0:0:0:0:
448,192,64733,1,0,0:0:0:0:
64,192,64906,128,0,66284:0:0:0:0:
192,192,64906,1,0,0:0:0:0:
448,192,65078,1,0,0:0:0:0:
320,192,65250,1,0,0:0:0:0:
192,192,65423,1,0,0:0:0:0:
320,192,65595,1,0,0:0:0:0:
448,192,65767,1,0,0:0:0:0:
192,192,65940,1,0,0:0:0:0:
320,192,66112,1,0,0:0:0:0:
448,192,66284,1,0,0:0:0:0:
320,192,66284,1,0,0:0:0:0:
192,192,66284,1,0,0:0:0:0:
448,192,66457,1,0,0:0:0:0:
192,192,66457,1,0,0:0:0:0:
64,192,66629,1,0,0:0:0:0:
320,192,66629,1,0,0:0:0:0:
320,192,66801,1,0,0:0:0:0:
64,192,66801,1,0,0:0:0:0:
448,192,66974,1,0,0:0:0:0:
64,192,66974,1,0,0:0:0:0:
448,192,67146,1,0,0:0:0:0:
192,192,67146,1,0,0:0:0:0:
320,192,67318,1,0,0:0:0:0:
64,192,67318,1,0,0:0:0:0:
320,192,67491,1,0,0:0:0:0:
64,192,67491,1,0,0:0:0:0:
448,192,67663,1,0,0:0:0:0:
192,192,67663,1,0,0:0:0:0:
64,192,67836,1,0,0:0:0:0:
448,192,67836,1,0,0:0:0:0:
448,192,68008,1,0,0:0:0:0:
192,192,68008,1,0,0:0:0:0:
64,192,68180,1,0,0:0:0:0:
448,192,68180,1,0,0:0:0:0:
320,192,68353,1,0,0:0:0:0:
64,192,68353,1,0,0:0:0:0:
448,192,68525,1,0,0:0:0:0:
192,192,68525,1,0,0:0:0:0:
320,192,68697,128,0,68870:0:0:0:0:
448,192,68697,1,0,0:0:0:0:
192,192,68870,128,0,69042:0:0:0:0:
64,192,68870,1,0,0:0:0:0:
320,192,69042,128,0,69214:0:0:0:0:
448,192,69042,1,0,0:0:0:0:
192,192,69214,128,0,69387:0:0:0:0:
64,192,69214,1,0,0:0:0:0:
448,192,69387,1,0,0:0:0:0:
64,192,69387,1,0,0:0:0:0:
448,192,69559,1,0,0:0:0:0:
64,192,69559,1,0,0:0:0:0:
64,192,69731,1,0,0:0:0:0:
448,192,69731,1,0,0:0:0:0:
320,192,69904,1,0,0:0:0:0:
192,192,69904,1,0,0:0:0:0:
448,192,70076,1,0,0:0:0:0:
320,192,70076,1,0,0:0:0:0:
64,192,70249,1,0,0:0:0:0:
320,192,70249,1,0,0:0:0:0:
448,192,70421,1,0,0:0:0:0:
64,192,70421,1,0,0:0:0:0:
448,192,70593,1,0,0:0:0:0:
192,192,70593,1,0,0:0:0:0:
448,192,70766,1,0,0:0:0:0:
64,192,70766,1,0,0:0:0:0:
64,192,70938,128,0,71110:0:0:0:0:
448,192,70938,1,0,0:0:0:0:
192,192,71110,128,0,71283:0:0:0:0:
448,192,71110,1,0,0:0:0:0:
320,192,71283,128,0,71455:0:0:0:0:
64,192,71283,1,0,0:0:0:0:
448,192,71455,128,0,71627:0:0:0:0:
192,192,71455,1,0,0:0:0:0:
320,192,71627,128,0,71800:0:0:0:0:
64,192,71627,1,0,0:0:0:0:
64,192,71800,1,0,0:0:0:0:
448,192,71800,1,0,0:0:0:0:
192,192,71972,1,0,0:0:0:0:
448,192,71972,1,0,0:0:0:0:
448,192,72144,1,0,0:0:0:0:
64,192,72144,1,0,0:0:0:0:
192,192,72317,1,0,0:0:0:0:
448,192,72317,1,0,0:0:0:0:
448,192,72489,1,0,0:0:0:0:
64,192,72489,1,0,0:0:0:0:
64,192,72661,1,0,0:0:0:0:
320,192,72661,1,0,0:0:0:0:
64,192,72834,1,0,0:0:0:0:
192,192,72834,1,0,0:0:0:0:
448,192,73006,1,0,0:0:0:0:
192,192,73006,1,0,0:0:0:0:
320,192,73179,1,0,0:0:0:0:
64,192,73179,1,0,0:0:0:0:
448,192,73351,1,0,0:0:0:0:
192,192,73351,1,0,0:0:0:0:
192,192,73523,1,0,0:0:0:0:
448,192,73523,1,0,0:0:0:0:
64,192,73696,1,0,0:0:0:0:
320,192,73696,1,0,0:0:0:0:
448,192,73868,1,0,0:0:0:0:
64,192,73868,1,0,0:0:0:0:
64,192,74040,1,0,0:0:0:0:
448,192,74040,1,0,0:0:0:0:
320,192,74213,128,0,74385:0:0:0:0:
448,192,74213,1,0,0:0:0:0:
192,192,74385,128,0,74557:0:0:0:0:
64,192,74385,1,0,0:0:0:0:
320,192,74557,128,0,74730:0:0:0:0:
448,192,74557,1,0,0:0:0:0:
192,192,74730,128,0,74902:0:0:0:0:
64,192,74730,1,0,0:0:0:0:
448,192,74902,1,0,0:0:0:0:
64,192,74902,1,0,0:0:0:0:
448,192,75074,1,0,0:0:0:0:
64,192,75074,1,0,0:0:0:0:
448,192,75247,1,0,0:0:0:0:
192,192,75247,1,0,0:0:0:0:
64,192,75419,1,0,0:0:0:0:
320,192,75419,1,0,0:0:0:0:
64,192,75592,1,0,0:0:0:0:
320,192,75592,1,0,0:0:0:0:
192,192,75764,1,0,0:0:0:0:
448,192,75764,1,0,0:0:0:0:
448,192,75936,1,0,0:0:0:0:
64,192,75936,1,0,0:0:0:0:
320,192,76109,1,0,0:0:0:0:
64,192,76109,1,0,0:0:0:0:
192,192,76281,1,0,0:0:0:0:
448,192,76281,1,0,0:0:0:0:
448,192,76453,128,0,76626:0:0:0:0:
64,192,76453,1,0,0:0:0:0:
320,192,76626,128,0,76798:0:0:0:0:
64,192,76626,1,0,0:0:0:0:
192,192,76798,128,0,76970:0:0:0:0:
448,192,76798,1,0,0:0:0:0:
64,192,76970,128,0,77143:0:0:0:0:
320,192,76970,1,0,0:0:0:0:
192,192,77143,128,0,77315:0:0:0:0:
320,192,77143,1,0,0:0:0:0:
448,192,77315,1,0,0:0:0:0:
64,192,77315,1,0,0:0:0:0:
448,192,77487,1,0,0:0:0:0:
192,192,77487,1,0,0:0:0:0:
448,192,77660,1,0,0:0:0:0:
192,192,77660,1,0,0:0:0:0:
320,192,77832,1,0,0:0:0:0:
64,192,77832,1,0,0:0:0:0:
64,192,78004,1,0,0:0:0:0:
192,192,78004,1,0,0:0:0:0:
448,192,78004,1,0,0:0:0:0:
192,192,78177,1,0,0:0:0:0:
448,192,78177,1,0,0:0:0:0:
320,192,78349,1,0,0:0:0:0:
64,192,78349,1,0,0:0:0:0:
192,192,78522,1,0,0:0:0:0:
448,192,78522,1,0,0:0:0:0:
448,192,78694,1,0,0:0:0:0:
320,192,78694,1,0,0:0:0:0:
64,192,78694,1,0,0:0:0:0:
448,192,78866,1,0,0:0:0:0:
192,192,78866,1,0,0:0:0:0:
320,192,79039,1,0,0:0:0:0:
192,192,79039,1,0,0:0:0:0:
64,192,79211,1,0,0:0:0:0:
320,192,79211,1,0,0:0:0:0:
448,192,79383,1,0,0:0:0:0:
320,192,79383,1,0,0:0:0:0:
192,192,79383,1,0,0:0:0:0:
320,192,79556,1,0,0:0:0:0:
64,192,79556,1,0,0:0:0:0:
320,192,79771,1,0,0:0:0:0:
64,192,79771,1,0,0:0:0:0:
448,192,79900,1,0,0:0:0:0:
192,192,79900,1,0,0:0:0:0:
192,192,80073,1,0,0:0:0:0:
64,192,80073,1,0,0:0:0:0:
448,192,80073,1,0,0:0:0:0:
448,192,80245,1,0,0:0:0:0:
192,192,80245,1,0,0:0:0:0:
192,192,80417,1,0,0:0:0:0:
64,192,80417,1,0,0:0:0:0:
64,192,80590,1,0,0:0:0:0:
320,192,80590,1,0,0:0:0:0:
448,192,80762,1,0,0:0:0:0:
320,192,80762,1,0,0:0:0:0:
64,192,80762,1,0,0:0:0:0:
448,192,80934,1,0,0:0:0:0:
192,192,80934,1,0,0:0:0:0:
320,192,81107,1,0,0:0:0:0:
192,192,81107,1,0,0:0:0:0:
64,192,81279,1,0,0:0:0:0:
320,192,81279,1,0,0:0:0:0:
448,192,81452,1,0,0:0:0:0:
320,192,81452,1,0,0:0:0:0:
64,192,81452,1,0,0:0:0:0:
64,192,81624,1,0,0:0:0:0:
320,192,81624,1,0,0:0:0:0:
192,192,81796,1,0,0:0:0:0:
448,192,81796,1,0,0:0:0:0:
192,192,81969,1,0,0:0:0:0:
448,192,81969,1,0,0:0:0:0:
448,192,82141,1,0,0:0:0:0:
320,192,82141,1,0,0:0:0:0:
64,192,82141,1,0,0:0:0:0:
320,192,82313,1,0,0:0:0:0:
64,192,82313,1,0,0:0:0:0:
448,192,82486,1,0,0:0:0:0:
192,192,82486,1,0,0:0:0:0:
192,192,82658,1,0,0:0:0:0:
448,192,82658,1,0,0:0:0:0:
64,192,82830,1,0,0:0:0:0:
192,192,82830,1,0,0:0:0:0:
320,192,82830,1,0,0:0:0:0:
448,192,82830,1,0,0:0:0:0:
320,192,83003,1,0,0:0:0:0:
448,192,83175,1,0,0:0:0:0:
192,192,83175,1,0,0:0:0:0:
64,192,83175,1,0,0:0:0:0:
192,192,83347,1,0,0:0:0:0:
448,192,83520,1,0,0:0:0:0:
320,192,83520,1,0,0:0:0:0:
64,192,83520,1,0,0:0:0:0:
448,192,83692,1,0,0:0:0:0:
320,192,83865,1,0,0:0:0:0:
192,192,83865,1,0,0:0:0:0:
64,192,83865,1,0,0:0:0:0:
64,192,84080,1,0,0:0:0:0:
192,192,84209,1,0,0:0:0:0:
448,192,84209,1,0,0:0:0:0:
320,192,84209,1,0,0:0:0:0:
320,192,84382,1,0,0:0:0:0:
192,192,84554,1,0,0:0:0:0:
64,192,84554,1,0,0:0:0:0:
448,192,84554,1,0,0:0:0:0:
192,192,84726,1,0,0:0:0:0:
64,192,84899,1,0,0:0:0:0:
320,192,84899,1,0,0:0:0:0:
448,192,84899,1,0,0:0:0:0:
448,192,85071,1,0,0:0:0:0:
320,192,85243,1,0,0:0:0:0:
192,192,85243,1,0,0:0:0:0:
64,192,85243,1,0,0:0:0:0:
192,192,85416,1,0,0:0:0:0:
448,192,85588,1,0,0:0:0:0:
320,192,85588,1,0,0:0:0:0:
64,192,85588,1,0,0:0:0:0:
64,192,85760,1,0,0:0:0:0:
192,192,85760,1,0,0:0:0:0:
320,192,85760,1,0,0:0:0:0:
448,192,85760,1,0,0:0:0:0:
448,192,85933,1,0,0:0:0:0:
320,192,85933,1,0,0:0:0:0:
192,192,85933,1,0,0:0:0:0:
64,192,85933,1,0,0:0:0:0:
64,192,86105,1,0,0:0:0:0:
192,192,86105,1,0,0:0:0:0:
320,192,86105,1,0,0:0:0:0:
448,192,86105,1,0,0:0:0:0:
448,192,86277,1,0,0:0:0:0:
320,192,86277,1,0,0:0:0:0:
192,192,86277,1,0,0:0:0:0:
64,192,86277,1,0,0:0:0:0:
448,192,86450,1,0,0:0:0:0:
192,192,86450,1,0,0:0:0:0:
320,192,86622,1,0,0:0:0:0:
64,192,86622,1,0,0:0:0:0:
192,192,86795,1,0,0:0:0:0:
320,192,86795,1,0,0:0:0:0:
64,192,86967,1,0,0:0:0:0:
192,192,86967,1,0,0:0:0:0:
448,192,87786,128,0,88303:0:0:0:0:
320,192,87915,128,0,88303:0:0:0:0:
192,192,88001,128,0,88303:0:0:0:0:
64,192,88087,128,0,88303:0:0:0:0:
448,192,88346,1,0,0:0:0:0:
320,192,88346,1,0,0:0:0:0:
192,192,88346,1,0,0:0:0:0:
64,192,88346,1,0,0:0:0:0:
448,192,88690,1,0,0:0:0:0:
192,192,88690,1,0,0:0:0:0:
192,192,88863,1,0,0:0:0:0:
320,192,88949,1,0,0:0:0:0:
64,192,88949,1,0,0:0:0:0:
192,192,89035,1,0,0:0:0:0:
448,192,89121,1,0,0:0:0:0:
320,192,89208,1,0,0:0:0:0:
192,192,89208,1,0,0:0:0:0:
64,192,89208,1,0,0:0:0:0:
192,192,89380,1,0,0:0:0:0:
448,192,89380,1,0,0:0:0:0:
320,192,89552,1,0,0:0:0:0:
64,192,89552,1,0,0:0:0:0:
448,192,89725,1,0,0:0:0:0:
320,192,89725,1,0,0:0:0:0:
192,192,89725,1,0,0:0:0:0:
64,192,89725,1,0,0:0:0:0:
64,192,89897,1,0,0:0:0:0:
448,192,90069,1,0,0:0:0:0:
192,192,90069,1,0,0:0:0:0:
192,192,90285,1,0,0:0:0:0:
64,192,90371,1,0,0:0:0:0:
320,192,90371,1,0,0:0:0:0:
192,192,90457,1,0,0:0:0:0:
64,192,90543,1,0,0:0:0:0:
448,192,90629,1,0,0:0:0:0:
320,192,90629,1,0,0:0:0:0:
192,192,90629,1,0,0:0:0:0:
320,192,90759,1,0,0:0:0:0:
64,192,90759,1,0,0:0:0:0:
192,192,90931,1,0,0:0:0:0:
448,192,90931,1,0,0:0:0:0:
448,192,91103,1,0,0:0:0:0:
320,192,91103,1,0,0:0:0:0:
192,192,91103,1,0,0:0:0:0:
64,192,91103,1,0,0:0:0:0:
320,192,91276,1,0,0:0:0:0:
448,192,91448,1,0,0:0:0:0:
192,192,91448,1,0,0:0:0:0:
320,192,91620,1,0,0:0:0:0:
64,192,91620,1,0,0:0:0:0:
192,192,91707,1,0,0:0:0:0:
64,192,91793,1,0,0:0:0:0:
192,192,91879,1,0,0:0:0:0:
448,192,91965,1,0,0:0:0:0:
320,192,91965,1,0,0:0:0:0:
64,192,91965,1,0,0:0:0:0:
192,192,92138,1,0,0:0:0:0:
448,192,92138,1,0,0:0:0:0:
320,192,92310,1,0,0:0:0:0:
64,192,92310,1,0,0:0:0:0:
448,192,92482,1,0,0:0:0:0:
320,192,92482,1,0,0:0:0:0:
192,192,92482,1,0,0:0:0:0:
64,192,92482,1,0,0:0:0:0:
192,192,92655,1,0,0:0:0:0:
448,192,92827,1,0,0:0:0:0:
64,192,92827,1,0,0:0:0:0:
192,192,92999,1,0,0:0:0:0:
448,192,92999,1,0,0:0:0:0:
320,192,93085,1,0,0:0:0:0:
192,192,93172,1,0,0:0:0:0:
320,192,93258,1,0,0:0:0:0:
448,192,93344,1,0,0:0:0:0:
192,192,93344,1,0,0:0:0:0:
64,192,93344,1,0,0:0:0:0:
320,192,93516,1,0,0:0:0:0:
64,192,93516,1,0,0:0:0:0:
192,192,93689,1,0,0:0:0:0:
448,192,93689,1,0,0:0:0:0:
448,192,93861,1,0,0:0:0:0:
320,192,93861,1,0,0:0:0:0:
192,192,93861,1,0,0:0:0:0:
64,192,93861,1,0,0:0:0:0:
320,192,94033,128,0,94206:0:0:0:0:
192,192,94206,1,0,0:0:0:0:
64,192,94206,1,0,0:0:0:0:
192,192,94378,1,0,0:0:0:0:
448,192,94378,1,0,0:0:0:0:
64,192,94378,1,0,0:0:0:0:
320,192,94464,1,0,0:0:0:0:
192,192,94550,1,0,0:0:0:0:
64,192,94637,1,0,0:0:0:0:
448,192,94723,1,0,0:0:0:0:
192,192,94723,1,0,0:0:0:0:
320,192,94723,1,0,0:0:0:0:
448,192,94895,1,0,0:0:0:0:
64,192,94895,1,0,0:0:0:0:
320,192,94895,128,0,95068:0:0:0:0:
192,192,95068,128,0,95240:0:0:0:0:
64,192,95068,1,0,0:0:0:0:
448,192,95240,1,0,0:0:0:0:
320,192,95240,1,0,0:0:0:0:
64,192,95240,128,0,95412:0:0:0:0:
192,192,95585,1,0,0:0:0:0:
448,192,95585,1,0,0:0:0:0:
320,192,95757,1,0,0:0:0:0:
64,192,95757,1,0,0:0:0:0:
192,192,95843,1,0,0:0:0:0:
320,192,95929,1,0,0:0:0:0:
448,192,96016,1,0,0:0:0:0:
320,192,96102,1,0,0:0:0:0:
64,192,96102,1,0,0:0:0:0:
192,192,96102,1,0,0:0:0:0:
448,192,96274,1,0,0:0:0:0:
192,192,96274,1,0,0:0:0:0:
320,192,96446,1,0,0:0:0:0:
64,192,96446,1,0,0:0:0:0:
64,192,96619,1,0,0:0:0:0:
192,192,96619,1,0,0:0:0:0:
320,192,96619,1,0,0:0:0:0:
448,192,96619,1,0,0:0:0:0:
448,192,96791,128,0,96963:0:0:0:0:
192,192,96963,1,0,0:0:0:0:
64,192,96963,1,0,0:0:0:0:
192,192,97136,1,0,0:0:0:0:
448,192,97136,1,0,0:0:0:0:
320,192,97222,1,0,0:0:0:0:
192,192,97308,1,0,0:0:0:0:
64,192,97394,1,0,0:0:0:0:
448,192,97481,1,0,0:0:0:0:
192,192,97481,1,0,0:0:0:0:
320,192,97481,1,0,0:0:0:0:
320,192,97653,1,0,0:0:0:0:
64,192,97653,1,0,0:0:0:0:
192,192,97653,128,0,97825:0:0:0:0:
320,192,97825,128,0,97998:0:0:0:0:
448,192,97998,128,0,98213:0:0:0:0:
320,192,98342,1,0,0:0:0:0:
64,192,98342,1,0,0:0:0:0:
320,192,98515,1,0,0:0:0:0:
64,192,98515,1,0,0:0:0:0:
192,192,98601,1,0,0:0:0:0:
320,192,98687,1,0,0:0:0:0:
448,192,98773,1,0,0:0:0:0:
320,192,98859,1,0,0:0:0:0:
64,192,98859,1,0,0:0:0:0:
192,192,98859,1,0,0:0:0:0:
448,192,99032,1,0,0:0:0:0:
192,192,99032,1,0,0:0:0:0:
320,192,99204,1,0,0:0:0:0:
64,192,99204,1,0,0:0:0:0:
192,192,99376,1,0,0:0:0:0:
64,192,99376,1,0,0:0:0:0:
320,192,99376,1,0,0:0:0:0:
448,192,99376,1,0,0:0:0:0:
448,192,99721,1,0,0:0:0:0:
192,192,99721,1,0,0:0:0:0:
192,192,99893,1,0,0:0:0:0:
320,192,99980,1,0,0:0:0:0:
64,192,99980,1,0,0:0:0:0:
192,192,100066,1,0,0:0:0:0:
448,192,100152,1,0,0:0:0:0:
320,192,100238,1,0,0:0:0:0:
192,192,100238,1,0,0:0:0:0:
64,192,100238,1,0,0:0:0:0:
192,192,100411,1,0,0:0:0:0:
448,192,100411,1,0,0:0:0:0:
320,192,100583,1,0,0:0:0:0:
64,192,100583,1,0,0:0:0:0:
448,192,100755,1,0,0:0:0:0:
320,192,100755,1,0,0:0:0:0:
192,192,100755,1,0,0:0:0:0:
64,192,100755,1,0,0:0:0:0:
64,192,100928,1,0,0:0:0:0:
448,192,101100,1,0,0:0:0:0:
192,192,101100,1,0,0:0:0:0:
192,192,101315,1,0,0:0:0:0:
64,192,101402,1,0,0:0:0:0:
320,192,101402,1,0,0:0:0:0:
192,192,101488,1,0,0:0:0:0:
64,192,101574,1,0,0:0:0:0:
448,192,101660,1,0,0:0:0:0:
320,192,101660,1,0,0:0:0:0:
192,192,101660,1,0,0:0:0:0:
320,192,101789,1,0,0:0:0:0:
64,192,101789,1,0,0:0:0:0:
192,192,101962,1,0,0:0:0:0:
448,192,101962,1,0,0:0:0:0:
448,192,102134,1,0,0:0:0:0:
320,192,102134,1,0,0:0:0:0:
192,192,102134,1,0,0:0:0:0:
64,192,102134,1,0,0:0:0:0:
320,192,102306,1,0,0:0:0:0:
448,192,102479,1,0,0:0:0:0:
192,192,102479,1,0,0:0:0:0:
320,192,102651,1,0,0:0:0:0:
192,192,102737,1,0,0:0:0:0:
64,192,102823,1,0,0:0:0:0:
192,192,102910,1,0,0:0:0:0:
448,192,102996,1,0,0:0:0:0:
320,192,102996,1,0,0:0:0:0:
64,192,102996,1,0,0:0:0:0:
192,192,103168,1,0,0:0:0:0:
448,192,103168,1,0,0:0:0:0:
320,192,103341,1,0,0:0:0:0:
64,192,103341,1,0,0:0:0:0:
448,192,103513,1,0,0:0:0:0:
320,192,103513,1,0,0:0:0:0:
192,192,103513,1,0,0:0:0:0:
64,192,103513,1,0,0:0:0:0:
192,192,103685,1,0,0:0:0:0:
448,192,103858,1,0,0:0:0:0:
64,192,103858,1,0,0:0:0:0:
192,192,104030,1,0,0:0:0:0:
320,192,104116,1,0,0:0:0:0:
192,192,104202,1,0,0:0:0:0:
320,192,104289,1,0,0:0:0:0:
448,192,104375,1,0,0:0:0:0:
192,192,104375,1,0,0:0:0:0:
64,192,104375,1,0,0:0:0:0:
320,192,104547,1,0,0:0:0:0:
64,192,104547,1,0,0:0:0:0:
192,192,104719,1,0,0:0:0:0:
448,192,104719,1,0,0:0:0:0:
448,192,104892,1,0,0:0:0:0:
320,192,104892,1,0,0:0:0:0:
192,192,104892,1,0,0:0:0:0:
64,192,104892,1,0,0:0:0:0:
320,192,105064,128,0,105236:0:0:0:0:
192,192,105236,1,0,0:0:0:0:
64,192,105236,1,0,0:0:0:0:
192,192,105409,1,0,0:0:0:0:
448,192,105409,1,0,0:0:0:0:
64,192,105409,1,0,0:0:0:0:
320,192,105495,1,0,0:0:0:0:
192,192,105581,1,0,0:0:0:0:
64,192,105667,1,0,0:0:0:0:
448,192,105754,1,0,0:0:0:0:
192,192,105754,1,0,0:0:0:0:
320,192,105754,1,0,0:0:0:0:
448,192,105926,1,0,0:0:0:0:
64,192,105926,1,0,0:0:0:0:
320,192,105926,128,0,106098:0:0:0:0:
192,192,106098,128,0,106271:0:0:0:0:
64,192,106098,1,0,0:0:0:0:
448,192,106271,1,0,0:0:0:0:
320,192,106271,1,0,0:0:0:0:
64,192,106271,128,0,106443:0:0:0:0:
192,192,106615,1,0,0:0:0:0:
448,192,106615,1,0,0:0:0:0:
320,192,106788,1,0,0:0:0:0:
64,192,106788,1,0,0:0:0:0:
192,192,106874,1,0,0:0:0:0:
320,192,106960,1,0,0:0:0:0:
448,192,107046,1,0,0:0:0:0:
320,192,107132,1,0,0:0:0:0:
64,192,107132,1,0,0:0:0:0:
192,192,107132,1,0,0:0:0:0:
448,192,107305,1,0,0:0:0:0:
192,192,107305,1,0,0:0:0:0:
320,192,107477,1,0,0:0:0:0:
64,192,107477,1,0,0:0:0:0:
64,192,107649,1,0,0:0:0:0:
192,192,107649,1,0,0:0:0:0:
320,192,107649,1,0,0:0:0:0:
448,192,107649,1,0,0:0:0:0:
448,192,107822,128,0,107994:0:0:0:0:
192,192,107994,1,0,0:0:0:0:
64,192,107994,1,0,0:0:0:0:
192,192,108166,1,0,0:0:0:0:
448,192,108166,1,0,0:0:0:0:
320,192,108253,1,0,0:0:0:0:
192,192,108339,1,0,0:0:0:0:
64,192,108425,1,0,0:0:0:0:
448,192,108511,1,0,0:0:0:0:
192,192,108511,1,0,0:0:0:0:
320,192,108511,1,0,0:0:0:0:
320,192,108684,1,0,0:0:0:0:
64,192,108684,1,0,0:0:0:0:
192,192,108684,128,0,108856:0:0:0:0:
320,192,108856,128,0,109028:0:0:0:0:
64,192,109028,1,0,0:0:0:0:
448,192,109028,1,0,0:0:0:0:
64,192,109201,1,0,0:0:0:0:
64,192,109373,1,0,0:0:0:0:
192,192,109373,1,0,0:0:0:0:
192,192,109545,1,0,0:0:0:0:
320,192,109545,1,0,0:0:0:0:
192,192,109718,1,0,0:0:0:0:
320,192,109718,1,0,0:0:0:0:
320,192,109890,1,0,0:0:0:0:
448,192,109890,1,0,0:0:0:0:
448,192,110062,1,0,0:0:0:0:
320,192,110062,1,0,0:0:0:0:
64,192,110235,1,0,0:0:0:0:
448,192,110235,1,0,0:0:0:0:
448,192,110407,1,0,0:0:0:0:
320,192,110407,1,0,0:0:0:0:
192,192,110407,1,0,0:0:0:0:
192,192,110407,1,0,0:0:0:0:
64,192,110407,1,0,0:0:0:0:
448,192,110752,1,0,0:0:0:0:
192,192,110752,1,0,0:0:0:0:
192,192,110924,1,0,0:0:0:0:
320,192,111010,1,0,0:0:0:0:
64,192,111010,1,0,0:0:0:0:
192,192,111097,1,0,0:0:0:0:
448,192,111183,1,0,0:0:0:0:
320,192,111269,1,0,0:0:0:0:
192,192,111269,1,0,0:0:0:0:
64,192,111269,1,0,0:0:0:0:
192,192,111441,1,0,0:0:0:0:
448,192,111441,1,0,0:0:0:0:
320,192,111614,1,0,0:0:0:0:
64,192,111614,1,0,0:0:0:0:
448,192,111786,1,0,0:0:0:0:
320,192,111786,1,0,0:0:0:0:
192,192,111786,1,0,0:0:0:0:
64,192,111786,1,0,0:0:0:0:
64,192,111958,1,0,0:0:0:0:
448,192,112131,1,0,0:0:0:0:
192,192,112131,1,0,0:0:0:0:
192,192,112346,1,0,0:0:0:0:
64,192,112432,1,0,0:0:0:0:
320,192,112432,1,0,0:0:0:0:
192,192,112518,1,0,0:0:0:0:
64,192,112605,1,0,0:0:0:0:
448,192,112691,1,0,0:0:0:0:
320,192,112691,1,0,0:0:0:0:
192,192,112691,1,0,0:0:0:0:
320,192,112820,1,0,0:0:0:0:
64,192,112820,1,0,0:0:0:0:
192,192,112992,1,0,0:0:0:0:
448,192,112992,1,0,0:0:0:0:
448,192,113165,1,0,0:0:0:0:
320,192,113165,1,0,0:0:0:0:
192,192,113165,1,0,0:0:0:0:
64,192,113165,1,0,0:0:0:0:
320,192,113337,1,0,0:0:0:0:
448,192,113509,1,0,0:0:0:0:
192,192,113509,1,0,0:0:0:0:
320,192,113682,1,0,0:0:0:0:
192,192,113768,1,0,0:0:0:0:
64,192,113854,1,0,0:0:0:0:
192,192,113940,1,0,0:0:0:0:
448,192,114027,1,0,0:0:0:0:
320,192,114027,1,0,0:0:0:0:
64,192,114027,1,0,0:0:0:0:
192,192,114199,1,0,0:0:0:0:
448,192,114199,1,0,0:0:0:0:
320,192,114371,1,0,0:0:0:0:
64,192,114371,1,0,0:0:0:0:
448,192,114544,1,0,0:0:0:0:
320,192,114544,1,0,0:0:0:0:
192,192,114544,1,0,0:0:0:0:
64,192,114544,1,0,0:0:0:0:
192,192,114716,1,0,0:0:0:0:
448,192,114888,1,0,0:0:0:0:
64,192,114888,1,0,0:0:0:0:
192,192,115061,1,0,0:0:0:0:
64,192,115061,1,0,0:0:0:0:
320,192,115147,1,0,0:0:0:0:
192,192,115233,1,0,0:0:0:0:
320,192,115319,1,0,0:0:0:0:
448,192,115405,1,0,0:0:0:0:
192,192,115405,1,0,0:0:0:0:
64,192,115405,1,0,0:0:0:0:
320,192,115578,1,0,0:0:0:0:
64,192,115578,1,0,0:0:0:0:
192,192,115750,1,0,0:0:0:0:
448,192,115750,1,0,0:0:0:0:
448,192,115922,1,0,0:0:0:0:
320,192,115922,1,0,0:0:0:0:
192,192,115922,1,0,0:0:0:0:
64,192,115922,1,0,0:0:0:0:
320,192,116095,128,0,116267:0:0:0:0:
192,192,116267,1,0,0:0:0:0:
64,192,116267,1,0,0:0:0:0:
192,192,116439,1,0,0:0:0:0:
448,192,116439,1,0,0:0:0:0:
64,192,116439,1,0,0:0:0:0:
320,192,116526,1,0,0:0:0:0:
192,192,116612,1,0,0:0:0:0:
64,192,116698,1,0,0:0:0:0:
448,192,116784,1,0,0:0:0:0:
192,192,116784,1,0,0:0:0:0:
320,192,116784,1,0,0:0:0:0:
448,192,116957,1,0,0:0:0:0:
64,192,116957,1,0,0:0:0:0:
320,192,116957,128,0,117129:0:0:0:0:
192,192,117129,128,0,117301:0:0:0:0:
64,192,117129,1,0,0:0:0:0:
448,192,117301,1,0,0:0:0:0:
320,192,117301,1,0,0:0:0:0:
64,192,117301,128,0,117474:0:0:0:0:
192,192,117646,1,0,0:0:0:0:
448,192,117646,1,0,0:0:0:0:
320,192,117818,1,0,0:0:0:0:
64,192,117818,1,0,0:0:0:0:
192,192,117905,1,0,0:0:0:0:
320,192,117991,1,0,0:0:0:0:
448,192,118077,1,0,0:0:0:0:
320,192,118163,1,0,0:0:0:0:
64,192,118163,1,0,0:0:0:0:
192,192,118163,1,0,0:0:0:0:
448,192,118335,1,0,0:0:0:0:
192,192,118335,1,0,0:0:0:0:
320,192,118508,1,0,0:0:0:0:
64,192,118508,1,0,0:0:0:0:
64,192,118680,1,0,0:0:0:0:
192,192,118680,1,0,0:0:0:0:
320,192,118680,1,0,0:0:0:0:
448,192,118680,1,0,0:0:0:0:
448,192,118852,128,0,119025:0:0:0:0:
192,192,119025,1,0,0:0:0:0:
64,192,119025,1,0,0:0:0:0:
192,192,119197,1,0,0:0:0:0:
448,192,119197,1,0,0:0:0:0:
320,192,119283,1,0,0:0:0:0:
192,192,119370,1,0,0:0:0:0:
64,192,119456,1,0,0:0:0:0:
448,192,119542,1,0,0:0:0:0:
192,192,119542,1,0,0:0:0:0:
320,192,119542,1,0,0:0:0:0:
448,192,119714,1,0,0:0:0:0:
64,192,119714,128,0,119800:0:0:0:0:
192,192,119800,128,0,119887:0:0:0:0:
320,192,119887,128,0,119973:0:0:0:0:
448,192,119973,128,0,120059:0:0:0:0:
320,192,120059,1,0,0:0:0:0:
192,192,120059,1,0,0:0:0:0:
64,192,120059,1,0,0:0:0:0:
192,192,120231,1,0,0:0:0:0:
320,192,120404,1,0,0:0:0:0:
64,192,120404,1,0,0:0:0:0:
320,192,120576,1,0,0:0:0:0:
64,192,120576,1,0,0:0:0:0:
192,192,120662,1,0,0:0:0:0:
320,192,120748,1,0,0:0:0:0:
448,192,120835,1,0,0:0:0:0:
320,192,120921,1,0,0:0:0:0:
64,192,120921,1,0,0:0:0:0:
192,192,120921,1,0,0:0:0:0:
448,192,121093,1,0,0:0:0:0:
192,192,121093,1,0,0:0:0:0:
320,192,121265,1,0,0:0:0:0:
64,192,121265,1,0,0:0:0:0:
192,192,121438,1,0,0:0:0:0:
64,192,121438,1,0,0:0:0:0:
320,192,121438,1,0,0:0:0:0:
448,192,121438,1,0,0:0:0:0:
192,192,121782,1,0,0:0:0:0:
448,192,121782,1,0,0:0:0:0:
192,192,121955,1,0,0:0:0:0:
64,192,122041,1,0,0:0:0:0:
320,192,122041,1,0,0:0:0:0:
192,192,122127,1,0,0:0:0:0:
448,192,122213,1,0,0:0:0:0:
64,192,122300,1,0,0:0:0:0:
192,192,122300,1,0,0:0:0:0:
320,192,122300,1,0,0:0:0:0:
448,192,122472,1,0,0:0:0:0:
192,192,122472,1,0,0:0:0:0:
64,192,122644,1,0,0:0:0:0:
320,192,122644,1,0,0:0:0:0:
192,192,122817,1,0,0:0:0:0:
64,192,122817,1,0,0:0:0:0:
448,192,122817,1,0,0:0:0:0:
320,192,122817,1,0,0:0:0:0:
64,192,122989,1,0,0:0:0:0:
192,192,123161,1,0,0:0:0:0:
448,192,123161,1,0,0:0:0:0:
192,192,123377,1,0,0:0:0:0:
320,192,123463,1,0,0:0:0:0:
64,192,123463,1,0,0:0:0:0:
192,192,123549,1,0,0:0:0:0:
64,192,123635,1,0,0:0:0:0:
192,192,123721,1,0,0:0:0:0:
320,192,123721,1,0,0:0:0:0:
448,192,123721,1,0,0:0:0:0:
64,192,123851,1,0,0:0:0:0:
320,192,123851,1,0,0:0:0:0:
448,192,124023,1,0,0:0:0:0:
192,192,124023,1,0,0:0:0:0:
192,192,124195,1,0,0:0:0:0:
64,192,124195,1,0,0:0:0:0:
448,192,124195,1,0,0:0:0:0:
320,192,124195,1,0,0:0:0:0:
320,192,124368,1,0,0:0:0:0:
192,192,124540,1,0,0:0:0:0:
448,192,124540,1,0,0:0:0:0:
320,192,124713,1,0,0:0:0:0:
64,192,124713,1,0,0:0:0:0:
192,192,124799,1,0,0:0:0:0:
64,192,124885,1,0,0:0:0:0:
192,192,124971,1,0,0:0:0:0:
64,192,125057,1,0,0:0:0:0:
320,192,125057,1,0,0:0:0:0:
448,192,125057,1,0,0:0:0:0:
448,192,125230,1,0,0:0:0:0:
192,192,125230,1,0,0:0:0:0:
64,192,125402,1,0,0:0:0:0:
320,192,125402,1,0,0:0:0:0:
192,192,125574,1,0,0:0:0:0:
64,192,125574,1,0,0:0:0:0:
448,192,125574,1,0,0:0:0:0:
320,192,125574,1,0,0:0:0:0:
192,192,125747,1,0,0:0:0:0:
64,192,125919,1,0,0:0:0:0:
448,192,125919,1,0,0:0:0:0:
192,192,126091,1,0,0:0:0:0:
448,192,126091,1,0,0:0:0:0:
320,192,126178,1,0,0:0:0:0:
192,192,126264,1,0,0:0:0:0:
320,192,126350,1,0,0:0:0:0:
64,192,126436,1,0,0:0:0:0:
192,192,126436,1,0,0:0:0:0:
448,192,126436,1,0,0:0:0:0:
64,192,126608,1,0,0:0:0:0:
320,192,126608,1,0,0:0:0:0:
448,192,126781,1,0,0:0:0:0:
192,192,126781,1,0,0:0:0:0:
192,192,126953,1,0,0:0:0:0:
64,192,126953,1,0,0:0:0:0:
448,192,126953,1,0,0:0:0:0:
320,192,126953,1,0,0:0:0:0:
320,192,127125,128,0,127298:0:0:0:0:
64,192,127298,1,0,0:0:0:0:
192,192,127298,1,0,0:0:0:0:
320,192,127470,1,0,0:0:0:0:
192,192,127556,1,0,0:0:0:0:
64,192,127556,1,0,0:0:0:0:
320,192,127729,1,0,0:0:0:0:
192,192,127815,1,0,0:0:0:0:
64,192,127815,1,0,0:0:0:0:
448,192,127987,1,0,0:0:0:0:
64,192,127987,1,0,0:0:0:0:
320,192,127987,128,0,128332:0:0:0:0:
64,192,128332,1,0,0:0:0:0:
192,192,128332,1,0,0:0:0:0:
192,192,128504,1,0,0:0:0:0:
448,192,128677,1,0,0:0:0:0:
320,192,128677,1,0,0:0:0:0:
192,192,128849,1,0,0:0:0:0:
448,192,128935,1,0,0:0:0:0:
320,192,128935,1,0,0:0:0:0:
192,192,129108,1,0,0:0:0:0:
320,192,129194,1,0,0:0:0:0:
448,192,129194,1,0,0:0:0:0:
192,192,129366,128,0,129538:0:0:0:0:
64,192,129538,128,0,129711:0:0:0:0:
192,192,129711,1,0,0:0:0:0:
320,192,129711,1,0,0:0:0:0:
448,192,129711,1,0,0:0:0:0:
320,192,129883,1,0,0:0:0:0:
192,192,130055,1,0,0:0:0:0:
64,192,130055,1,0,0:0:0:0:
320,192,130228,1,0,0:0:0:0:
192,192,130314,1,0,0:0:0:0:
64,192,130314,1,0,0:0:0:0:
320,192,130486,1,0,0:0:0:0:
192,192,130573,1,0,0:0:0:0:
64,192,130573,1,0,0:0:0:0:
448,192,130745,128,0,130917:0:0:0:0:
320,192,130745,128,0,130917:0:0:0:0:
64,192,130917,128,0,131090:0:0:0:0:
192,192,130917,128,0,131090:0:0:0:0:
320,192,131090,1,0,0:0:0:0:
448,192,131090,1,0,0:0:0:0:
448,192,131262,1,0,0:0:0:0:
64,192,131262,1,0,0:0:0:0:
64,192,131434,1,0,0:0:0:0:
448,192,131434,1,0,0:0:0:0:
320,192,131607,1,0,0:0:0:0:
192,192,131607,1,0,0:0:0:0:
320,192,131779,1,0,0:0:0:0:
192,192,131779,1,0,0:0:0:0:
448,192,131951,1,0,0:0:0:0:
320,192,131951,1,0,0:0:0:0:
320,192,132124,1,0,0:0:0:0:
192,192,132124,1,0,0:0:0:0:
192,192,132296,1,0,0:0:0:0:
64,192,132296,1,0,0:0:0:0:
64,192,132468,1,0,0:0:0:0:
192,192,132468,1,0,0:0:0:0:
320,192,132468,1,0,0:0:0:0:
448,192,132468,1,0,0:0:0:0:
320,192,132641,1,0,0:0:0:0:
448,192,132813,1,0,0:0:0:0:
192,192,132813,1,0,0:0:0:0:
320,192,132942,1,0,0:0:0:0:
192,192,133029,1,0,0:0:0:0:
64,192,133115,1,0,0:0:0:0:
192,192,133201,1,0,0:0:0:0:
448,192,133330,1,0,0:0:0:0:
64,192,133330,1,0,0:0:0:0:
320,192,133330,1,0,0:0:0:0:
192,192,133503,1,0,0:0:0:0:
448,192,133503,1,0,0:0:0:0:
320,192,133675,1,0,0:0:0:0:
64,192,133675,1,0,0:0:0:0:
64,192,133847,1,0,0:0:0:0:
192,192,133847,1,0,0:0:0:0:
320,192,133847,1,0,0:0:0:0:
448,192,133847,1,0,0:0:0:0:
192,192,134020,1,0,0:0:0:0:
320,192,134192,1,0,0:0:0:0:
448,192,134192,1,0,0:0:0:0:
64,192,134321,1,0,0:0:0:0:
320,192,134321,1,0,0:0:0:0:
192,192,134407,1,0,0:0:0:0:
320,192,134494,1,0,0:0:0:0:
448,192,134580,1,0,0:0:0:0:
64,192,134709,1,0,0:0:0:0:
320,192,134709,1,0,0:0:0:0:
192,192,134709,1,0,0:0:0:0:
448,192,134881,1,0,0:0:0:0:
192,192,134881,1,0,0:0:0:0:
320,192,135054,1,0,0:0:0:0:
64,192,135054,1,0,0:0:0:0:
64,192,135226,1,0,0:0:0:0:
192,192,135226,1,0,0:0:0:0:
320,192,135226,1,0,0:0:0:0:
448,192,135226,1,0,0:0:0:0:
320,192,135398,1,0,0:0:0:0:
64,192,135571,1,0,0:0:0:0:
192,192,135571,1,0,0:0:0:0:
448,192,135700,1,0,0:0:0:0:
320,192,135786,1,0,0:0:0:0:
64,192,135872,1,0,0:0:0:0:
192,192,135959,1,0,0:0:0:0:
448,192,136088,1,0,0:0:0:0:
320,192,136088,1,0,0:0:0:0:
64,192,136088,1,0,0:0:0:0:
192,192,136260,1,0,0:0:0:0:
448,192,136260,1,0,0:0:0:0:
320,192,136433,1,0,0:0:0:0:
64,192,136433,1,0,0:0:0:0:
64,192,136605,1,0,0:0:0:0:
192,192,136605,1,0,0:0:0:0:
320,192,136605,1,0,0:0:0:0:
448,192,136605,1,0,0:0:0:0:
64,192,136777,1,0,0:0:0:0:
192,192,136950,1,0,0:0:0:0:
448,192,136950,1,0,0:0:0:0:
320,192,137079,1,0,0:0:0:0:
64,192,137079,1,0,0:0:0:0:
192,192,137165,1,0,0:0:0:0:
64,192,137251,1,0,0:0:0:0:
192,192,137337,1,0,0:0:0:0:
448,192,137467,1,0,0:0:0:0:
320,192,137467,1,0,0:0:0:0:
64,192,137467,1,0,0:0:0:0:
448,192,137639,1,0,0:0:0:0:
64,192,137639,1,0,0:0:0:0:
320,192,137811,1,0,0:0:0:0:
192,192,137811,1,0,0:0:0:0:
448,192,137984,1,0,0:0:0:0:
320,192,137984,1,0,0:0:0:0:
192,192,137984,1,0,0:0:0:0:
64,192,137984,1,0,0:0:0:0:
192,192,138156,1,0,0:0:0:0:
320,192,138328,1,0,0:0:0:0:
448,192,138328,1,0,0:0:0:0:
192,192,138458,1,0,0:0:0:0:
64,192,138544,1,0,0:0:0:0:
320,192,138630,1,0,0:0:0:0:
448,192,138716,1,0,0:0:0:0:
64,192,138846,1,0,0:0:0:0:
192,192,138846,1,0,0:0:0:0:
320,192,138846,1,0,0:0:0:0:
448,192,139018,1,0,0:0:0:0:
192,192,139018,1,0,0:0:0:0:
320,192,139190,1,0,0:0:0:0:
64,192,139190,1,0,0:0:0:0:
192,192,139363,1,0,0:0:0:0:
64,192,139363,1,0,0:0:0:0:
320,192,139363,1,0,0:0:0:0:
448,192,139363,1,0,0:0:0:0:
320,192,139535,1,0,0:0:0:0:
192,192,139707,1,0,0:0:0:0:
64,192,139707,1,0,0:0:0:0:
448,192,139837,1,0,0:0:0:0:
64,192,139837,1,0,0:0:0:0:
320,192,139923,1,0,0:0:0:0:
192,192,140009,1,0,0:0:0:0:
64,192,140095,1,0,0:0:0:0:
192,192,140224,1,0,0:0:0:0:
448,192,140224,1,0,0:0:0:0:
320,192,140224,1,0,0:0:0:0:
320,192,140397,1,0,0:0:0:0:
64,192,140397,1,0,0:0:0:0:
192,192,140569,1,0,0:0:0:0:
448,192,140569,1,0,0:0:0:0:
448,192,140741,1,0,0:0:0:0:
320,192,140741,1,0,0:0:0:0:
192,192,140741,1,0,0:0:0:0:
64,192,140741,1,0,0:0:0:0:
320,192,140914,1,0,0:0:0:0:
448,192,141086,1,0,0:0:0:0:
192,192,141086,1,0,0:0:0:0:
64,192,141259,1,0,0:0:0:0:
448,192,141259,1,0,0:0:0:0:
192,192,141345,1,0,0:0:0:0:
320,192,141431,1,0,0:0:0:0:
448,192,141517,1,0,0:0:0:0:
320,192,141603,1,0,0:0:0:0:
192,192,141603,1,0,0:0:0:0:
64,192,141603,1,0,0:0:0:0:
320,192,141776,1,0,0:0:0:0:
192,192,141776,1,0,0:0:0:0:
448,192,141948,1,0,0:0:0:0:
64,192,141948,1,0,0:0:0:0:
64,192,142120,1,0,0:0:0:0:
192,192,142120,1,0,0:0:0:0:
320,192,142120,1,0,0:0:0:0:
448,192,142120,1,0,0:0:0:0:
320,192,142293,1,0,0:0:0:0:
192,192,142465,1,0,0:0:0:0:
64,192,142465,1,0,0:0:0:0:
448,192,142637,1,0,0:0:0:0:
192,192,142637,1,0,0:0:0:0:
320,192,142724,1,0,0:0:0:0:
192,192,142810,1,0,0:0:0:0:
64,192,142896,1,0,0:0:0:0:
192,192,142982,1,0,0:0:0:0:
320,192,142982,1,0,0:0:0:0:
448,192,142982,1,0,0:0:0:0:
320,192,143154,1,0,0:0:0:0:
64,192,143154,1,0,0:0:0:0:
192,192,143327,1,0,0:0:0:0:
448,192,143327,1,0,0:0:0:0:
64,192,143499,1,0,0:0:0:0:
192,192,143499,1,0,0:0:0:0:
320,192,143499,1,0,0:0:0:0:
448,192,143499,1,0,0:0:0:0:
320,192,143671,1,0,0:0:0:0:
448,192,143844,1,0,0:0:0:0:
192,192,143844,1,0,0:0:0:0:
320,192,143973,1,0,0:0:0:0:
448,192,143973,1,0,0:0:0:0:
192,192,144059,1,0,0:0:0:0:
64,192,144145,1,0,0:0:0:0:
192,192,144232,1,0,0:0:0:0:
448,192,144361,1,0,0:0:0:0:
64,192,144361,1,0,0:0:0:0:
320,192,144361,1,0,0:0:0:0:
192,192,144533,1,0,0:0:0:0:
448,192,144533,1,0,0:0:0:0:
320,192,144706,1,0,0:0:0:0:
64,192,144706,1,0,0:0:0:0:
64,192,144878,1,0,0:0:0:0:
192,192,144878,1,0,0:0:0:0:
320,192,144878,1,0,0:0:0:0:
448,192,144878,1,0,0:0:0:0:
192,192,145050,1,0,0:0:0:0:
320,192,145223,1,0,0:0:0:0:
448,192,145223,1,0,0:0:0:0:
64,192,145352,1,0,0:0:0:0:
320,192,145352,1,0,0:0:0:0:
192,192,145438,1,0,0:0:0:0:
320,192,145524,1,0,0:0:0:0:
448,192,145610,1,0,0:0:0:0:
64,192,145740,1,0,0:0:0:0:
320,192,145740,1,0,0:0:0:0:
192,192,145740,1,0,0:0:0:0:
448,192,145912,1,0,0:0:0:0:
192,192,145912,1,0,0:0:0:0:
320,192,146084,1,0,0:0:0:0:
64,192,146084,1,0,0:0:0:0:
64,192,146257,1,0,0:0:0:0:
192,192,146257,1,0,0:0:0:0:
320,192,146257,1,0,0:0:0:0:
448,192,146257,1,0,0:0:0:0:
320,192,146429,1,0,0:0:0:0:
64,192,146602,1,0,0:0:0:0:
192,192,146602,1,0,0:0:0:0:
448,192,146731,1,0,0:0:0:0:
320,192,146817,1,0,0:0:0:0:
64,192,146903,1,0,0:0:0:0:
192,192,146989,1,0,0:0:0:0:
448,192,147119,1,0,0:0:0:0:
320,192,147119,1,0,0:0:0:0:
64,192,147119,1,0,0:0:0:0:
192,192,147291,1,0,0:0:0:0:
448,192,147291,1,0,0:0:0:0:
320,192,147463,1,0,0:0:0:0:
64,192,147463,1,0,0:0:0:0:
64,192,147636,1,0,0:0:0:0:
192,192,147636,1,0,0:0:0:0:
320,192,147636,1,0,0:0:0:0:
448,192,147636,1,0,0:0:0:0:
64,192,147808,1,0,0:0:0:0:
192,192,147980,1,0,0:0:0:0:
448,192,147980,1,0,0:0:0:0:
320,192,148110,1,0,0:0:0:0:
64,192,148110,1,0,0:0:0:0:
192,192,148196,1,0,0:0:0:0:
64,192,148282,1,0,0:0:0:0:
192,192,148368,1,0,0:0:0:0:
448,192,148497,1,0,0:0:0:0:
320,192,148497,1,0,0:0:0:0:
64,192,148497,1,0,0:0:0:0:
448,192,148670,1,0,0:0:0:0:
64,192,148670,1,0,0:0:0:0:
320,192,148842,1,0,0:0:0:0:
192,192,148842,1,0,0:0:0:0:
448,192,149014,1,0,0:0:0:0:
320,192,149014,1,0,0:0:0:0:
192,192,149014,1,0,0:0:0:0:
64,192,149014,1,0,0:0:0:0:
192,192,149187,1,0,0:0:0:0:
320,192,149359,1,0,0:0:0:0:
448,192,149359,1,0,0:0:0:0:
192,192,149488,1,0,0:0:0:0:
448,192,149488,1,0,0:0:0:0:
64,192,149575,1,0,0:0:0:0:
320,192,149661,1,0,0:0:0:0:
448,192,149747,1,0,0:0:0:0:
64,192,149876,1,0,0:0:0:0:
192,192,149876,1,0,0:0:0:0:
320,192,149876,1,0,0:0:0:0:
448,192,150049,1,0,0:0:0:0:
192,192,150049,1,0,0:0:0:0:
320,192,150221,1,0,0:0:0:0:
64,192,150221,1,0,0:0:0:0:
192,192,150393,1,0,0:0:0:0:
64,192,150393,1,0,0:0:0:0:
320,192,150393,1,0,0:0:0:0:
448,192,150393,1,0,0:0:0:0:
320,192,150566,1,0,0:0:0:0:
192,192,150738,1,0,0:0:0:0:
64,192,150738,1,0,0:0:0:0:
448,192,150867,1,0,0:0:0:0:
192,192,150867,1,0,0:0:0:0:
320,192,150953,1,0,0:0:0:0:
192,192,151040,1,0,0:0:0:0:
64,192,151126,1,0,0:0:0:0:
192,192,151255,1,0,0:0:0:0:
448,192,151255,1,0,0:0:0:0:
320,192,151255,1,0,0:0:0:0:
320,192,151427,1,0,0:0:0:0:
64,192,151427,1,0,0:0:0:0:
192,192,151600,1,0,0:0:0:0:
448,192,151600,1,0,0:0:0:0:
448,192,151772,1,0,0:0:0:0:
320,192,151772,1,0,0:0:0:0:
192,192,151772,1,0,0:0:0:0:
64,192,151772,1,0,0:0:0:0:
320,192,151944,1,0,0:0:0:0:
448,192,152117,1,0,0:0:0:0:
192,192,152117,1,0,0:0:0:0:
64,192,152289,1,0,0:0:0:0:
448,192,152289,1,0,0:0:0:0:
192,192,152375,1,0,0:0:0:0:
320,192,152462,1,0,0:0:0:0:
448,192,152548,1,0,0:0:0:0:
320,192,152634,1,0,0:0:0:0:
192,192,152634,1,0,0:0:0:0:
64,192,152634,1,0,0:0:0:0:
320,192,152806,1,0,0:0:0:0:
192,192,152806,1,0,0:0:0:0:
448,192,152979,1,0,0:0:0:0:
64,192,152979,1,0,0:0:0:0:
64,192,153151,1,0,0:0:0:0:
192,192,153151,1,0,0:0:0:0:
320,192,153151,1,0,0:0:0:0:
448,192,153151,1,0,0:0:0:0:
320,192,153323,1,0,0:0:0:0:
192,192,153496,1,0,0:0:0:0:
64,192,153496,1,0,0:0:0:0:
448,192,153668,1,0,0:0:0:0:
64,192,153668,1,0,0:0:0:0:
320,192,153754,1,0,0:0:0:0:
192,192,153840,1,0,0:0:0:0:
64,192,153927,1,0,0:0:0:0:
192,192,154013,1,0,0:0:0:0:
320,192,154013,1,0,0:0:0:0:
448,192,154013,1,0,0:0:0:0:
320,192,154185,1,0,0:0:0:0:
64,192,154185,1,0,0:0:0:0:
192,192,154357,1,0,0:0:0:0:
448,192,154357,1,0,0:0:0:0:
192,192,154530,1,0,0:0:0:0:
320,192,154530,1,0,0:0:0:0:
448,192,154530,128,0,160045:0:0:0:0:
64,192,154530,128,0,160045:0:0:0:0:
320,192,160045,128,0,162803:0:0:0:0:
192,192,160045,1,0,0:0:0:0:
448,192,160217,1,0,0:0:0:0:
192,192,160390,1,0,0:0:0:0:
64,192,160562,1,0,0:0:0:0:
192,192,160778,1,0,0:0:0:0:
448,192,160907,1,0,0:0:0:0:
192,192,161079,1,0,0:0:0:0:
64,192,161252,1,0,0:0:0:0:
192,192,161424,1,0,0:0:0:0:
448,192,161596,1,0,0:0:0:0:
64,192,161769,1,0,0:0:0:0:
192,192,161941,1,0,0:0:0:0:
64,192,162113,1,0,0:0:0:0:
448,192,162286,1,0,0:0:0:0:
192,192,162458,1,0,0:0:0:0:
64,192,162630,1,0,0:0:0:0:
448,192,162803,1,0,0:0:0:0:
192,192,162803,128,0,165560:0:0:0:0:
64,192,162975,1,0,0:0:0:0:
448,192,163148,1,0,0:0:0:0:
320,192,163320,1,0,0:0:0:0:
448,192,163492,1,0,0:0:0:0:
64,192,163665,1,0,0:0:0:0:
320,192,163837,1,0,0:0:0:0:
448,192,164009,1,0,0:0:0:0:
64,192,164182,1,0,0:0:0:0:
320,192,164354,1,0,0:0:0:0:
448,192,164526,1,0,0:0:0:0:
64,192,164699,1,0,0:0:0:0:
448,192,164871,1,0,0:0:0:0:
320,192,165043,1,0,0:0:0:0:
64,192,165216,1,0,0:0:0:0:
448,192,165388,1,0,0:0:0:0:
64,192,165560,128,0,169697:0:0:0:0:
320,192,165560,1,0,0:0:0:0:
192,192,165733,1,0,0:0:0:0:
320,192,165905,1,0,0:0:0:0:
448,192,166078,1,0,0:0:0:0:
192,192,166250,1,0,0:0:0:0:
448,192,166422,1,0,0:0:0:0:
320,192,166595,1,0,0:0:0:0:
192,192,166767,1,0,0:0:0:0:
448,192,166939,1,0,0:0:0:0:
320,192,167112,1,0,0:0:0:0:
448,192,167284,1,0,0:0:0:0:
192,192,167456,1,0,0:0:0:0:
320,192,167629,1,0,0:0:0:0:
448,192,167801,1,0,0:0:0:0:
192,192,167973,1,0,0:0:0:0:
448,192,168146,1,0,0:0:0:0:
320,192,168318,1,0,0:0:0:0:
192,192,168491,1,0,0:0:0:0:
320,192,168663,1,0,0:0:0:0:
448,192,168835,1,0,0:0:0:0:
192,192,169008,1,0,0:0:0:0:
320,192,169180,1,0,0:0:0:0:
448,192,169352,1,0,0:0:0:0:
192,192,169525,1,0,0:0:0:0:
448,192,169697,1,0,0:0:0:0:
320,192,169697,128,0,171076:0:0:0:0:
192,192,169869,1,0,0:0:0:0:
64,192,170042,1,0,0:0:0:0:
192,192,170214,1,0,0:0:0:0:
448,192,170386,1,0,0:0:0:0:
192,192,170559,1,0,0:0:0:0:
448,192,170731,1,0,0:0:0:0:
192,192,170903,1,0,0:0:0:0:
448,192,171076,128,0,173833:0:0:0:0:
64,192,171076,1,0,0:0:0:0:
320,192,171248,1,0,0:0:0:0:
192,192,171421,1,0,0:0:0:0:
64,192,171593,1,0,0:0:0:0:
320,192,171765,1,0,0:0:0:0:
64,192,171938,1,0,0:0:0:0:
192,192,172110,1,0,0:0:0:0:
320,192,172282,1,0,0:0:0:0:
192,192,172455,1,0,0:0:0:0:
64,192,172627,1,0,0:0:0:0:
192,192,172799,1,0,0:0:0:0:
320,192,172972,1,0,0:0:0:0:
192,192,173144,1,0,0:0:0:0:
64,192,173316,1,0,0:0:0:0:
320,192,173489,1,0,0:0:0:0:
192,192,173661,1,0,0:0:0:0:
320,192,173833,128,0,175212:0:0:0:0:
64,192,173833,1,0,0:0:0:0:
192,192,174006,1,0,0:0:0:0:
448,192,174178,1,0,0:0:0:0:
192,192,174351,1,0,0:0:0:0:
448,192,174523,1,0,0:0:0:0:
64,192,174695,1,0,0:0:0:0:
192,192,174868,1,0,0:0:0:0:
448,192,175040,1,0,0:0:0:0:
64,192,175212,128,0,176591:0:0:0:0:
192,192,175212,1,0,0:0:0:0:
448,192,175385,1,0,0:0:0:0:
320,192,175557,1,0,0:0:0:0:
192,192,175729,1,0,0:0:0:0:
320,192,175902,1,0,0:0:0:0:
448,192,176074,1,0,0:0:0:0:
192,192,176246,1,0,0:0:0:0:
320,192,176419,1,0,0:0:0:0:
448,192,176591,1,0,0:0:0:0:
320,192,176591,1,0,0:0:0:0:
192,192,176591,1,0,0:0:0:0:
448,192,176764,1,0,0:0:0:0:
320,192,176764,1,0,0:0:0:0:
64,192,176764,1,0,0:0:0:0:
64,192,176936,1,0,0:0:0:0:
320,192,176936,1,0,0:0:0:0:
448,192,176936,1,0,0:0:0:0:
320,192,177108,1,0,0:0:0:0:
192,192,177108,1,0,0:0:0:0:
64,192,177108,1,0,0:0:0:0:
192,192,177281,1,0,0:0:0:0:
448,192,177281,1,0,0:0:0:0:
64,192,177281,1,0,0:0:0:0:
64,192,177453,1,0,0:0:0:0:
192,192,177453,1,0,0:0:0:0:
448,192,177453,1,0,0:0:0:0:
448,192,177625,1,0,0:0:0:0:
320,192,177625,1,0,0:0:0:0:
64,192,177625,1,0,0:0:0:0:
320,192,177798,1,0,0:0:0:0:
192,192,177798,1,0,0:0:0:0:
448,192,177798,1,0,0:0:0:0:
64,192,177970,1,0,0:0:0:0:
192,192,177970,1,0,0:0:0:0:
448,192,177970,1,0,0:0:0:0:
448,192,178142,1,0,0:0:0:0:
320,192,178142,1,0,0:0:0:0:
64,192,178142,1,0,0:0:0:0:
320,192,178315,1,0,0:0:0:0:
448,192,178315,1,0,0:0:0:0:
64,192,178315,1,0,0:0:0:0:
64,192,178487,1,0,0:0:0:0:
192,192,178487,1,0,0:0:0:0:
320,192,178487,1,0,0:0:0:0:
448,192,178659,1,0,0:0:0:0:
320,192,178659,1,0,0:0:0:0:
192,192,178659,1,0,0:0:0:0:
64,192,178832,1,0,0:0:0:0:
320,192,178832,1,0,0:0:0:0:
448,192,178832,1,0,0:0:0:0:
448,192,179004,128,0,179176:0:0:0:0:
320,192,179004,128,0,179176:0:0:0:0:
192,192,179176,128,0,179349:0:0:0:0:
64,192,179176,128,0,179349:0:0:0:0:
320,192,179349,128,0,179521:0:0:0:0:
448,192,179349,128,0,179521:0:0:0:0:
192,192,179521,128,0,179694:0:0:0:0:
64,192,179521,128,0,179694:0:0:0:0:
320,192,179694,1,0,0:0:0:0:
448,192,179694,1,0,0:0:0:0:
448,192,179866,1,0,0:0:0:0:
320,192,179866,1,0,0:0:0:0:
192,192,179866,1,0,0:0:0:0:
320,192,180038,1,0,0:0:0:0:
448,192,180038,1,0,0:0:0:0:
64,192,180038,1,0,0:0:0:0:
64,192,180211,1,0,0:0:0:0:
320,192,180211,1,0,0:0:0:0:
448,192,180211,1,0,0:0:0:0:
448,192,180383,1,0,0:0:0:0:
192,192,180383,1,0,0:0:0:0:
64,192,180383,1,0,0:0:0:0:
64,192,180555,1,0,0:0:0:0:
192,192,180555,1,0,0:0:0:0:
320,192,180555,1,0,0:0:0:0:
448,192,180728,1,0,0:0:0:0:
192,192,180728,1,0,0:0:0:0:
64,192,180728,1,0,0:0:0:0:
64,192,180900,1,0,0:0:0:0:
192,192,180900,1,0,0:0:0:0:
448,192,180900,1,0,0:0:0:0:
320,192,181072,1,0,0:0:0:0:
192,192,181072,1,0,0:0:0:0:
64,192,181072,1,0,0:0:0:0:
448,192,181245,128,0,181417:0:0:0:0:
64,192,181245,1,0,0:0:0:0:
320,192,181417,128,0,181589:0:0:0:0:
192,192,181589,128,0,181762:0:0:0:0:
448,192,181589,1,0,0:0:0:0:
64,192,181762,128,0,182107:0:0:0:0:
448,192,181762,1,0,0:0:0:0:
320,192,181934,1,0,0:0:0:0:
448,192,182107,1,0,0:0:0:0:
448,192,182279,1,0,0:0:0:0:
320,192,182279,1,0,0:0:0:0:
64,192,182279,1,0,0:0:0:0:
64,192,182451,1,0,0:0:0:0:
320,192,182451,1,0,0:0:0:0:
448,192,182451,1,0,0:0:0:0:
320,192,182624,1,0,0:0:0:0:
192,192,182624,1,0,0:0:0:0:
64,192,182624,1,0,0:0:0:0:
192,192,182796,1,0,0:0:0:0:
448,192,182796,1,0,0:0:0:0:
64,192,182796,1,0,0:0:0:0:
64,192,182968,1,0,0:0:0:0:
192,192,182968,1,0,0:0:0:0:
448,192,182968,1,0,0:0:0:0:
448,192,183141,1,0,0:0:0:0:
320,192,183141,1,0,0:0:0:0:
64,192,183141,1,0,0:0:0:0:
320,192,183313,1,0,0:0:0:0:
192,192,183313,1,0,0:0:0:0:
448,192,183313,1,0,0:0:0:0:
64,192,183485,1,0,0:0:0:0:
192,192,183485,1,0,0:0:0:0:
448,192,183485,1,0,0:0:0:0:
448,192,183658,1,0,0:0:0:0:
320,192,183658,1,0,0:0:0:0:
64,192,183658,1,0,0:0:0:0:
320,192,183830,1,0,0:0:0:0:
448,192,183830,1,0,0:0:0:0:
64,192,183830,1,0,0:0:0:0:
64,192,184002,1,0,0:0:0:0:
192,192,184002,1,0,0:0:0:0:
320,192,184002,1,0,0:0:0:0:
448,192,184175,1,0,0:0:0:0:
320,192,184175,1,0,0:0:0:0:
192,192,184175,1,0,0:0:0:0:
64,192,184347,1,0,0:0:0:0:
320,192,184347,1,0,0:0:0:0:
448,192,184347,1,0,0:0:0:0:
448,192,184519,128,0,184692:0:0:0:0:
320,192,184519,128,0,184692:0:0:0:0:
192,192,184692,128,0,184864:0:0:0:0:
64,192,184692,128,0,184864:0:0:0:0:
320,192,184864,128,0,185037:0:0:0:0:
448,192,184864,128,0,185037:0:0:0:0:
192,192,185037,128,0,185209:0:0:0:0:
64,192,185037,128,0,185209:0:0:0:0:
320,192,185209,1,0,0:0:0:0:
448,192,185209,1,0,0:0:0:0:
448,192,185381,1,0,0:0:0:0:
320,192,185381,1,0,0:0:0:0:
192,192,185381,1,0,0:0:0:0:
320,192,185554,1,0,0:0:0:0:
448,192,185554,1,0,0:0:0:0:
64,192,185554,1,0,0:0:0:0:
64,192,185726,1,0,0:0:0:0:
320,192,185726,1,0,0:0:0:0:
448,192,185726,1,0,0:0:0:0:
448,192,185898,1,0,0:0:0:0:
192,192,185898,1,0,0:0:0:0:
64,192,185898,1,0,0:0:0:0:
64,192,186071,1,0,0:0:0:0:
192,192,186071,1,0,0:0:0:0:
320,192,186071,1,0,0:0:0:0:
448,192,186243,1,0,0:0:0:0:
192,192,186243,1,0,0:0:0:0:
64,192,186243,1,0,0:0:0:0:
64,192,186415,1,0,0:0:0:0:
192,192,186415,1,0,0:0:0:0:
448,192,186415,1,0,0:0:0:0:
320,192,186588,1,0,0:0:0:0:
192,192,186588,1,0,0:0:0:0:
64,192,186588,1,0,0:0:0:0:
448,192,186760,128,0,186932:0:0:0:0:
64,192,186760,1,0,0:0:0:0:
320,192,186932,128,0,187105:0:0:0:0:
192,192,187105,128,0,187277:0:0:0:0:
448,192,187105,1,0,0:0:0:0:
64,192,187277,128,0,187622:0:0:0:0:
448,192,187277,1,0,0:0:0:0:
320,192,187449,1,0,0:0:0:0:
448,192,187622,1,0,0:0:0:0:
320,192,187622,1,0,0:0:0:0:
192,192,187622,1,0,0:0:0:0:
320,192,187794,1,0,0:0:0:0:
192,192,187967,1,0,0:0:0:0:
64,192,187967,1,0,0:0:0:0:
448,192,187967,1,0,0:0:0:0:
320,192,188139,1,0,0:0:0:0:
64,192,188311,1,0,0:0:0:0:
192,192,188311,1,0,0:0:0:0:
320,192,188311,1,0,0:0:0:0:
448,192,188311,1,0,0:0:0:0:
192,192,188484,1,0,0:0:0:0:
320,192,188656,1,0,0:0:0:0:
448,192,188656,1,0,0:0:0:0:
64,192,188656,1,0,0:0:0:0:
192,192,188828,1,0,0:0:0:0:
448,192,189001,1,0,0:0:0:0:
320,192,189001,1,0,0:0:0:0:
192,192,189001,1,0,0:0:0:0:
64,192,189001,1,0,0:0:0:0:
448,192,189173,1,0,0:0:0:0:
320,192,189345,1,0,0:0:0:0:
192,192,189345,1,0,0:0:0:0:
64,192,189345,1,0,0:0:0:0:
448,192,189518,1,0,0:0:0:0:
448,192,189690,1,0,0:0:0:0:
320,192,189690,1,0,0:0:0:0:
192,192,189690,1,0,0:0:0:0:
64,192,189690,1,0,0:0:0:0:
192,192,189906,1,0,0:0:0:0:
448,192,190035,1,0,0:0:0:0:
320,192,190035,1,0,0:0:0:0:
64,192,190035,1,0,0:0:0:0:
192,192,190207,1,0,0:0:0:0:
448,192,190380,1,0,0:0:0:0:
320,192,190380,1,0,0:0:0:0:
192,192,190380,1,0,0:0:0:0:
64,192,190552,1,0,0:0:0:0:
192,192,190724,1,0,0:0:0:0:
448,192,190724,1,0,0:0:0:0:
64,192,190724,1,0,0:0:0:0:
320,192,190897,1,0,0:0:0:0:
192,192,191069,1,0,0:0:0:0:
64,192,191069,1,0,0:0:0:0:
448,192,191069,1,0,0:0:0:0:
192,192,191241,1,0,0:0:0:0:
320,192,191414,1,0,0:0:0:0:
448,192,191414,1,0,0:0:0:0:
64,192,191414,1,0,0:0:0:0:
192,192,191586,1,0,0:0:0:0:
448,192,191758,1,0,0:0:0:0:
320,192,191758,1,0,0:0:0:0:
192,192,191758,1,0,0:0:0:0:
320,192,191931,1,0,0:0:0:0:
448,192,192103,1,0,0:0:0:0:
192,192,192103,1,0,0:0:0:0:
64,192,192103,1,0,0:0:0:0:
64,192,192275,1,0,0:0:0:0:
448,192,192448,1,0,0:0:0:0:
320,192,192448,1,0,0:0:0:0:
192,192,192448,1,0,0:0:0:0:
320,192,192620,1,0,0:0:0:0:
192,192,192792,1,0,0:0:0:0:
64,192,192792,1,0,0:0:0:0:
448,192,192792,1,0,0:0:0:0:
64,192,192965,1,0,0:0:0:0:
192,192,193137,1,0,0:0:0:0:
320,192,193137,1,0,0:0:0:0:
64,192,193137,1,0,0:0:0:0:
448,192,193137,1,0,0:0:0:0:
320,192,193310,1,0,0:0:0:0:
448,192,193482,1,0,0:0:0:0:
320,192,193482,1,0,0:0:0:0:
192,192,193482,1,0,0:0:0:0:
64,192,193482,1,0,0:0:0:0:
192,192,193654,1,0,0:0:0:0:
448,192,193827,1,0,0:0:0:0:
320,192,193827,1,0,0:0:0:0:
192,192,193827,1,0,0:0:0:0:
64,192,193827,1,0,0:0:0:0:
448,192,193999,1,0,0:0:0:0:
448,192,194171,1,0,0:0:0:0:
320,192,194171,1,0,0:0:0:0:
192,192,194171,1,0,0:0:0:0:
64,192,194171,1,0,0:0:0:0:
192,192,194344,1,0,0:0:0:0:
448,192,194516,1,0,0:0:0:0:
320,192,194516,1,0,0:0:0:0:
192,192,194516,1,0,0:0:0:0:
64,192,194516,1,0,0:0:0:0:
64,192,194688,1,0,0:0:0:0:
192,192,194861,1,0,0:0:0:0:
64,192,194861,1,0,0:0:0:0:
320,192,194861,1,0,0:0:0:0:
448,192,194861,1,0,0:0:0:0:
320,192,195033,1,0,0:0:0:0:
64,192,195205,1,0,0:0:0:0:
192,192,195205,1,0,0:0:0:0:
320,192,195205,1,0,0:0:0:0:
448,192,195205,1,0,0:0:0:0:
192,192,195378,1,0,0:0:0:0:
448,192,195550,1,0,0:0:0:0:
320,192,195550,1,0,0:0:0:0:
192,192,195550,1,0,0:0:0:0:
64,192,195550,1,0,0:0:0:0:
320,192,195722,1,0,0:0:0:0:
448,192,195895,1,0,0:0:0:0:
64,192,195895,1,0,0:0:0:0:
320,192,195981,1,0,0:0:0:0:
192,192,196067,1,0,0:0:0:0:
64,192,196153,1,0,0:0:0:0:
192,192,196240,1,0,0:0:0:0:
448,192,196240,1,0,0:0:0:0:
320,192,196326,1,0,0:0:0:0:
192,192,196412,1,0,0:0:0:0:
64,192,196498,1,0,0:0:0:0:
192,192,196584,1,0,0:0:0:0:
448,192,196584,1,0,0:0:0:0:
320,192,196670,1,0,0:0:0:0:
192,192,196757,1,0,0:0:0:0:
64,192,196843,1,0,0:0:0:0:
192,192,196929,1,0,0:0:0:0:
448,192,196929,1,0,0:0:0:0:
320,192,197015,1,0,0:0:0:0:
192,192,197101,1,0,0:0:0:0:
64,192,197188,1,0,0:0:0:0:
192,192,197274,1,0,0:0:0:0:
320,192,197274,1,0,0:0:0:0:
448,192,197274,1,0,0:0:0:0:
448,192,198135,128,0,198609:0:0:0:0:
320,192,198265,128,0,198609:0:0:0:0:
192,192,198351,128,0,198609:0:0:0:0:
64,192,198437,128,0,198609:0:0:0:0:
64,192,198653,1,0,0:0:0:0:
192,192,198653,1,0,0:0:0:0:
320,192,198653,1,0,0:0:0:0:
448,192,198653,1,0,0:0:0:0:
448,192,198997,1,0,0:0:0:0:
192,192,198997,1,0,0:0:0:0:
320,192,199083,1,0,0:0:0:0:
192,192,199170,1,0,0:0:0:0:
64,192,199256,1,0,0:0:0:0:
192,192,199342,1,0,0:0:0:0:
320,192,199428,1,0,0:0:0:0:
64,192,199514,1,0,0:0:0:0:
448,192,199600,1,0,0:0:0:0:
192,192,199600,1,0,0:0:0:0:
320,192,199687,1,0,0:0:0:0:
192,192,199773,1,0,0:0:0:0:
64,192,199859,1,0,0:0:0:0:
192,192,199945,1,0,0:0:0:0:
448,192,200031,1,0,0:0:0:0:
320,192,200031,1,0,0:0:0:0:
192,192,200031,1,0,0:0:0:0:
64,192,200031,1,0,0:0:0:0:
320,192,200376,1,0,0:0:0:0:
64,192,200376,1,0,0:0:0:0:
192,192,200462,1,0,0:0:0:0:
320,192,200548,1,0,0:0:0:0:
448,192,200635,1,0,0:0:0:0:
320,192,200721,1,0,0:0:0:0:
192,192,200807,1,0,0:0:0:0:
448,192,200893,1,0,0:0:0:0:
320,192,200979,1,0,0:0:0:0:
64,192,200979,1,0,0:0:0:0:
192,192,201065,1,0,0:0:0:0:
320,192,201152,1,0,0:0:0:0:
448,192,201238,1,0,0:0:0:0:
320,192,201324,1,0,0:0:0:0:
448,192,201410,1,0,0:0:0:0:
320,192,201410,1,0,0:0:0:0:
192,192,201410,1,0,0:0:0:0:
64,192,201410,1,0,0:0:0:0:
192,192,201755,1,0,0:0:0:0:
64,192,201755,1,0,0:0:0:0:
320,192,201841,1,0,0:0:0:0:
448,192,201927,1,0,0:0:0:0:
320,192,202013,1,0,0:0:0:0:
192,192,202100,1,0,0:0:0:0:
320,192,202186,1,0,0:0:0:0:
448,192,202272,1,0,0:0:0:0:
192,192,202358,1,0,0:0:0:0:
64,192,202358,1,0,0:0:0:0:
320,192,202444,1,0,0:0:0:0:
448,192,202530,1,0,0:0:0:0:
320,192,202617,1,0,0:0:0:0:
192,192,202703,1,0,0:0:0:0:
448,192,202789,1,0,0:0:0:0:
320,192,202789,1,0,0:0:0:0:
192,192,202789,1,0,0:0:0:0:
64,192,202789,1,0,0:0:0:0:
320,192,202961,1,0,0:0:0:0:
64,192,202961,1,0,0:0:0:0:
448,192,203134,1,0,0:0:0:0:
192,192,203134,1,0,0:0:0:0:
320,192,203220,1,0,0:0:0:0:
192,192,203306,1,0,0:0:0:0:
64,192,203435,1,0,0:0:0:0:
448,192,203435,1,0,0:0:0:0:
320,192,203608,1,0,0:0:0:0:
448,192,203737,1,0,0:0:0:0:
192,192,203737,1,0,0:0:0:0:
320,192,203866,1,0,0:0:0:0:
64,192,203866,1,0,0:0:0:0:
192,192,203996,1,0,0:0:0:0:
448,192,204168,1,0,0:0:0:0:
320,192,204168,1,0,0:0:0:0:
192,192,204168,1,0,0:0:0:0:
64,192,204168,1,0,0:0:0:0:
64,192,204340,128,0,204513:0:0:0:0:
448,192,204513,1,0,0:0:0:0:
192,192,204513,1,0,0:0:0:0:
320,192,204642,1,0,0:0:0:0:
192,192,204728,1,0,0:0:0:0:
64,192,204814,1,0,0:0:0:0:
192,192,204900,1,0,0:0:0:0:
448,192,205030,1,0,0:0:0:0:
64,192,205030,1,0,0:0:0:0:
320,192,205202,1,0,0:0:0:0:
192,192,205202,128,0,205374:0:0:0:0:
320,192,205374,128,0,205547:0:0:0:0:
448,192,205547,128,0,205719:0:0:0:0:
64,192,205547,1,0,0:0:0:0:
192,192,205719,1,0,0:0:0:0:
320,192,205891,1,0,0:0:0:0:
64,192,205891,1,0,0:0:0:0:
192,192,206064,1,0,0:0:0:0:
448,192,206064,1,0,0:0:0:0:
320,192,206150,1,0,0:0:0:0:
448,192,206236,1,0,0:0:0:0:
320,192,206322,1,0,0:0:0:0:
64,192,206408,1,0,0:0:0:0:
448,192,206408,1,0,0:0:0:0:
192,192,206408,1,0,0:0:0:0:
448,192,206581,128,0,206753:0:0:0:0:
64,192,206581,128,0,206753:0:0:0:0:
192,192,206753,128,0,206926:0:0:0:0:
320,192,206753,128,0,206926:0:0:0:0:
448,192,206926,1,0,0:0:0:0:
64,192,206926,1,0,0:0:0:0:
320,192,207098,1,0,0:0:0:0:
192,192,207270,1,0,0:0:0:0:
64,192,207270,1,0,0:0:0:0:
448,192,207443,1,0,0:0:0:0:
192,192,207443,1,0,0:0:0:0:
320,192,207529,1,0,0:0:0:0:
192,192,207615,1,0,0:0:0:0:
64,192,207701,1,0,0:0:0:0:
192,192,207787,1,0,0:0:0:0:
448,192,207787,1,0,0:0:0:0:
320,192,207787,1,0,0:0:0:0:
192,192,207960,1,0,0:0:0:0:
320,192,207960,1,0,0:0:0:0:
448,192,207960,128,0,208132:0:0:0:0:
320,192,208132,128,0,208304:0:0:0:0:
192,192,208304,128,0,208477:0:0:0:0:
64,192,208304,1,0,0:0:0:0:
448,192,208304,1,0,0:0:0:0:
320,192,208477,1,0,0:0:0:0:
448,192,208649,1,0,0:0:0:0:
64,192,208649,1,0,0:0:0:0:
192,192,208821,1,0,0:0:0:0:
320,192,208821,1,0,0:0:0:0:
448,192,208908,1,0,0:0:0:0:
320,192,208994,1,0,0:0:0:0:
192,192,209080,1,0,0:0:0:0:
64,192,209166,1,0,0:0:0:0:
320,192,209166,1,0,0:0:0:0:
448,192,209166,1,0,0:0:0:0:
320,192,209338,1,0,0:0:0:0:
192,192,209338,1,0,0:0:0:0:
448,192,209511,1,0,0:0:0:0:
64,192,209511,1,0,0:0:0:0:
448,192,209683,1,0,0:0:0:0:
320,192,209683,1,0,0:0:0:0:
192,192,209683,1,0,0:0:0:0:
64,192,209683,1,0,0:0:0:0:
448,192,210028,1,0,0:0:0:0:
192,192,210028,1,0,0:0:0:0:
320,192,210114,1,0,0:0:0:0:
192,192,210200,1,0,0:0:0:0:
64,192,210286,1,0,0:0:0:0:
192,192,210373,1,0,0:0:0:0:
320,192,210459,1,0,0:0:0:0:
64,192,210545,1,0,0:0:0:0:
448,192,210631,1,0,0:0:0:0:
192,192,210631,1,0,0:0:0:0:
320,192,210717,1,0,0:0:0:0:
192,192,210804,1,0,0:0:0:0:
64,192,210890,1,0,0:0:0:0:
192,192,210976,1,0,0:0:0:0:
448,192,211062,1,0,0:0:0:0:
320,192,211062,1,0,0:0:0:0:
192,192,211062,1,0,0:0:0:0:
64,192,211062,1,0,0:0:0:0:
320,192,211407,1,0,0:0:0:0:
64,192,211407,1,0,0:0:0:0:
192,192,211493,1,0,0:0:0:0:
320,192,211579,1,0,0:0:0:0:
448,192,211665,1,0,0:0:0:0:
320,192,211751,1,0,0:0:0:0:
192,192,211838,1,0,0:0:0:0:
448,192,211924,1,0,0:0:0:0:
320,192,212010,1,0,0:0:0:0:
64,192,212010,1,0,0:0:0:0:
192,192,212096,1,0,0:0:0:0:
320,192,212182,1,0,0:0:0:0:
448,192,212269,1,0,0:0:0:0:
320,192,212355,1,0,0:0:0:0:
448,192,212441,1,0,0:0:0:0:
320,192,212441,1,0,0:0:0:0:
192,192,212441,1,0,0:0:0:0:
64,192,212441,1,0,0:0:0:0:
192,192,212786,1,0,0:0:0:0:
64,192,212786,1,0,0:0:0:0:
320,192,212872,1,0,0:0:0:0:
448,192,212958,1,0,0:0:0:0:
320,192,213044,1,0,0:0:0:0:
192,192,213130,1,0,0:0:0:0:
320,192,213216,1,0,0:0:0:0:
448,192,213303,1,0,0:0:0:0:
192,192,213389,1,0,0:0:0:0:
64,192,213389,1,0,0:0:0:0:
320,192,213475,1,0,0:0:0:0:
448,192,213561,1,0,0:0:0:0:
320,192,213647,1,0,0:0:0:0:
192,192,213734,1,0,0:0:0:0:
448,192,213820,1,0,0:0:0:0:
320,192,213820,1,0,0:0:0:0:
192,192,213820,1,0,0:0:0:0:
64,192,213820,1,0,0:0:0:0:
320,192,213992,1,0,0:0:0:0:
64,192,213992,1,0,0:0:0:0:
448,192,214164,1,0,0:0:0:0:
192,192,214164,1,0,0:0:0:0:
320,192,214251,1,0,0:0:0:0:
192,192,214337,1,0,0:0:0:0:
64,192,214466,1,0,0:0:0:0:
448,192,214466,1,0,0:0:0:0:
320,192,214638,1,0,0:0:0:0:
448,192,214768,1,0,0:0:0:0:
192,192,214768,1,0,0:0:0:0:
320,192,214897,1,0,0:0:0:0:
64,192,214897,1,0,0:0:0:0:
192,192,215026,1,0,0:0:0:0:
448,192,215199,1,0,0:0:0:0:
320,192,215199,1,0,0:0:0:0:
192,192,215199,1,0,0:0:0:0:
64,192,215199,1,0,0:0:0:0:
64,192,215371,128,0,215543:0:0:0:0:
448,192,215543,1,0,0:0:0:0:
192,192,215543,1,0,0:0:0:0:
320,192,215673,1,0,0:0:0:0:
192,192,215759,1,0,0:0:0:0:
64,192,215845,1,0,0:0:0:0:
192,192,215931,1,0,0:0:0:0:
448,192,216060,1,0,0:0:0:0:
64,192,216060,1,0,0:0:0:0:
320,192,216233,1,0,0:0:0:0:
192,192,216233,128,0,216405:0:0:0:0:
320,192,216405,128,0,216577:0:0:0:0:
448,192,216577,128,0,216750:0:0:0:0:
64,192,216577,1,0,0:0:0:0:
192,192,216750,1,0,0:0:0:0:
320,192,216922,1,0,0:0:0:0:
64,192,216922,1,0,0:0:0:0:
192,192,217094,1,0,0:0:0:0:
448,192,217094,1,0,0:0:0:0:
320,192,217181,1,0,0:0:0:0:
448,192,217267,1,0,0:0:0:0:
320,192,217353,1,0,0:0:0:0:
64,192,217439,1,0,0:0:0:0:
448,192,217439,1,0,0:0:0:0:
192,192,217439,1,0,0:0:0:0:
448,192,217612,128,0,217784:0:0:0:0:
64,192,217612,128,0,217784:0:0:0:0:
192,192,217784,128,0,217956:0:0:0:0:
320,192,217784,128,0,217956:0:0:0:0:
448,192,217956,1,0,0:0:0:0:
64,192,217956,1,0,0:0:0:0:
320,192,218129,1,0,0:0:0:0:
192,192,218301,1,0,0:0:0:0:
448,192,218301,1,0,0:0:0:0:
64,192,218473,1,0,0:0:0:0:
320,192,218473,1,0,0:0:0:0:
192,192,218559,1,0,0:0:0:0:
320,192,218646,1,0,0:0:0:0:
448,192,218732,1,0,0:0:0:0:
320,192,218818,1,0,0:0:0:0:
64,192,218818,1,0,0:0:0:0:
192,192,218990,1,0,0:0:0:0:
448,192,218990,1,0,0:0:0:0:
320,192,219163,1,0,0:0:0:0:
448,192,219335,1,0,0:0:0:0:
320,192,219335,1,0,0:0:0:0:
192,192,219335,1,0,0:0:0:0:
64,192,219335,1,0,0:0:0:0:
64,192,219507,1,0,0:0:0:0:
192,192,219507,1,0,0:0:0:0:
64,192,219680,1,0,0:0:0:0:
192,192,219680,1,0,0:0:0:0:
192,192,219852,1,0,0:0:0:0:
320,192,219852,1,0,0:0:0:0:
192,192,220024,1,0,0:0:0:0:
320,192,220024,1,0,0:0:0:0:
448,192,220197,1,0,0:0:0:0:
320,192,220197,1,0,0:0:0:0:
320,192,220369,1,0,0:0:0:0:
448,192,220369,1,0,0:0:0:0:
64,192,220542,1,0,0:0:0:0:
448,192,220542,1,0,0:0:0:0:
448,192,220714,1,0,0:0:0:0:
320,192,220714,1,0,0:0:0:0:
192,192,220714,1,0,0:0:0:0:
64,192,220714,1,0,0:0:0:0:
192,192,221059,1,0,0:0:0:0:
448,192,221059,1,0,0:0:0:0:
320,192,221145,1,0,0:0:0:0:
192,192,221231,1,0,0:0:0:0:
64,192,221317,1,0,0:0:0:0:
192,192,221403,1,0,0:0:0:0:
320,192,221489,1,0,0:0:0:0:
64,192,221576,1,0,0:0:0:0:
192,192,221662,1,0,0:0:0:0:
448,192,221662,1,0,0:0:0:0:
320,192,221748,1,0,0:0:0:0:
192,192,221834,1,0,0:0:0:0:
64,192,221920,1,0,0:0:0:0:
192,192,222007,1,0,0:0:0:0:
192,192,222093,1,0,0:0:0:0:
64,192,222093,1,0,0:0:0:0:
448,192,222093,1,0,0:0:0:0:
320,192,222093,1,0,0:0:0:0:
64,192,222437,1,0,0:0:0:0:
320,192,222437,1,0,0:0:0:0:
192,192,222524,1,0,0:0:0:0:
320,192,222610,1,0,0:0:0:0:
448,192,222696,1,0,0:0:0:0:
320,192,222782,1,0,0:0:0:0:
192,192,222868,1,0,0:0:0:0:
448,192,222954,1,0,0:0:0:0:
64,192,223041,1,0,0:0:0:0:
320,192,223041,1,0,0:0:0:0:
192,192,223127,1,0,0:0:0:0:
320,192,223213,1,0,0:0:0:0:
448,192,223299,1,0,0:0:0:0:
320,192,223385,1,0,0:0:0:0:
192,192,223472,1,0,0:0:0:0:
64,192,223472,1,0,0:0:0:0:
448,192,223472,1,0,0:0:0:0:
320,192,223472,1,0,0:0:0:0:
64,192,223816,1,0,0:0:0:0:
192,192,223816,1,0,0:0:0:0:
320,192,223902,1,0,0:0:0:0:
448,192,223989,1,0,0:0:0:0:
320,192,224075,1,0,0:0:0:0:
192,192,224161,1,0,0:0:0:0:
320,192,224247,1,0,0:0:0:0:
448,192,224333,1,0,0:0:0:0:
64,192,224419,1,0,0:0:0:0:
192,192,224419,1,0,0:0:0:0:
320,192,224506,1,0,0:0:0:0:
448,192,224592,1,0,0:0:0:0:
320,192,224678,1,0,0:0:0:0:
192,192,224764,1,0,0:0:0:0:
192,192,224850,1,0,0:0:0:0:
64,192,224850,1,0,0:0:0:0:
448,192,224850,1,0,0:0:0:0:
320,192,224850,1,0,0:0:0:0:
64,192,225023,1,0,0:0:0:0:
320,192,225023,1,0,0:0:0:0:
192,192,225195,1,0,0:0:0:0:
448,192,225195,1,0,0:0:0:0:
320,192,225281,1,0,0:0:0:0:
192,192,225367,1,0,0:0:0:0:
448,192,225497,1,0,0:0:0:0:
64,192,225497,1,0,0:0:0:0:
320,192,225669,1,0,0:0:0:0:
192,192,225798,1,0,0:0:0:0:
448,192,225798,1,0,0:0:0:0:
64,192,225928,1,0,0:0:0:0:
320,192,225928,1,0,0:0:0:0:
192,192,226057,1,0,0:0:0:0:
192,192,226229,1,0,0:0:0:0:
64,192,226229,1,0,0:0:0:0:
448,192,226229,1,0,0:0:0:0:
320,192,226229,1,0,0:0:0:0:
64,192,226402,128,0,226574:0:0:0:0:
192,192,226574,1,0,0:0:0:0:
448,192,226574,1,0,0:0:0:0:
320,192,226703,1,0,0:0:0:0:
192,192,226789,1,0,0:0:0:0:
64,192,226876,1,0,0:0:0:0:
192,192,226962,1,0,0:0:0:0:
64,192,227091,1,0,0:0:0:0:
448,192,227091,1,0,0:0:0:0:
192,192,227263,128,0,227436:0:0:0:0:
320,192,227263,1,0,0:0:0:0:
320,192,227436,128,0,227608:0:0:0:0:
64,192,227608,1,0,0:0:0:0:
448,192,227608,128,0,227780:0:0:0:0:
192,192,227780,1,0,0:0:0:0:
64,192,227953,1,0,0:0:0:0:
320,192,227953,1,0,0:0:0:0:
448,192,228125,1,0,0:0:0:0:
192,192,228125,1,0,0:0:0:0:
320,192,228211,1,0,0:0:0:0:
448,192,228297,1,0,0:0:0:0:
320,192,228384,1,0,0:0:0:0:
192,192,228470,1,0,0:0:0:0:
448,192,228470,1,0,0:0:0:0:
64,192,228470,1,0,0:0:0:0:
64,192,228642,128,0,228815:0:0:0:0:
448,192,228642,128,0,228815:0:0:0:0:
320,192,228815,128,0,228987:0:0:0:0:
192,192,228815,128,0,228987:0:0:0:0:
64,192,228987,1,0,0:0:0:0:
448,192,228987,1,0,0:0:0:0:
320,192,229159,1,0,0:0:0:0:
64,192,229332,1,0,0:0:0:0:
192,192,229332,1,0,0:0:0:0:
192,192,229504,1,0,0:0:0:0:
448,192,229504,1,0,0:0:0:0:
320,192,229590,1,0,0:0:0:0:
192,192,229676,1,0,0:0:0:0:
64,192,229762,1,0,0:0:0:0:
320,192,229849,1,0,0:0:0:0:
448,192,229849,1,0,0:0:0:0:
192,192,229849,1,0,0:0:0:0:
448,192,230021,128,0,230193:0:0:0:0:
320,192,230021,1,0,0:0:0:0:
192,192,230021,1,0,0:0:0:0:
320,192,230193,128,0,230366:0:0:0:0:
448,192,230366,1,0,0:0:0:0:
64,192,230366,1,0,0:0:0:0:
192,192,230366,128,0,230538:0:0:0:0:
320,192,230538,1,0,0:0:0:0:
64,192,230710,1,0,0:0:0:0:
448,192,230710,1,0,0:0:0:0:
320,192,230883,1,0,0:0:0:0:
192,192,230883,1,0,0:0:0:0:
448,192,230969,1,0,0:0:0:0:
320,192,231055,1,0,0:0:0:0:
192,192,231141,1,0,0:0:0:0:
448,192,231227,1,0,0:0:0:0:
320,192,231227,1,0,0:0:0:0:
64,192,231227,1,0,0:0:0:0:
192,192,231400,1,0,0:0:0:0:
320,192,231400,1,0,0:0:0:0:
64,192,231572,1,0,0:0:0:0:
448,192,231572,1,0,0:0:0:0:
192,192,231745,1,0,0:0:0:0:
64,192,231745,1,0,0:0:0:0:
448,192,231745,1,0,0:0:0:0:
320,192,231745,1,0,0:0:0:0:
192,192,232089,1,0,0:0:0:0:
448,192,232089,1,0,0:0:0:0:
320,192,232175,1,0,0:0:0:0:
192,192,232262,1,0,0:0:0:0:
64,192,232348,1,0,0:0:0:0:
192,192,232434,1,0,0:0:0:0:
320,192,232520,1,0,0:0:0:0:
64,192,232606,1,0,0:0:0:0:
192,192,232693,1,0,0:0:0:0:
448,192,232693,1,0,0:0:0:0:
320,192,232779,1,0,0:0:0:0:
192,192,232865,1,0,0:0:0:0:
64,192,232951,1,0,0:0:0:0:
192,192,233037,1,0,0:0:0:0:
192,192,233123,1,0,0:0:0:0:
64,192,233123,1,0,0:0:0:0:
448,192,233123,1,0,0:0:0:0:
320,192,233123,1,0,0:0:0:0:
64,192,233468,1,0,0:0:0:0:
320,192,233468,1,0,0:0:0:0:
192,192,233554,1,0,0:0:0:0:
320,192,233640,1,0,0:0:0:0:
448,192,233727,1,0,0:0:0:0:
320,192,233813,1,0,0:0:0:0:
192,192,233899,1,0,0:0:0:0:
448,192,233985,1,0,0:0:0:0:
64,192,234071,1,0,0:0:0:0:
320,192,234071,1,0,0:0:0:0:
192,192,234158,1,0,0:0:0:0:
320,192,234244,1,0,0:0:0:0:
448,192,234330,1,0,0:0:0:0:
320,192,234416,1,0,0:0:0:0:
192,192,234502,1,0,0:0:0:0:
64,192,234502,1,0,0:0:0:0:
448,192,234502,1,0,0:0:0:0:
320,192,234502,1,0,0:0:0:0:
64,192,234847,1,0,0:0:0:0:
192,192,234847,1,0,0:0:0:0:
320,192,234933,1,0,0:0:0:0:
448,192,235019,1,0,0:0:0:0:
320,192,235105,1,0,0:0:0:0:
192,192,235192,1,0,0:0:0:0:
320,192,235278,1,0,0:0:0:0:
448,192,235364,1,0,0:0:0:0:
64,192,235450,1,0,0:0:0:0:
192,192,235450,1,0,0:0:0:0:
320,192,235536,1,0,0:0:0:0:
448,192,235623,1,0,0:0:0:0:
320,192,235709,1,0,0:0:0:0:
192,192,235795,1,0,0:0:0:0:
192,192,235881,1,0,0:0:0:0:
64,192,235881,1,0,0:0:0:0:
448,192,235881,1,0,0:0:0:0:
320,192,235881,1,0,0:0:0:0:
64,192,236053,1,0,0:0:0:0:
320,192,236053,1,0,0:0:0:0:
192,192,236226,1,0,0:0:0:0:
448,192,236226,1,0,0:0:0:0:
320,192,236312,1,0,0:0:0:0:
192,192,236398,1,0,0:0:0:0:
448,192,236527,1,0,0:0:0:0:
64,192,236527,1,0,0:0:0:0:
320,192,236700,1,0,0:0:0:0:
192,192,236829,1,0,0:0:0:0:
448,192,236829,1,0,0:0:0:0:
64,192,236958,1,0,0:0:0:0:
320,192,236958,1,0,0:0:0:0:
192,192,237088,1,0,0:0:0:0:
192,192,237260,1,0,0:0:0:0:
64,192,237260,1,0,0:0:0:0:
448,192,237260,1,0,0:0:0:0:
320,192,237260,1,0,0:0:0:0:
448,192,237432,128,0,237605:0:0:0:0:
192,192,237605,1,0,0:0:0:0:
64,192,237605,1,0,0:0:0:0:
320,192,237820,1,0,0:0:0:0:
192,192,237863,1,0,0:0:0:0:
64,192,237863,1,0,0:0:0:0:
320,192,238079,1,0,0:0:0:0:
192,192,238122,1,0,0:0:0:0:
64,192,238122,1,0,0:0:0:0:
320,192,238380,128,0,238466:0:0:0:0:
448,192,238380,1,0,0:0:0:0:
192,192,238466,128,0,238553:0:0:0:0:
64,192,238553,128,0,238639:0:0:0:0:
448,192,238639,1,0,0:0:0:0:
64,192,238811,128,0,238983:0:0:0:0:
320,192,238983,1,0,0:0:0:0:
448,192,238983,1,0,0:0:0:0:
192,192,239199,1,0,0:0:0:0:
320,192,239242,1,0,0:0:0:0:
448,192,239242,1,0,0:0:0:0:
192,192,239457,1,0,0:0:0:0:
320,192,239501,1,0,0:0:0:0:
448,192,239501,1,0,0:0:0:0:
64,192,239673,1,0,0:0:0:0:
448,192,239673,1,0,0:0:0:0:
320,192,239845,128,0,240018:0:0:0:0:
448,192,240018,1,0,0:0:0:0:
192,192,240018,1,0,0:0:0:0:
64,192,240018,1,0,0:0:0:0:
448,192,240190,128,0,240362:0:0:0:0:
64,192,240362,1,0,0:0:0:0:
192,192,240362,1,0,0:0:0:0:
320,192,240578,1,0,0:0:0:0:
192,192,240621,1,0,0:0:0:0:
64,192,240621,1,0,0:0:0:0:
320,192,240836,1,0,0:0:0:0:
192,192,240879,1,0,0:0:0:0:
64,192,240879,1,0,0:0:0:0:
448,192,241052,1,0,0:0:0:0:
192,192,241052,1,0,0:0:0:0:
320,192,241224,1,0,0:0:0:0:
448,192,241396,1,0,0:0:0:0:
320,192,241396,1,0,0:0:0:0:
192,192,241396,1,0,0:0:0:0:
64,192,241396,1,0,0:0:0:0:
448,192,241569,1,0,0:0:0:0:
320,192,241569,1,0,0:0:0:0:
64,192,241569,1,0,0:0:0:0:
64,192,241741,1,0,0:0:0:0:
192,192,241741,1,0,0:0:0:0:
320,192,241741,1,0,0:0:0:0:
448,192,241913,1,0,0:0:0:0:
192,192,241913,1,0,0:0:0:0:
64,192,241913,1,0,0:0:0:0:
448,192,242086,1,0,0:0:0:0:
192,192,242086,1,0,0:0:0:0:
64,192,242086,1,0,0:0:0:0:
192,192,242258,1,0,0:0:0:0:
320,192,242258,1,0,0:0:0:0:
448,192,242258,1,0,0:0:0:0:
448,192,242431,1,0,0:0:0:0:
320,192,242431,1,0,0:0:0:0:
64,192,242431,1,0,0:0:0:0:
64,192,242603,1,0,0:0:0:0:
320,192,242603,1,0,0:0:0:0:
448,192,242603,1,0,0:0:0:0:
448,192,242775,1,0,0:0:0:0:
320,192,242775,1,0,0:0:0:0:
192,192,242775,1,0,0:0:0:0:
64,192,242775,1,0,0:0:0:0:
320,192,242948,1,0,0:0:0:0:
448,192,243120,1,0,0:0:0:0:
192,192,243120,1,0,0:0:0:0:
320,192,243249,1,0,0:0:0:0:
192,192,243335,1,0,0:0:0:0:
64,192,243422,1,0,0:0:0:0:
192,192,243508,1,0,0:0:0:0:
448,192,243637,1,0,0:0:0:0:
64,192,243637,1,0,0:0:0:0:
320,192,243637,1,0,0:0:0:0:
192,192,243809,1,0,0:0:0:0:
448,192,243809,1,0,0:0:0:0:
320,192,243982,1,0,0:0:0:0:
64,192,243982,1,0,0:0:0:0:
64,192,244154,1,0,0:0:0:0:
192,192,244154,1,0,0:0:0:0:
320,192,244154,1,0,0:0:0:0:
448,192,244154,1,0,0:0:0:0:
192,192,244326,1,0,0:0:0:0:
320,192,244499,1,0,0:0:0:0:
448,192,244499,1,0,0:0:0:0:
64,192,244628,1,0,0:0:0:0:
320,192,244628,1,0,0:0:0:0:
192,192,244714,1,0,0:0:0:0:
320,192,244800,1,0,0:0:0:0:
448,192,244887,1,0,0:0:0:0:
64,192,245016,1,0,0:0:0:0:
320,192,245016,1,0,0:0:0:0:
192,192,245016,1,0,0:0:0:0:
448,192,245188,1,0,0:0:0:0:
192,192,245188,1,0,0:0:0:0:
320,192,245361,1,0,0:0:0:0:
64,192,245361,1,0,0:0:0:0:
64,192,245533,1,0,0:0:0:0:
192,192,245533,1,0,0:0:0:0:
320,192,245533,1,0,0:0:0:0:
448,192,245533,1,0,0:0:0:0:
320,192,245705,1,0,0:0:0:0:
64,192,245878,1,0,0:0:0:0:
192,192,245878,1,0,0:0:0:0:
448,192,246007,1,0,0:0:0:0:
320,192,246093,1,0,0:0:0:0:
64,192,246179,1,0,0:0:0:0:
192,192,246265,1,0,0:0:0:0:
448,192,246395,1,0,0:0:0:0:
320,192,246395,1,0,0:0:0:0:
64,192,246395,1,0,0:0:0:0:
192,192,246567,1,0,0:0:0:0:
448,192,246567,1,0,0:0:0:0:
320,192,246739,1,0,0:0:0:0:
64,192,246739,1,0,0:0:0:0:
64,192,246912,1,0,0:0:0:0:
192,192,246912,1,0,0:0:0:0:
320,192,246912,1,0,0:0:0:0:
448,192,246912,1,0,0:0:0:0:
64,192,247084,1,0,0:0:0:0:
192,192,247256,1,0,0:0:0:0:
448,192,247256,1,0,0:0:0:0:
320,192,247386,1,0,0:0:0:0:
64,192,247386,1,0,0:0:0:0:
192,192,247472,1,0,0:0:0:0:
64,192,247558,1,0,0:0:0:0:
192,192,247644,1,0,0:0:0:0:
448,192,247774,1,0,0:0:0:0:
320,192,247774,1,0,0:0:0:0:
64,192,247774,1,0,0:0:0:0:
448,192,247946,1,0,0:0:0:0:
64,192,247946,1,0,0:0:0:0:
320,192,248118,1,0,0:0:0:0:
192,192,248118,1,0,0:0:0:0:
448,192,248291,1,0,0:0:0:0:
320,192,248291,1,0,0:0:0:0:
192,192,248291,1,0,0:0:0:0:
64,192,248291,1,0,0:0:0:0:
192,192,248463,1,0,0:0:0:0:
320,192,248635,1,0,0:0:0:0:
448,192,248635,1,0,0:0:0:0:
192,192,248765,1,0,0:0:0:0:
64,192,248851,1,0,0:0:0:0:
320,192,248937,1,0,0:0:0:0:
448,192,249023,1,0,0:0:0:0:
64,192,249152,1,0,0:0:0:0:
192,192,249152,1,0,0:0:0:0:
320,192,249152,1,0,0:0:0:0:
448,192,249325,1,0,0:0:0:0:
192,192,249325,1,0,0:0:0:0:
320,192,249497,1,0,0:0:0:0:
64,192,249497,1,0,0:0:0:0:
192,192,249669,1,0,0:0:0:0:
64,192,249669,1,0,0:0:0:0:
320,192,249669,1,0,0:0:0:0:
448,192,249669,1,0,0:0:0:0:
320,192,249842,1,0,0:0:0:0:
192,192,250014,1,0,0:0:0:0:
64,192,250014,1,0,0:0:0:0:
448,192,250143,1,0,0:0:0:0:
64,192,250143,1,0,0:0:0:0:
320,192,250230,1,0,0:0:0:0:
192,192,250316,1,0,0:0:0:0:
64,192,250402,1,0,0:0:0:0:
192,192,250531,1,0,0:0:0:0:
448,192,250531,1,0,0:0:0:0:
320,192,250531,1,0,0:0:0:0:
320,192,250704,1,0,0:0:0:0:
64,192,250704,1,0,0:0:0:0:
192,192,250876,1,0,0:0:0:0:
448,192,250876,1,0,0:0:0:0:
448,192,251048,1,0,0:0:0:0:
320,192,251048,1,0,0:0:0:0:
192,192,251048,1,0,0:0:0:0:
64,192,251048,1,0,0:0:0:0:
320,192,251221,1,0,0:0:0:0:
448,192,251393,1,0,0:0:0:0:
192,192,251393,1,0,0:0:0:0:
64,192,251565,1,0,0:0:0:0:
448,192,251565,1,0,0:0:0:0:
192,192,251651,1,0,0:0:0:0:
320,192,251738,1,0,0:0:0:0:
448,192,251824,1,0,0:0:0:0:
320,192,251910,1,0,0:0:0:0:
192,192,251910,1,0,0:0:0:0:
64,192,251910,1,0,0:0:0:0:
320,192,252082,1,0,0:0:0:0:
192,192,252082,1,0,0:0:0:0:
448,192,252255,1,0,0:0:0:0:
64,192,252255,1,0,0:0:0:0:
64,192,252427,1,0,0:0:0:0:
192,192,252427,1,0,0:0:0:0:
320,192,252427,1,0,0:0:0:0:
448,192,252427,1,0,0:0:0:0:
320,192,252599,1,0,0:0:0:0:
192,192,252772,1,0,0:0:0:0:
64,192,252772,1,0,0:0:0:0:
448,192,252944,1,0,0:0:0:0:
192,192,252944,1,0,0:0:0:0:
320,192,253030,1,0,0:0:0:0:
192,192,253117,1,0,0:0:0:0:
64,192,253203,1,0,0:0:0:0:
192,192,253289,1,0,0:0:0:0:
320,192,253289,1,0,0:0:0:0:
448,192,253289,1,0,0:0:0:0:
320,192,253461,1,0,0:0:0:0:
64,192,253461,1,0,0:0:0:0:
192,192,253634,1,0,0:0:0:0:
448,192,253634,1,0,0:0:0:0:
64,192,253806,1,0,0:0:0:0:
192,192,253806,1,0,0:0:0:0:
320,192,253806,1,0,0:0:0:0:
448,192,253806,1,0,0:0:0:0:
320,192,253978,1,0,0:0:0:0:
448,192,254151,1,0,0:0:0:0:
192,192,254151,1,0,0:0:0:0:
320,192,254280,1,0,0:0:0:0:
448,192,254280,1,0,0:0:0:0:
192,192,254366,1,0,0:0:0:0:
64,192,254452,1,0,0:0:0:0:
192,192,254538,1,0,0:0:0:0:
448,192,254668,1,0,0:0:0:0:
64,192,254668,1,0,0:0:0:0:
320,192,254668,1,0,0:0:0:0:
192,192,254840,1,0,0:0:0:0:
448,192,254840,1,0,0:0:0:0:
320,192,255012,1,0,0:0:0:0:
64,192,255012,1,0,0:0:0:0:
64,192,255185,1,0,0:0:0:0:
192,192,255185,1,0,0:0:0:0:
320,192,255185,1,0,0:0:0:0:
448,192,255185,1,0,0:0:0:0:
192,192,255357,1,0,0:0:0:0:
320,192,255529,1,0,0:0:0:0:
448,192,255529,1,0,0:0:0:0:
64,192,255659,1,0,0:0:0:0:
320,192,255659,1,0,0:0:0:0:
192,192,255745,1,0,0:0:0:0:
320,192,255831,1,0,0:0:0:0:
448,192,255917,1,0,0:0:0:0:
64,192,256047,1,0,0:0:0:0:
320,192,256047,1,0,0:0:0:0:
192,192,256047,1,0,0:0:0:0:
448,192,256219,1,0,0:0:0:0:
192,192,256219,1,0,0:0:0:0:
320,192,256391,1,0,0:0:0:0:
64,192,256391,1,0,0:0:0:0:
64,192,256564,1,0,0:0:0:0:
192,192,256564,1,0,0:0:0:0:
320,192,256564,1,0,0:0:0:0:
448,192,256564,1,0,0:0:0:0:
320,192,256736,1,0,0:0:0:0:
64,192,256908,1,0,0:0:0:0:
192,192,256908,1,0,0:0:0:0:
448,192,257038,1,0,0:0:0:0:
320,192,257124,1,0,0:0:0:0:
64,192,257210,1,0,0:0:0:0:
192,192,257296,1,0,0:0:0:0:
448,192,257425,1,0,0:0:0:0:
320,192,257425,1,0,0:0:0:0:
64,192,257425,1,0,0:0:0:0:
192,192,257598,1,0,0:0:0:0:
448,192,257598,1,0,0:0:0:0:
320,192,257770,1,0,0:0:0:0:
64,192,257770,1,0,0:0:0:0:
64,192,257942,1,0,0:0:0:0:
192,192,257942,1,0,0:0:0:0:
320,192,257942,1,0,0:0:0:0:
448,192,257942,1,0,0:0:0:0:
64,192,258115,1,0,0:0:0:0:
192,192,258287,1,0,0:0:0:0:
448,192,258287,1,0,0:0:0:0:
320,192,258416,1,0,0:0:0:0:
64,192,258416,1,0,0:0:0:0:
192,192,258503,1,0,0:0:0:0:
64,192,258589,1,0,0:0:0:0:
192,192,258675,1,0,0:0:0:0:
448,192,258804,1,0,0:0:0:0:
320,192,258804,1,0,0:0:0:0:
64,192,258804,1,0,0:0:0:0:
448,192,258977,1,0,0:0:0:0:
64,192,258977,1,0,0:0:0:0:
320,192,259149,1,0,0:0:0:0:
192,192,259149,1,0,0:0:0:0:
448,192,259321,1,0,0:0:0:0:
320,192,259321,1,0,0:0:0:0:
192,192,259321,1,0,0:0:0:0:
64,192,259321,1,0,0:0:0:0:
192,192,259494,1,0,0:0:0:0:
320,192,259666,1,0,0:0:0:0:
448,192,259666,1,0,0:0:0:0:
192,192,259795,1,0,0:0:0:0:
448,192,259795,1,0,0:0:0:0:
64,192,259881,1,0,0:0:0:0:
320,192,259968,1,0,0:0:0:0:
448,192,260054,1,0,0:0:0:0:
64,192,260183,1,0,0:0:0:0:
192,192,260183,1,0,0:0:0:0:
320,192,260183,1,0,0:0:0:0:
448,192,260355,1,0,0:0:0:0:
192,192,260355,1,0,0:0:0:0:
320,192,260528,1,0,0:0:0:0:
64,192,260528,1,0,0:0:0:0:
192,192,260700,1,0,0:0:0:0:
64,192,260700,1,0,0:0:0:0:
320,192,260700,1,0,0:0:0:0:
448,192,260700,1,0,0:0:0:0:
320,192,260872,1,0,0:0:0:0:
192,192,261045,1,0,0:0:0:0:
64,192,261045,1,0,0:0:0:0:
448,192,261174,1,0,0:0:0:0:
192,192,261174,1,0,0:0:0:0:
320,192,261260,1,0,0:0:0:0:
192,192,261346,1,0,0:0:0:0:
64,192,261433,1,0,0:0:0:0:
192,192,261562,1,0,0:0:0:0:
448,192,261562,1,0,0:0:0:0:
320,192,261562,1,0,0:0:0:0:
320,192,261734,1,0,0:0:0:0:
64,192,261734,1,0,0:0:0:0:
192,192,261907,1,0,0:0:0:0:
448,192,261907,1,0,0:0:0:0:
448,192,262079,1,0,0:0:0:0:
320,192,262079,1,0,0:0:0:0:
192,192,262079,1,0,0:0:0:0:
64,192,262079,1,0,0:0:0:0:
320,192,262251,1,0,0:0:0:0:
448,192,262424,1,0,0:0:0:0:
192,192,262424,1,0,0:0:0:0:
64,192,262596,1,0,0:0:0:0:
448,192,262596,1,0,0:0:0:0:
192,192,262682,1,0,0:0:0:0:
320,192,262768,1,0,0:0:0:0:
448,192,262855,1,0,0:0:0:0:
320,192,262941,1,0,0:0:0:0:
192,192,262941,1,0,0:0:0:0:
64,192,262941,1,0,0:0:0:0:
320,192,263113,1,0,0:0:0:0:
192,192,263113,1,0,0:0:0:0:
448,192,263285,1,0,0:0:0:0:
64,192,263285,1,0,0:0:0:0:
64,192,263458,1,0,0:0:0:0:
192,192,263458,1,0,0:0:0:0:
320,192,263458,1,0,0:0:0:0:
448,192,263458,1,0,0:0:0:0:
320,192,263630,1,0,0:0:0:0:
192,192,263802,1,0,0:0:0:0:
64,192,263802,1,0,0:0:0:0:
448,192,263975,1,0,0:0:0:0:
64,192,263975,1,0,0:0:0:0:
320,192,264061,1,0,0:0:0:0:
192,192,264147,1,0,0:0:0:0:
64,192,264233,1,0,0:0:0:0:
192,192,264320,1,0,0:0:0:0:
320,192,264320,1,0,0:0:0:0:
448,192,264320,1,0,0:0:0:0:
320,192,264492,1,0,0:0:0:0:
64,192,264492,1,0,0:0:0:0:
192,192,264664,1,0,0:0:0:0:
448,192,264664,1,0,0:0:0:0:
448,192,264837,1,0,0:0:0:0:
320,192,264837,1,0,0:0:0:0:
192,192,264837,1,0,0:0:0:0:
64,192,264837,1,0,0:0:0:0:
