osu file format v14

[General]
AudioFilename: Sacred Ruin - Drop feat. Hatsuki Yura.mp3
AudioLeadIn: 0
PreviewTime: 54432
Countdown: 0
SampleSet: Soft
StackLeniency: 0.7
Mode: 0
LetterboxInBreaks: 0
WidescreenStoryboard: 1

[Editor]
Bookmarks: 39270
DistanceSpacing: 1
BeatDivisor: 2
GridSize: 8
TimelineZoom: 1.799999

[Metadata]
Title:Sacred Ruin
TitleUnicode:セイクリッド ルイン
Artist:Drop feat. Hatsuki Yura
ArtistUnicode:Drop feat. Hatsuki Yura
Creator:Slept
Version:Normal
Source:Groove Coaster 3EX
Tags:
BeatmapID:2044247
BeatmapSetID:976256

[Difficulty]
HPDrainRate:4
CircleSize:3
OverallDifficulty:3
ApproachRate:4.4
SliderMultiplier:1
SliderTickRate:1

[Events]
//Background and Video events
0,0,"bg.jpg",0,0
//Break Periods
2,50762,53162
2,72698,84130
2,97214,100904
//Storyboard Layer 0 (Background)
//Storyboard Layer 1 (Fail)
//Storyboard Layer 2 (Pass)
//Storyboard Layer 3 (Foreground)
//Storyboard Sound Samples

[TimingPoints]
240,322.58064516129,4,2,0,50,1,0

[Colours]
Combo1 : 242,24,57
Combo2 : 104,30,172
Combo3 : 18,124,255

[HitObjects]
52,90,240,5,0,0:0:0:0:
211,83,885,1,0,0:0:0:0:
330,80,1369,2,0,L|406:149,1,100
479,223,2175,5,0,0:0:0:0:
322,189,2820,1,0,0:0:0:0:
173,130,3465,2,0,L|74:158,2,100
250,108,4433,1,0,0:0:0:0:
325,81,4756,1,0,0:0:0:0:
402,100,5078,1,0,0:0:0:0:
466,148,5401,5,0,0:0:0:0:
116,121,6530,6,0,L|217:130,1,100
389,141,7336,1,0,0:0:0:0:
399,240,7659,1,0,0:0:0:0:
343,314,7981,6,0,L|218:291,1,100
157,245,8627,1,0,0:0:0:0:
114,154,8949,1,0,0:0:0:0:
195,95,9272,6,0,L|311:81,1,100
393,73,9917,1,0,0:0:0:0:
415,170,10239,1,0,0:0:0:0:
359,253,10562,6,0,B|313:269|313:269|262:245,1,100
177,201,11207,1,0,0:0:0:0:
136,109,11530,1,0,0:0:0:0:
136,109,11852,6,0,L|55:215,1,100
7,262,12498,1,0,0:0:0:0:
78,331,12820,1,0,0:0:0:0:
203,321,13143,6,0,P|239:275|230:211,1,100
174,150,13788,2,0,P|138:104|147:40,1,100
155,50,14433,2,0,L|262:48,1,100
355,46,15078,1,0,0:0:0:0:
424,117,15401,1,0,0:0:0:0:
336,165,15723,6,0,B|246:124|246:124|141:168,1,200
176,219,16852,6,0,B|266:260|266:260|359:212,1,200
274,92,17981,1,0,0:0:0:0:
274,92,18304,2,0,L|155:90,1,100
73,93,18949,2,0,P|30:160|32:184,1,100
358,69,20885,6,0,L|247:75,1,100
158,83,21530,1,0,0:0:0:0:
71,131,21852,1,0,0:0:0:0:
41,226,22175,2,0,P|74:268|144:267,1,100
214,250,22820,1,0,0:0:0:0:
270,167,23143,1,0,0:0:0:0:
270,167,23465,6,0,L|165:147,1,100
72,135,24110,2,0,L|94:250,1,100
189,253,24756,1,0,0:0:0:0:
288,263,25078,1,0,0:0:0:0:
257,167,25401,2,0,L|365:156,1,100
322,62,26046,6,0,L|318:270,1,200
187,262,27336,6,0,B|99:205|99:205|105:93,1,200
298,61,28627,6,0,L|183:76,1,100
109,119,29272,1,0,0:0:0:0:
82,215,29594,1,0,0:0:0:0:
132,219,29756,6,0,L|237:226,1,100
422,203,30562,2,0,L|298:194,1,100
222,185,31207,6,0,L|240:81,1,100
326,36,31852,1,0,0:0:0:0:
421,65,32175,1,0,0:0:0:0:
414,164,32498,6,0,B|355:148|299:173,1,100
220,196,33143,1,0,0:0:0:0:
124,167,33465,1,0,0:0:0:0:
42,108,33788,6,0,P|85:77|147:77,1,100
230,78,34433,1,0,0:0:0:0:
320,120,34756,2,0,L|205:129,2,100
419,115,35723,1,0,0:0:0:0:
380,207,36046,1,0,0:0:0:0:
280,220,36369,6,0,P|222:194|181:205,1,100
97,243,37014,1,0,0:0:0:0:
8,196,37336,1,0,0:0:0:0:
93,143,37659,6,0,L|195:152,1,100
292,163,38304,1,0,0:0:0:0:
374,219,38627,1,0,0:0:0:0:
311,296,38949,2,0,L|193:315,2,100
409,278,39917,1,0,0:0:0:0:
426,231,40078,6,0,P|424:179|387:121,1,100
278,52,40885,1,0,0:0:0:0:
278,52,41207,1,0,0:0:0:0:
178,65,41530,6,0,L|65:75,1,100
29,161,42175,2,0,P|37:216|94:246,1,100
170,243,42820,2,0,L|154:349,2,100
188,144,43788,1,0,0:0:0:0:
188,144,44110,6,0,P|239:167|307:146,1,100
387,104,44756,2,0,L|405:210,2,100
306,15,45723,1,0,0:0:0:0:
186,27,46046,1,0,0:0:0:0:
92,102,46369,1,0,0:0:0:0:
92,102,46691,6,0,P|146:104|197:122,1,100
235,137,47175,1,0,0:0:0:0:
337,213,47820,6,0,L|452:207,2,100
217,80,49272,6,0,P|266:70|315:79,1,100
403,127,49917,2,0,L|283:132,1,100
203,138,50562,1,0,0:0:0:0:
71,86,54433,6,0,L|198:93,1,100
259,138,55078,1,0,0:0:0:0:
183,204,55401,2,0,P|134:186|63:193,2,100
266,259,56369,1,0,0:0:0:0:
365,261,56691,6,0,L|474:242,2,100
266,244,57659,1,0,0:0:0:0:
185,184,57981,2,0,P|233:144|246:93,1,100
321,45,58627,1,0,0:0:0:0:
321,45,58949,2,0,L|201:57,1,100
122,67,59594,6,0,B|78:91|78:91|69:149,1,100
105,233,60239,1,0,0:0:0:0:
187,289,60562,2,0,P|229:247|287:249,1,100
367,238,61207,1,0,0:0:0:0:
408,146,61530,1,0,0:0:0:0:
353,62,61852,1,0,0:0:0:0:
256,34,62175,6,0,P|205:27|140:38,2,100
297,125,63143,1,0,0:0:0:0:
204,163,63465,1,0,0:0:0:0:
353,249,64433,6,0,B|303:269|303:269|234:249,1,100
165,219,65078,1,0,0:0:0:0:
224,138,65401,1,0,0:0:0:0:
165,57,65723,1,0,0:0:0:0:
165,57,66046,6,0,L|290:68,1,100
364,73,66691,1,0,0:0:0:0:
336,169,67014,1,0,0:0:0:0:
336,169,67336,6,0,L|234:182,1,100
138,202,67981,2,0,L|240:215,1,100
337,222,68627,2,0,P|315:274|260:298,1,100
179,303,69272,1,0,0:0:0:0:
86,264,69594,1,0,0:0:0:0:
119,169,69917,6,0,P|178:199|262:163,1,150
348,142,70723,1,0,0:0:0:0:
394,52,71046,6,0,P|289:36|185:58,1,200
56,104,72175,1,0,0:0:0:0:
142,154,72498,1,0,0:0:0:0:
127,56,85401,6,0,L|255:67,1,100
326,71,86046,1,0,0:0:0:0:
401,137,86369,1,0,0:0:0:0:
386,235,86691,6,0,P|318:240|274:216,2,100
469,180,87659,1,0,0:0:0:0:
469,180,87981,2,0,B|418:145|418:145|374:140,1,100
279,146,88627,1,0,0:0:0:0:
179,153,88949,2,0,L|161:42,2,100
194,251,89917,1,0,0:0:0:0:
271,313,90239,1,0,0:0:0:0:
347,248,90562,6,0,P|396:210|413:154,1,100
428,129,91046,1,0,0:0:0:0:
233,83,91691,2,0,L|110:99,2,100
382,67,92820,5,0,0:0:0:0:
382,67,93143,2,0,P|329:58|259:62,1,100
197,111,93788,2,0,B|234:146|234:146|231:201,1,100
256,192,94433,12,0,97014,0:0:0:0:
316,61,102175,6,0,L|201:75,1,100
117,83,102820,1,0,0:0:0:0:
39,146,103143,1,0,0:0:0:0:
80,236,103465,6,0,P|140:254|183:236,2,100
100,137,104433,1,0,0:0:0:0:
100,137,104756,2,0,L|217:149,1,100
298,159,105401,1,0,0:0:0:0:
286,59,105723,1,0,0:0:0:0:
286,59,106046,6,0,L|171:53,1,100
144,82,106530,1,0,0:0:0:0:
56,236,107336,6,0,B|111:246|111:246|168:217,1,100
191,197,107820,1,0,0:0:0:0:
266,79,108627,6,0,L|278:179,1,100
290,277,109272,1,0,0:0:0:0:
388,263,109594,6,0,L|376:163,1,100
350,67,110239,1,0,0:0:0:0:
257,27,110562,1,0,0:0:0:0:
156,27,110885,1,0,0:0:0:0:
62,60,111207,6,0,P|41:112|42:179,1,100
136,173,111852,2,0,P|157:225|156:292,1,100
155,318,112336,1,0,0:0:0:0:
385,221,113143,6,0,P|329:224|271:219,1,100
187,200,113788,2,0,B|167:149|167:149|192:100,1,100
215,66,114272,1,0,0:0:0:0:
388,66,114917,6,0,B|332:43|332:43|293:82,1,100
232,141,115562,1,0,0:0:0:0:
87,171,116369,6,0,P|154:191|196:166,1,100
269,138,117014,1,0,0:0:0:0:
368,150,117336,2,0,B|352:202|352:202|372:254,1,100
271,271,117981,1,0,0:0:0:0:
79,39,118949,6,0,L|205:49,1,100
278,56,119594,1,0,0:0:0:0:
377,63,119917,1,0,0:0:0:0:
475,76,120239,2,0,L|461:197,1,100
448,274,120885,2,0,P|433:328|400:372,1,100
308,375,121530,6,0,L|326:269,1,100
264,196,122175,1,0,0:0:0:0:
163,198,122498,1,0,0:0:0:0:
73,241,122820,2,0,L|43:366,2,100
97,143,123788,1,0,0:0:0:0:
122,46,124110,6,0,L|8:29,2,100
221,60,125078,2,0,P|294:66|348:34,1,100
348,152,125723,2,0,P|300:164|251:155,1,100
156,122,126369,1,0,0:0:0:0:
56,124,126691,6,0,L|22:247,1,100
8,318,127336,1,0,0:0:0:0:
101,282,127659,1,0,0:0:0:0:
149,292,127820,2,0,P|203:302|270:298,1,100
342,267,128465,2,0,P|396:257|463:261,1,100
321,348,129272,6,0,L|436:363,2,100
223,328,130239,1,0,0:0:0:0:
223,328,130401,1,0,0:0:0:0:
