osu file format v14

[General]
AudioFilename: audio.mp3
AudioLeadIn: 0
PreviewTime: 5
Countdown: 0
SampleSet: Normal
StackLeniency: 0.2
Mode: 1
LetterboxInBreaks: 0
WidescreenStoryboard: 0

[Editor]
DistanceSpacing: 1.3
BeatDivisor: 8
GridSize: 32
TimelineZoom: 2.2

[Metadata]
Title:TRICK or TREAT
TitleUnicode:TRICK or TREAT
Artist:Drop
ArtistUnicode:Drop
Creator:SUKIJames
Version:MUZUKASHII
Source:
Tags:stingy hatsuki yura 葉月ゆら HATU-019 wicked m3-34 instrument instrumental halloween
BeatmapID:2057728
BeatmapSetID:952626

[Difficulty]
HPDrainRate:8
CircleSize:3
OverallDifficulty:4.5
ApproachRate:10
SliderMultiplier:1.4
SliderTickRate:1

[Events]
//Background and Video events
0,0,"halloween-background-2.jpg",0,0
//Break Periods
//Storyboard Layer 0 (Background)
//Storyboard Layer 1 (Fail)
//Storyboard Layer 2 (Pass)
//Storyboard Layer 3 (Foreground)
//Storyboard Layer 4 (Overlay)
//Storyboard Sound Samples

[TimingPoints]
147,566.037735849057,4,1,0,65,1,0
147,-71.4285714285714,4,1,0,65,0,0
9203,-71.4285714285714,4,1,0,45,0,0
10335,-71.4285714285714,4,1,0,65,0,0
10618,-71.4285714285714,4,1,0,70,0,0
10901,-71.4285714285714,4,1,0,75,0,0
11467,-71.4285714285714,4,1,0,45,0,0
12599,-71.4285714285714,4,1,0,65,0,0
12882,-71.4285714285714,4,1,0,70,0,0
13165,-71.4285714285714,4,1,0,75,0,0
13731,-71.4285714285714,4,1,0,60,0,0
15996,-71.4285714285714,4,1,0,70,0,0
16562,-71.4285714285714,4,1,0,75,0,0
17128,-71.4285714285714,4,1,0,70,0,0
18260,-71.4285714285714,4,1,0,65,0,0
27316,-71.4285714285714,4,1,0,40,0,0
29580,-71.4285714285714,4,1,0,55,0,0
29863,-71.4285714285714,4,1,0,50,0,0
30713,-71.4285714285714,4,1,0,55,0,0
31279,-71.4285714285714,4,1,0,45,0,0
31845,-71.4285714285714,4,1,0,40,0,0
32411,-71.4285714285714,4,1,0,30,0,0
32977,-71.4285714285714,4,1,0,20,0,0
33543,-71.4285714285714,4,1,0,10,0,0
34109,-71.4285714285714,4,1,0,5,0,0

[HitObjects]
128,192,147,5,4,0:0:0:0:
128,192,430,5,0,0:0:0:0:
384,192,713,5,8,0:0:0:0:
384,192,854,5,8,0:0:0:0:
384,192,996,5,8,0:0:0:0:
128,192,1279,5,0,0:0:0:0:
128,192,1562,5,0,0:0:0:0:
384,192,1845,5,8,0:0:0:0:
384,192,1986,5,8,0:0:0:0:
384,192,2128,5,8,0:0:0:0:
384,192,2411,5,8,0:0:0:0:
128,192,2552,5,0,0:0:0:0:
384,192,2694,5,8,0:0:0:0:
128,192,2977,5,0,0:0:0:0:
384,192,3260,5,8,0:0:0:0:
128,192,3543,5,0,0:0:0:0:
384,192,3826,5,8,0:0:0:0:
384,192,3967,5,8,0:0:0:0:
128,192,4109,5,0,0:0:0:0:
128,192,4675,5,0,0:0:0:0:
128,192,4958,5,0,0:0:0:0:
384,192,5241,5,8,0:0:0:0:
384,192,5382,5,8,0:0:0:0:
128,192,5524,5,0,0:0:0:0:
128,192,5807,5,0,0:0:0:0:
128,192,6090,5,0,0:0:0:0:
384,192,6373,5,8,0:0:0:0:
384,192,6514,5,8,0:0:0:0:
128,192,6656,5,0,0:0:0:0:
384,192,6939,5,8,0:0:0:0:
384,192,7080,5,8,0:0:0:0:
384,192,7222,5,8,0:0:0:0:
128,192,7505,5,0,0:0:0:0:
128,192,7788,5,0,0:0:0:0:
384,192,8071,5,8,0:0:0:0:
128,192,8354,5,0,0:0:0:0:
128,192,8425,5,0,0:0:0:0:
128,192,8496,5,0,0:0:0:0:
384,192,8637,5,8,0:0:0:0:
384,192,9203,5,8,0:0:0:0:
128,192,9486,5,0,0:0:0:0:
384,192,9628,5,8,0:0:0:0:
384,192,9769,5,8,0:0:0:0:
384,192,10052,5,8,0:0:0:0:
128,192,10194,5,0,0:0:0:0:
128,192,10335,5,4,0:0:0:0:
384,192,10618,5,12,0:0:0:0:
384,192,10901,5,12,0:0:0:0:
384,192,11467,5,8,0:0:0:0:
128,192,11750,5,0,0:0:0:0:
384,192,11892,5,8,0:0:0:0:
384,192,12033,5,8,0:0:0:0:
384,192,12316,5,8,0:0:0:0:
128,192,12458,5,0,0:0:0:0:
384,192,12599,5,12,0:0:0:0:
384,192,12882,5,12,0:0:0:0:
384,192,13165,5,12,0:0:0:0:
384,192,13731,5,8,0:0:0:0:
128,192,14014,5,0,0:0:0:0:
384,192,14297,5,8,0:0:0:0:
384,192,14580,5,8,0:0:0:0:
128,192,14863,5,0,0:0:0:0:
128,192,15005,5,0,0:0:0:0:
384,192,15147,5,8,0:0:0:0:
128,192,15430,5,0,0:0:0:0:
384,192,15713,5,8,0:0:0:0:
128,192,15996,5,0,0:0:0:0:
128,192,16137,5,0,0:0:0:0:
128,192,16279,5,0,0:0:0:0:
384,192,16562,5,8,0:0:0:0:
384,192,16986,5,8,0:0:0:0:
128,192,17128,5,0,0:0:0:0:
128,192,17411,5,0,0:0:0:0:
128,192,17694,5,0,0:0:0:0:
128,192,17977,5,0,0:0:0:0:
128,192,18260,5,4,0:0:0:0:
128,192,18543,5,0,0:0:0:0:
384,192,18826,5,8,0:0:0:0:
384,192,18967,5,8,0:0:0:0:
384,192,19109,5,8,0:0:0:0:
128,192,19392,5,0,0:0:0:0:
128,192,19675,5,0,0:0:0:0:
384,192,19958,5,8,0:0:0:0:
384,192,20099,5,8,0:0:0:0:
384,192,20241,5,8,0:0:0:0:
384,192,20524,5,8,0:0:0:0:
128,192,20665,5,0,0:0:0:0:
384,192,20807,5,8,0:0:0:0:
128,192,21090,5,0,0:0:0:0:
384,192,21373,5,8,0:0:0:0:
128,192,21656,5,0,0:0:0:0:
384,192,21939,5,8,0:0:0:0:
384,192,22080,5,8,0:0:0:0:
128,192,22222,5,0,0:0:0:0:
128,192,22788,5,0,0:0:0:0:
128,192,23071,5,0,0:0:0:0:
384,192,23354,5,8,0:0:0:0:
384,192,23496,5,8,0:0:0:0:
128,192,23637,5,0,0:0:0:0:
128,192,23920,5,0,0:0:0:0:
128,192,24203,5,0,0:0:0:0:
384,192,24486,5,8,0:0:0:0:
384,192,24628,5,8,0:0:0:0:
128,192,24769,5,0,0:0:0:0:
384,192,25052,5,8,0:0:0:0:
384,192,25194,5,8,0:0:0:0:
384,192,25335,5,8,0:0:0:0:
128,192,25618,5,0,0:0:0:0:
128,192,25901,5,0,0:0:0:0:
384,192,26184,5,8,0:0:0:0:
128,192,26467,5,0,0:0:0:0:
128,192,26538,5,0,0:0:0:0:
128,192,26609,5,0,0:0:0:0:
384,192,26750,5,8,0:0:0:0:
128,192,27316,5,0,0:0:0:0:
128,192,27599,5,0,0:0:0:0:
384,192,27741,5,8,0:0:0:0:
384,192,27882,5,8,0:0:0:0:
128,192,28165,5,0,0:0:0:0:
384,192,28448,5,8,0:0:0:0:
384,192,28731,5,8,0:0:0:0:
384,192,29014,5,8,0:0:0:0:
384,192,29580,5,12,0:0:0:0:
384,192,29863,5,8,0:0:0:0:
128,192,30147,5,0,0:0:0:0:
128,192,30430,5,0,0:0:0:0:
384,192,30713,5,12,0:0:0:0:
384,192,31279,5,12,0:0:0:0:
128,192,31845,5,4,0:0:0:0:
256,192,32128,12,0,34109,0:0:0:0:
