osu file format v14

[General]
AudioFilename: audio.mp3
AudioLeadIn: 0
PreviewTime: 0
Countdown: 1
SampleSet: Normal
StackLeniency: 0.7
Mode: 0
LetterboxInBreaks: 0
WidescreenStoryboard: 1

[Editor]
DistanceSpacing: 1
BeatDivisor: 4
GridSize: 4
TimelineZoom: 1

[Metadata]
Title:Granat
TitleUnicode:Granat
Artist:Drop
ArtistUnicode:Drop
Creator:hiro katsumi
Version:Wally's Extra
Source:
Tags:竜と炎の物語 清風明月 c85 seifuu meigetsu ryuu to honou no monogatari Dragon and Flame
BeatmapID:1385390
BeatmapSetID:650205

[Difficulty]
HPDrainRate:6
CircleSize:4.2
OverallDifficulty:8.5
ApproachRate:9.5
SliderMultiplier:1.8
SliderTickRate:1

[Events]
//Background and Video events
0,0,"stretched-1366-768-483924.jpg",0,0
//Break Periods
//Storyboard Layer 0 (Background)
//Storyboard Layer 1 (Fail)
//Storyboard Layer 2 (Pass)
//Storyboard Layer 3 (Foreground)
//Storyboard Sound Samples

[TimingPoints]
281,331.491712707182,4,1,0,100,1,0
23485,-133.333333333333,4,1,0,100,0,0

[HitObjects]
152,125,281,6,0,B|139:172|139:172|150:219,1,90
340,161,612,1,0,0:0:0:0:
185,37,778,1,0,0:0:0:0:
154,218,943,2,0,B|197:238|197:238|248:226,1,90
340,161,1275,2,0,B|330:213|330:213|341:252|341:252|332:301,1,135
345,327,1606,5,0,0:0:0:0:
246,289,1772,1,0,0:0:0:0:
152,340,1938,2,0,B|103:339|103:339|59:313,1,90
37,168,2269,5,0,0:0:0:0:
164,254,2435,1,0,0:0:0:0:
10,251,2601,5,0,0:0:0:0:
62,87,2767,1,0,0:0:0:0:
190,169,2932,5,0,0:0:0:0:
37,168,3098,1,0,0:0:0:0:
217,86,3264,2,0,B|262:87|262:87|300:110|300:110|351:112,1,135
426,84,3595,6,0,P|421:125|427:161,2,60
448,178,3927,2,0,B|371:165|397:222|316:213,1,135
294,198,4258,6,0,B|306:245|306:245|294:288,1,90
101,238,4590,1,0,0:0:0:0:
256,114,4756,1,0,0:0:0:0:
297,287,4921,2,0,B|248:301|248:301|187:289,1,90
101,238,5253,2,0,B|108:188|108:188|94:151|94:151|99:102,1,135
85,75,5584,5,0,0:0:0:0:
205,113,5750,1,0,0:0:0:0:
214,25,5916,2,0,B|199:72|199:72|207:131,1,90
308,237,6247,2,0,B|259:231|259:231|205:246,1,90
59,277,6579,2,0,B|108:283|108:283|162:268,1,90
97,118,6910,2,0,L|104:217,1,90
117,359,7242,6,0,B|224:377|181:305|292:327,1,180
429,353,7739,1,0,0:0:0:0:
354,199,7905,2,0,L|360:292,1,90
486,103,8236,6,0,B|425:100|425:100|374:128|374:128|309:122,1,180
154,93,8734,1,0,0:0:0:0:
311,35,8899,2,0,B|323:80|323:80|311:132,1,90
157,272,9231,6,0,L|153:84,1,180
285,200,9728,1,0,0:0:0:0:
285,200,9894,2,0,L|272:298,1,90
62,331,10225,6,0,P|109:302|193:316,1,135
203,338,10557,1,0,0:0:0:0:
145,247,10722,1,0,0:0:0:0:
253,242,10888,1,0,0:0:0:0:
203,338,11054,5,0,0:0:0:0:
188,122,11220,2,0,B|254:117|254:117|299:137|299:137|368:134,1,180
483,53,11717,1,0,0:0:0:0:
377,122,11883,2,0,B|366:170|366:170|379:225,1,90
428,324,12214,6,0,B|325:302|359:371|257:359,1,180
165,305,12711,1,0,0:0:0:0:
258,250,12877,1,0,0:0:0:0:
236,357,13043,1,0,0:0:0:0:
194,181,13209,1,0,0:0:0:0:
190,163,13540,5,0,0:0:0:0:
165,305,13706,1,0,0:0:0:0:
303,138,13872,2,0,B|280:100|280:100|239:73,1,90
134,77,14203,5,0,0:0:0:0:
91,176,14369,1,0,0:0:0:0:
139,273,14535,1,0,0:0:0:0:
123,78,14700,5,0,0:0:0:0:
80,177,14866,1,0,0:0:0:0:
128,274,15032,1,0,0:0:0:0:
112,79,15198,5,0,0:0:0:0:
69,178,15364,1,0,0:0:0:0:
117,275,15530,1,0,0:0:0:0:
170,139,15695,5,0,0:0:0:0:
69,178,15861,1,0,0:0:0:0:
34,281,16027,1,0,0:0:0:0:
200,270,16192,2,0,B|270:266|270:266|318:284|318:284|386:280,1,180
448,200,16689,5,0,0:0:0:0:
343,179,16855,1,0,0:0:0:0:
389,282,17021,1,0,0:0:0:0:
412,86,17187,1,0,0:0:0:0:
414,68,17518,5,0,0:0:0:0:
309,89,17684,2,0,B|261:96|261:96|214:86,2,90
139,29,18181,6,0,B|127:93|127:93|147:137|147:137|137:209,1,180
77,292,18678,1,0,0:0:0:0:
200,263,18844,2,0,B|248:252|248:252|297:263,1,90
399,353,19176,2,0,L|395:174,1,180
390,29,19673,5,0,0:0:0:0:
303,197,19839,1,0,0:0:0:0:
462,94,20004,1,0,0:0:0:0:
246,118,20170,6,0,B|183:128|183:128|143:162|143:162|71:173,1,180
5,122,20667,1,0,0:0:0:0:
13,266,20833,1,0,0:0:0:0:
95,149,20999,1,0,0:0:0:0:
107,293,21164,2,0,B|175:289|175:289|224:311|224:311|290:306,1,180
354,238,21662,5,0,0:0:0:0:
258,215,21827,1,0,0:0:0:0:
283,306,21993,1,0,0:0:0:0:
328,141,22159,2,0,L|325:49,1,90
345,151,22656,2,0,L|341:59,1,90
363,157,23153,5,0,0:0:0:0:
359,71,23319,1,0,0:0:0:0:
441,111,23485,2,0,P|453:154|414:237,1,135.000005149842
181,180,24148,5,0,0:0:0:0:
279,151,24314,1,0,0:0:0:0:
254,248,24479,1,0,0:0:0:0:
206,85,24645,5,0,0:0:0:0:
359,217,24811,1,0,0:0:0:0:
163,275,24977,1,0,0:0:0:0:
342,92,25142,1,0,0:0:0:0:
342,92,25805,5,0,0:0:0:0:
286,176,25971,1,0,0:0:0:0:
239,87,26137,1,0,0:0:0:0:
239,87,26634,5,0,0:0:0:0:
395,180,26800,2,0,L|402:254,1,67.5000025749208
311,382,27131,2,0,L|320:310,1,67.5000025749208
426,161,27463,1,0,0:0:0:0:
428,183,27573,1,0,0:0:0:0:
430,205,27684,1,0,0:0:0:0:
433,228,27794,2,0,L|423:308,1,67.5000025749208
320,360,28126,6,0,P|277:351|243:351,1,67.5000025749208
93,265,28457,2,0,P|129:266|172:253,1,67.5000025749208
305,147,28789,1,0,0:0:0:0:
185,170,28955,1,0,0:0:0:0:
262,262,29120,1,0,0:0:0:0:
262,262,29783,5,0,0:0:0:0:
239,79,29949,1,0,0:0:0:0:
98,196,30115,1,0,0:0:0:0:
98,196,30612,5,0,0:0:0:0:
188,182,30778,2,0,L|265:171,1,67.5000025749208
350,220,31109,2,0,P|341:183|361:116,1,101.250003862381
419,69,31441,5,0,0:0:0:0:
429,88,31551,1,0,0:0:0:0:
432,110,31662,1,0,0:0:0:0:
432,132,31772,2,0,L|424:208,1,67.5000025749208
293,296,32104,5,0,0:0:0:0:
334,182,32269,1,0,0:0:0:0:
411,276,32435,1,0,0:0:0:0:
239,213,32601,5,0,0:0:0:0:
425,148,32767,1,0,0:0:0:0:
223,223,32932,1,0,0:0:0:0:
364,59,33098,5,0,0:0:0:0:
411,276,33264,1,0,0:0:0:0:
281,96,33430,1,0,0:0:0:0:
425,148,33595,5,0,0:0:0:0:
194,135,33761,1,0,0:0:0:0:
441,149,33927,1,0,0:0:0:0:
196,222,34093,5,0,0:0:0:0:
281,96,34258,1,0,0:0:0:0:
340,237,34424,1,0,0:0:0:0:
182,130,34590,5,0,0:0:0:0:
389,62,34756,1,0,0:0:0:0:
166,136,34921,1,0,0:0:0:0:
334,0,35087,5,0,0:0:0:0:
365,201,35253,1,0,0:0:0:0:
167,135,35419,1,0,0:0:0:0:
412,84,35584,5,0,0:0:0:0:
397,326,35750,1,0,0:0:0:0:
413,63,35916,1,0,0:0:0:0:
485,318,36082,5,0,0:0:0:0:
283,244,36247,1,0,0:0:0:0:
443,98,36413,1,0,0:0:0:0:
363,349,36579,5,0,0:0:0:0:
351,65,36745,1,0,0:0:0:0:
365,367,36910,1,0,0:0:0:0:
214,102,37076,5,0,0:0:0:0:
468,196,37242,1,0,0:0:0:0:
253,360,37408,1,0,0:0:0:0:
379,85,37573,5,0,0:0:0:0:
415,353,37739,1,0,0:0:0:0:
377,65,37905,1,0,0:0:0:0:
335,366,38071,5,0,0:0:0:0:
479,171,38236,1,0,0:0:0:0:
236,157,38402,1,0,0:0:0:0:
438,291,38568,5,0,0:0:0:0:
316,81,38734,1,0,0:0:0:0:
231,308,38899,1,0,0:0:0:0:
424,160,39065,5,0,0:0:0:0:
121,189,39231,1,0,0:0:0:0:
443,157,39397,1,0,0:0:0:0:
171,81,39562,5,0,0:0:0:0:
201,366,39728,1,0,0:0:0:0:
201,366,40060,5,0,0:0:0:0:
181,284,40391,1,0,0:0:0:0:
210,203,40722,1,0,0:0:0:0:
281,157,41054,1,0,0:0:0:0:
365,157,41385,5,0,0:0:0:0:
199,368,41717,1,0,0:0:0:0:
97,120,42048,1,0,0:0:0:0:
