osu file format v14

[General]
AudioFilename: audio.mp3
AudioLeadIn: 0
PreviewTime: 0
Countdown: 1
SampleSet: Soft
StackLeniency: 0.7
Mode: 0
LetterboxInBreaks: 0
WidescreenStoryboard: 1

[Editor]
DistanceSpacing: 2.8
BeatDivisor: 2
GridSize: 4
TimelineZoom: 1.2

[Metadata]
Title:Granat
TitleUnicode:Granat
Artist:Drop
ArtistUnicode:Drop
Creator:hiro katsumi
Version:Uta's Hard
Source:
Tags:竜と炎の物語 清風明月 c85 seifuu meigetsu ryuu to honou no monogatari Dragon and Flame
BeatmapID:1379743
BeatmapSetID:650205

[Difficulty]
HPDrainRate:6
CircleSize:4
OverallDifficulty:6
ApproachRate:9
SliderMultiplier:1.4
SliderTickRate:1

[Events]
//Background and Video events
0,0,"stretched-1366-768-483924.jpg",0,0
//Break Periods
//Storyboard Layer 0 (Background)
//Storyboard Layer 1 (Fail)
//Storyboard Layer 2 (Pass)
//Storyboard Layer 3 (Foreground)
//Storyboard Sound Samples

[TimingPoints]
281,331.491712707182,4,2,0,100,1,0

[HitObjects]
412,116,281,6,0,P|433:182|392:244,1,140,2|0,0:0|0:0,0:0:0:0:
332,179,778,1,2,0:0:0:0:
299,254,944,1,0,0:0:0:0:
177,315,1275,6,0,P|156:249|192:192,1,140,2|0,0:0|0:0,0:0:0:0:
225,107,1772,1,2,0:0:0:0:
286,161,1938,1,0,0:0:0:0:
285,258,2270,6,0,L|381:248,1,70,2|0,0:0|0:0,0:0:0:0:
400,59,2601,2,0,L|330:66,1,70,2|0,0:0|0:0,0:0:0:0:
286,161,2932,2,0,L|355:153,1,70,2|0,0:0|0:0,0:0:0:0:
232,77,3265,5,10,0:0:0:0:
115,146,3595,1,0,0:0:0:0:
53,217,3761,1,0,0:0:0:0:
149,239,3928,2,0,L|215:320,1,72.000000298023,2|0,0:0|0:0,0:0:0:0:
412,268,4258,6,0,P|432:202|400:132,1,140,2|0,0:0|0:0,0:0:0:0:
332,205,4755,1,2,0:0:0:0:
299,130,4921,1,0,0:0:0:0:
156,322,5254,6,0,P|223:293|248:232,1,140,10|0,0:0|0:0,0:0:0:0:
191,149,5751,1,2,0:0:0:0:
142,219,5917,1,0,0:0:0:0:
272,38,6247,1,0,0:0:0:0:
121,51,6579,1,0,0:0:0:0:
17,155,6910,1,0,0:0:0:0:
37,274,7243,6,0,P|104:243|120:172,1,140,10|0,0:0|0:0,0:0:0:0:
208,240,7741,1,2,0:0:0:0:
290,183,7906,2,0,P|296:144|268:132,1,70,2|0,0:0|0:0,0:0:0:0:
240,259,8238,6,0,P|309:275|364:232,1,140,6|0,0:0|0:0,0:0:0:0:
366,213,8735,1,0,0:0:0:0:
339,123,8901,1,0,0:0:0:0:
255,74,9067,1,0,0:0:0:0:
255,74,9233,6,0,P|199:34|128:52,1,140,8|0,0:0|0:0,0:0:0:0:
183,116,9728,2,0,P|165:148|123:176,3,70
39,239,10559,5,0,0:0:0:0:
113,281,10725,1,0,0:0:0:0:
199,271,10891,1,0,0:0:0:0:
257,209,11056,1,0,0:0:0:0:
257,209,11222,6,0,P|334:226|372:284,1,140,10|0,0:0|0:0,0:0:0:0:
280,287,11719,1,2,0:0:0:0:
295,133,11885,2,0,P|260:124|225:130,1,72.000000298023,2|0,0:0|0:0,0:0:0:0:
164,61,12217,6,0,P|137:126|167:204,1,140,2|0,0:0|0:0,0:0:0:0:
225,129,12711,5,0,0:0:0:0:
299,171,12877,1,0,0:0:0:0:
385,161,13043,1,0,0:0:0:0:
445,223,13212,6,0,P|470:161|436:92,1,140,8|0,0:0|0:0,0:0:0:0:
348,237,13709,2,0,P|358:272|381:299,1,72.000000298023
385,161,14040,1,0,0:0:0:0:
298,160,14206,6,0,P|276:131|246:112,2,72.000000298023,2|0|0,0:0|0:0|0:0,0:0:0:0:
223,191,14700,6,0,P|217:226|225:261,2,72.000000298023,2|0|0,0:0|0:0|0:0,0:0:0:0:
169,132,15201,6,0,P|133:137|103:154,2,72.000000298023,2|0|0,0:0|0:0|0:0,0:0:0:0:
79,231,15698,2,0,P|47:211|27:183,2,72.000000298023,2|0|0,0:0|0:0|0:0,0:0:0:0:
169,132,16196,6,0,P|200:198|184:264,1,140,4|0,0:0|0:0,0:0:0:0:
342,307,16693,1,0,0:0:0:0:
256,317,16859,1,0,0:0:0:0:
186,265,17025,1,0,0:0:0:0:
123,209,17190,6,0,P|204:184|252:220,1,140,8|0,0:0|0:0,0:0:0:0:
302,325,17688,2,0,L|313:254,1,72.000000298023
358,186,18019,1,0,0:0:0:0:
408,255,18185,1,4,0:0:0:0:
455,183,18347,2,0,L|462:105,4,70
408,255,19180,6,0,P|339:240|316:174,1,144.000000596046,10|0,0:0|0:0,0:0:0:0:
391,149,19677,1,2,0:0:0:0:
324,94,19843,2,0,P|289:101|254:96,1,72.000000298023,2|0,0:0|0:0,0:0:0:0:
185,65,20174,6,0,L|148:212,1,140,6|0,0:0|0:0,0:0:0:0:
106,302,20672,1,0,0:0:0:0:
199,285,20838,1,0,0:0:0:0:
250,207,21003,1,0,0:0:0:0:
250,207,21169,6,0,P|318:264|324:316,1,140,8|0,0:0|0:0,0:0:0:0:
380,203,21666,1,0,0:0:0:0:
443,145,21832,1,0,0:0:0:0:
464,229,21998,1,0,0:0:0:0:
380,203,22164,5,6,0:0:0:0:
380,203,22330,2,0,P|313:160|292:104,1,140,8|0,0:0|0:0,0:0:0:0:
243,17,22827,6,0,L|201:116,1,108.000000447034,8|0,0:0|0:0,0:0:0:0:
200,116,23158,5,8,0:0:0:0:
200,116,23324,1,8,0:0:0:0:
254,197,23490,5,0,0:0:0:0:
418,253,23822,1,0,0:0:0:0:
296,350,24153,6,0,P|274:329|256:288,1,70,2|0,0:0|0:0,0:0:0:0:
304,232,24485,2,0,P|341:261|352:286,1,70,2|0,0:0|0:0,0:0:0:0:
216,232,24811,2,0,P|184:258|173:283,1,70,2|0,0:0|0:0,0:0:0:0:
171,372,25148,6,0,P|105:344|89:261,1,140,2|0,0:0|0:0,0:0:0:0:
138,216,25645,1,0,0:0:0:0:
124,128,25811,2,0,P|157:125|191:138,1,70,2|0,0:0|0:0,0:0:0:0:
227,203,26143,6,0,P|294:215|358:187,1,140,2|0,0:0|0:0,0:0:0:0:
396,146,26640,1,0,0:0:0:0:
451,83,26806,1,2,0:0:0:0:
503,241,27137,5,2,0:0:0:0:
503,241,27469,2,0,L|512:280,2,38.4000001589456,2|0|0,0:0|0:0|0:0,0:0:0:0:
498,218,27800,2,0,L|483:162,1,57.6000002384184,2|0,0:0|0:0,0:0:0:0:
361,262,28132,6,0,P|329:269|287:261,1,70,2|0,0:0|0:0,0:0:0:0:
259,192,28464,2,0,P|291:185|335:196,1,70,2|0,0:0|0:0,0:0:0:0:
217,265,28789,6,0,P|183:258|149:266,1,70,2|0,0:0|0:0,0:0:0:0:
115,335,29121,2,0,P|150:343|184:337,1,70,2|0,0:0|0:0,0:0:0:0:
358,279,29790,1,2,0:0:0:0:
413,341,29956,6,0,P|431:311|438:277,1,70,2|0,0:0|0:0,0:0:0:0:
362,167,30619,1,0,0:0:0:0:
436,164,30784,2,0,L|440:88,1,70,2|0,0:0|0:0,0:0:0:0:
441,26,31116,5,2,0:0:0:0:
267,87,31448,2,0,L|254:51,2,38.4000001589456,2|0|0,0:0|0:0|0:0,0:0:0:0:
284,71,31779,2,0,L|328:32,1,57.6000002384184,2|0,0:0|0:0,0:0:0:0:
175,243,32111,6,0,P|207:251|239:247,1,64.7999982906817,2|0,0:0|0:0,0:0:0:0:
356,197,32435,2,0,P|387:193|419:201,1,64.7999982906817,2|0,0:0|0:0,0:0:0:0:
316,348,32755,6,0,P|326:315|322:281,1,70,2|0,0:0|0:0,0:0:0:0:
273,164,33098,2,0,P|269:125|277:99,1,64.7999982906817,2|0,0:0|0:0,0:0:0:0:
273,21,33430,6,0,P|239:29|211:50,1,70,2|0,0:0|0:0,0:0:0:0:
134,151,33773,2,0,P|102:173|75:180,1,64.7999982906817,2|0,0:0|0:0,0:0:0:0:
49,269,34093,2,0,L|126:257,1,70
156,334,34424,2,0,L|233:322,1,70
253,242,34756,2,0,L|330:230,1,70
348,144,35095,6,0,P|382:156|402:175,2,64.7999982906817,2|0|0,0:0|0:0|0:0,0:0:0:0:
240,144,35584,2,0,P|199:155|179:174,2,70,2|0|0,0:0|0:0|0:0,0:0:0:0:
292,69,36082,2,0,P|298:33|288:0,2,70,2|0|0,0:0|0:0|0:0,0:0:0:0:
211,110,36579,2,0,P|175:116|140:108,2,70,2|0|0,0:0|0:0|0:0,0:0:0:0:
65,140,37076,2,0,P|58:171|60:208,2,70,2|0|0,0:0|0:0|0:0,0:0:0:0:
152,298,37573,2,0,P|158:266|152:228,2,70,2|0|0,0:0|0:0|0:0,0:0:0:0:
296,331,38079,6,0,P|326:339|352:358,1,64.7999982906817,2|0,0:0|0:0,0:0:0:0:
303,242,38410,2,0,P|270:243|241:257,1,64.7999982906817,0|2,0:0|0:0,0:0:0:0:
378,274,38734,2,0,P|408:265|434:246,1,64.7999982906817,2|0,0:0|0:0,0:0:0:0:
345,171,39074,6,0,P|310:161|281:162,1,64.7999982906817,2|0,0:0|0:0,0:0:0:0:
148,277,39405,2,0,P|183:287|216:284,2,70,2|2|0,0:0|0:0|0:0,0:0:0:0:
148,277,40068,5,2,0:0:0:0:
419,77,40399,1,0,0:0:0:0:
129,107,40731,1,0,0:0:0:0:
437,244,41063,1,0,0:0:0:0:
265,9,41394,1,0,0:0:0:0:
300,344,41726,1,0,0:0:0:0:
284,175,42058,5,2,0:0:0:0:
