osu file format v14

[General]
AudioFilename: audio.mp3
AudioLeadIn: 0
PreviewTime: 0
Countdown: 1
SampleSet: Normal
StackLeniency: 0.7
Mode: 0
LetterboxInBreaks: 0
WidescreenStoryboard: 1

[Editor]
DistanceSpacing: 0.8
BeatDivisor: 4
GridSize: 4
TimelineZoom: 1.2

[Metadata]
Title:Granat
TitleUnicode:Granat
Artist:Drop
ArtistUnicode:Drop
Creator:hiro katsumi
Version:Insane
Source:
Tags:竜と炎の物語 清風明月 c85 seifuu meigetsu ryuu to honou no monogatari Dragon and Flame
BeatmapID:1377942
BeatmapSetID:650205

[Difficulty]
HPDrainRate:5.5
CircleSize:3.9
OverallDifficulty:8
ApproachRate:9.3
SliderMultiplier:1.6
SliderTickRate:1

[Events]
//Background and Video events
0,0,"stretched-1366-768-483924.jpg",0,0
//Break Periods
//Storyboard Layer 0 (Background)
//Storyboard Layer 1 (Fail)
//Storyboard Layer 2 (Pass)
//Storyboard Layer 3 (Foreground)
//Storyboard Sound Samples

[TimingPoints]
281,331.491712707182,4,1,0,100,1,0
331,-100,4,1,0,100,0,0
1160,-90.9090909090909,4,1,0,100,0,0
3812,-83.3333333333333,4,1,0,100,0,0
4143,-76.9230769230769,4,1,0,100,0,0
5303,-71.4285714285714,4,1,0,100,0,0
6464,-76.9230769230769,4,1,0,100,0,0
14419,-71.4285714285714,4,1,0,100,0,0
17734,-76.9230769230769,4,1,0,100,0,0
23701,-83.3333333333333,4,1,0,100,0,0
31988,-71.4285714285714,4,1,0,100,0,0
41933,-200,4,1,0,100,0,0

[HitObjects]
104,100,281,6,4,P|160:116|204:112,1,80
280,152,612,2,8,P|244:192|208:196,1,80
148,208,943,1,0,0:0:0:0:
256,240,1109,1,0,0:0:0:0:
328,280,1275,2,0,B|356:240|328:212|328:212|344:180|316:136|324:96,1,176.000005371094
212,144,1772,1,0,0:0:0:0:
292,72,1938,5,4,0:0:0:0:
280,224,2104,1,8,0:0:0:0:
180,276,2269,2,0,P|156:224|168:180,1,88.000002685547
140,76,2601,2,0,P|88:96|44:72,1,88.000002685547
248,168,2932,1,4,0:0:0:0:
224,76,3098,1,4,0:0:0:0:
136,168,3264,1,2,0:0:0:0:
88,252,3595,6,0,L|144:252,2,44.0000013427735
68,176,3927,1,0,0:0:0:0:
156,80,4093,1,2,0:0:0:0:
212,176,4258,2,4,P|208:264|232:280,1,103.999995239258
292,296,4590,2,0,P|356:264|400:244,1,103.999995239258
396,188,4921,1,0,0:0:0:0:
344,112,5087,2,0,P|284:148|220:132,1,103.999995239258
152,200,5419,5,8,0:0:0:0:
224,104,5584,1,8,0:0:0:0:
108,88,5750,1,8,0:0:0:0:
48,172,5916,2,0,P|48:232|96:284,1,111.999996582031
176,272,6247,2,0,P|264:240|264:220,1,111.999996582031
368,144,6579,2,0,P|304:140|208:40,1,207.999990478516
116,96,7076,2,0,B|116:168|184:192|184:192,2,103.999995239258
248,240,7573,5,8,0:0:0:0:
320,148,7739,1,8,0:0:0:0:
236,112,7905,1,8,0:0:0:0:
132,140,8236,1,2,0:0:0:0:
316,212,8402,2,0,P|304:144|304:100,2,103.999995239258
224,164,8899,5,0,0:0:0:0:
164,76,9065,1,0,0:0:0:0:
104,260,9231,1,0,0:0:0:0:
256,96,9728,2,8,L|192:200,2,103.999995239258
356,152,10225,6,0,P|396:100|440:116,1,103.999995239258
436,240,10557,2,0,L|312:292,1,103.999995239258
240,236,10888,1,2,0:0:0:0:
344,144,11054,1,2,0:0:0:0:
228,92,11220,1,2,0:0:0:0:
272,248,11717,6,0,L|412:240,1,103.999995239258
432,168,12048,1,2,0:0:0:0:
476,92,12214,1,0,0:0:0:0:
404,32,12380,1,8,0:0:0:0:
268,160,12711,1,8,0:0:0:0:
388,244,12877,1,8,0:0:0:0:
320,96,13043,1,8,0:0:0:0:
272,264,13209,1,8,0:0:0:0:
216,148,13374,1,8,0:0:0:0:
144,220,13540,6,8,P|184:296|216:312,1,103.999995239258
324,256,13872,2,0,P|336:200|304:140,1,103.999995239258
228,72,14203,2,0,L|208:208,1,103.999995239258
176,256,14535,1,2,0:0:0:0:
304,252,14700,1,2,0:0:0:0:
436,272,14866,6,8,P|452:216|424:160,1,111.999996582031
296,140,15198,1,8,0:0:0:0:
188,276,15363,1,0,0:0:0:0:
396,232,15529,1,0,0:0:0:0:
416,116,15695,1,0,0:0:0:0:
300,160,15861,2,0,P|224:168|184:140,1,111.999996582031
256,64,16192,1,4,0:0:0:0:
120,128,16524,5,8,0:0:0:0:
260,180,16689,1,8,0:0:0:0:
168,228,16855,1,2,0:0:0:0:
224,280,17021,1,2,0:0:0:0:
288,312,17187,1,2,0:0:0:0:
336,268,17352,2,0,L|300:152,2,111.999996582031
436,248,17850,5,2,0:0:0:0:
368,160,18015,1,2,0:0:0:0:
436,84,18181,1,2,0:0:0:0:
312,96,18347,6,0,P|264:160|232:160,1,103.999995239258
208,80,18678,1,0,0:0:0:0:
136,136,18844,1,0,0:0:0:0:
236,208,19010,1,0,0:0:0:0:
312,256,19176,2,4,P|344:184|296:52,1,207.999990478516
220,80,19839,5,0,0:0:0:0:
176,160,20004,1,0,0:0:0:0:
88,120,20170,2,0,L|104:232,2,103.999995239258
216,244,20667,1,2,0:0:0:0:
308,140,20833,1,2,0:0:0:0:
172,72,20999,1,2,0:0:0:0:
96,128,21164,2,0,P|124:224|236:288,1,207.999990478516
276,208,21662,5,4,0:0:0:0:
264,88,21827,2,0,P|192:120|184:156,1,103.999995239258
200,236,22159,5,0,0:0:0:0:
316,224,22324,1,0,0:0:0:0:
196,144,22656,1,0,0:0:0:0:
304,140,22822,1,0,0:0:0:0:
232,48,23153,1,0,0:0:0:0:
224,216,23319,1,0,0:0:0:0:
332,212,23485,1,0,0:0:0:0:
108,120,23816,1,0,0:0:0:0:
168,216,24148,6,4,P|224:208|264:168,1,95.9999970703126
288,96,24479,2,0,P|220:100|184:112,1,95.9999970703126
96,212,24811,2,0,L|176:284,2,95.9999970703126
196,200,25805,1,4,0:0:0:0:
200,104,25971,1,4,0:0:0:0:
312,168,26137,1,4,0:0:0:0:
120,288,26468,1,0,0:0:0:0:
240,272,26634,1,0,0:0:0:0:
304,220,26800,1,8,0:0:0:0:
184,152,27131,5,0,0:0:0:0:
300,128,27463,2,0,L|304:192,4,47.9999985351563
300,128,27877,1,0,0:0:0:0:
184,120,28126,1,2,0:0:0:0:
128,220,28292,1,2,0:0:0:0:
296,176,28457,1,2,0:0:0:0:
188,64,28623,1,4,0:0:0:0:
280,60,28789,2,0,P|320:112|356:120,1,95.9999970703126
396,240,29120,2,4,P|340:252|232:172,1,191.999994140625
188,96,29783,6,2,L|204:208,1,95.9999970703126
352,256,30115,2,0,P|300:292|248:304,1,95.9999970703126
56,216,30612,1,0,0:0:0:0:
140,116,30778,1,0,0:0:0:0:
280,136,30943,1,0,0:0:0:0:
144,248,31109,1,0,0:0:0:0:
256,232,31441,2,0,L|260:288,4,47.9999985351563
256,232,31938,1,0,0:0:0:0:
172,200,32104,6,2,P|112:220|64:188,1,111.999996582031
100,96,32435,2,0,P|168:112|224:112,1,111.999996582031
340,160,32767,2,0,B|304:216|304:216|368:272,1,111.999996582031
224,244,33098,2,0,P|144:236|124:204,1,111.999996582031
200,152,33430,1,0,0:0:0:0:
296,100,33595,1,0,0:0:0:0:
156,64,33761,1,0,0:0:0:0:
300,200,33927,5,0,0:0:0:0:
220,272,34093,2,2,B|168:312|168:312|136:248,1,111.999996582031
128,164,34424,2,2,P|212:116|264:120,1,111.999996582031
356,140,34756,2,2,L|356:276,1,111.999996582031
256,280,35087,1,0,0:0:0:0:
280,132,35253,1,0,0:0:0:0:
172,160,35419,1,0,0:0:0:0:
336,252,35584,1,0,0:0:0:0:
216,68,35750,1,0,0:0:0:0:
192,276,35916,1,0,0:0:0:0:
104,216,36082,6,2,P|80:144|108:96,1,111.999996582031
220,40,36413,2,2,P|264:132|296:144,1,111.999996582031
224,252,36745,1,4,0:0:0:0:
392,240,36910,1,4,0:0:0:0:
240,148,37076,1,4,0:0:0:0:
148,176,37242,2,6,P|120:256|152:296,1,111.999996582031
288,288,37573,2,0,B|348:280|348:280|368:352,1,111.999996582031
460,292,37905,2,0,P|436:216|416:148,1,111.999996582031
352,200,38236,5,0,0:0:0:0:
176,104,38402,1,0,0:0:0:0:
316,256,38568,1,0,0:0:0:0:
312,108,38734,1,0,0:0:0:0:
188,240,38899,1,0,0:0:0:0:
108,176,39065,1,0,0:0:0:0:
364,188,39231,1,0,0:0:0:0:
224,60,39397,1,0,0:0:0:0:
264,280,39562,1,0,0:0:0:0:
312,140,39728,1,0,0:0:0:0:
112,116,40060,6,0,L|232:320,2,223.999993164063
312,216,41054,2,0,B|228:184|132:108|148:40|148:40,2,223.999993164063
224,68,42048,2,0,L|224:72,1,5
