osu file format v14

[General]
AudioFilename: audio.mp3
AudioLeadIn: 0
PreviewTime: 0
Countdown: 1
SampleSet: Normal
StackLeniency: 0.7
Mode: 0
LetterboxInBreaks: 0
WidescreenStoryboard: 1

[Editor]
DistanceSpacing: 1.2
BeatDivisor: 2
GridSize: 4
TimelineZoom: 1.2

[Metadata]
Title:Granat
TitleUnicode:Granat
Artist:Drop
ArtistUnicode:Drop
Creator:hiro katsumi
Version:Hard
Source:
Tags:竜と炎の物語 清風明月 c85 seifuu meigetsu ryuu to honou no monogatari Dragon and Flame
BeatmapID:1378818
BeatmapSetID:650205

[Difficulty]
HPDrainRate:3.5
CircleSize:3
OverallDifficulty:5
ApproachRate:7.5
SliderMultiplier:1.2
SliderTickRate:1

[Events]
//Background and Video events
0,0,"stretched-1366-768-483924.jpg",0,0
//Break Periods
//Storyboard Layer 0 (Background)
//Storyboard Layer 1 (Fail)
//Storyboard Layer 2 (Pass)
//Storyboard Layer 3 (Foreground)
//Storyboard Sound Samples

[TimingPoints]
281,331.491712707182,4,1,0,100,1,0
331,-90.9090909090909,4,1,0,100,0,0
1160,-90.9090909090909,4,1,0,100,0,0
3812,-83.3333333333333,4,1,0,100,0,0
4143,-83.3333333333333,4,1,0,100,0,0
5303,-83.3333333333333,4,1,0,100,0,0
6464,-83.3333333333333,4,3,0,100,0,0
14419,-90.9090909090909,4,1,0,100,0,0
17734,-90.9090909090909,4,2,0,100,0,0
23701,-90.9090909090909,4,1,0,100,0,0
31988,-100,4,3,0,100,0,0
41933,-200,4,1,0,100,0,0

[HitObjects]
96,260,281,6,4,L|208:184,1,120
272,172,778,1,2,0:0:0:0:
280,92,943,1,2,0:0:0:0:
212,52,1109,1,2,0:0:0:0:
136,92,1275,2,0,L|96:208,1,66.0000020141602
176,204,1606,5,4,0:0:0:0:
256,216,1772,1,4,0:0:0:0:
324,260,1938,1,0,0:0:0:0:
200,356,2269,1,2,0:0:0:0:
144,208,2601,1,0,0:0:0:0:
220,68,2932,1,2,0:0:0:0:
108,180,3264,6,4,L|180:228,2,66.0000020141602
184,196,3761,1,2,0:0:0:0:
260,152,3927,1,2,0:0:0:0:
336,192,4093,1,2,0:0:0:0:
312,276,4258,6,8,P|216:308|188:288,1,143.999995605469
184,196,4756,1,4,0:0:0:0:
200,112,4921,1,8,0:0:0:0:
284,100,5087,1,8,0:0:0:0:
316,180,5253,5,8,0:0:0:0:
244,232,5419,1,0,0:0:0:0:
160,244,5584,2,8,L|100:144,2,71.9999978027344
64,100,6247,5,4,0:0:0:0:
236,92,6579,1,4,0:0:0:0:
264,264,6910,1,4,0:0:0:0:
92,244,7242,1,4,0:0:0:0:
200,108,7573,6,2,L|288:96,2,71.9999978027344
52,196,8236,1,8,0:0:0:0:
96,272,8402,1,8,0:0:0:0:
172,232,8568,1,8,0:0:0:0:
216,308,8734,1,8,0:0:0:0:
296,280,8899,5,8,0:0:0:0:
296,280,9065,1,8,0:0:0:0:
368,232,9231,2,4,P|388:144|360:76,1,143.999995605469
200,124,9894,2,0,L|108:164,2,71.9999978027344
200,296,10557,5,0,0:0:0:0:
200,296,10722,1,0,0:0:0:0:
252,224,10888,1,2,0:0:0:0:
332,256,11054,1,2,0:0:0:0:
368,176,11220,5,2,0:0:0:0:
344,92,11385,2,2,P|236:36|208:68,1,143.999995605469
208,116,11883,2,4,L|192:256,1,71.9999978027344
272,236,12214,2,4,L|352:248,1,71.9999978027344
320,332,12546,2,4,L|212:336,1,71.9999978027344
176,288,12877,2,4,L|112:176,1,71.9999978027344
152,136,13209,6,0,B|188:36|188:36|284:60,1,143.999995605469
276,116,13706,2,2,L|404:136,2,71.9999978027344
232,192,14203,2,0,B|160:276|160:276|60:208|60:192|60:192|16:224,1,287.999991210938
120,60,15198,2,0,B|192:276|224:-8|364:84,1,264.000008056641
224,200,16192,6,0,P|220:288|240:328,1,132.00000402832
292,268,16689,2,0,L|344:200,1,66.0000020141602
344,136,17021,2,4,L|292:56,1,66.0000020141602
236,112,17352,1,2,0:0:0:0:
168,156,17518,5,2,0:0:0:0:
140,232,17684,1,2,0:0:0:0:
200,288,17850,6,2,L|248:232,1,66.0000020141602
324,272,18181,1,2,0:0:0:0:
408,268,18347,2,0,P|404:188|408:144,1,66.0000020141602
356,140,18678,2,2,L|240:144,1,66.0000020141602
212,164,19010,6,8,B|112:200|112:200|104:208,1,66.0000020141602
128,264,19341,2,8,B|160:364|160:364|288:300,1,198.000006042481
288,224,20004,6,0,L|272:148,1,66.0000020141602
168,68,20336,1,4,0:0:0:0:
152,144,20501,1,4,0:0:0:0:
56,156,20667,2,0,L|40:236,3,66.0000020141602
116,252,21330,2,8,L|224:228,1,66.0000020141602
256,212,21662,2,8,L|304:124,1,66.0000020141602
284,76,21993,2,8,L|200:104,1,66.0000020141602
172,160,22325,6,6,L|132:264,1,66.0000020141602
308,216,22822,2,6,L|264:300,1,66.0000020141602
388,192,23153,2,8,L|500:144,1,66.0000020141602
388,116,23485,2,0,L|332:280,2,132.00000402832
308,128,24314,6,0,L|236:136,1,66.0000020141602
160,112,24645,1,2,0:0:0:0:
96,160,24811,1,2,0:0:0:0:
64,216,24977,2,8,L|132:320,1,66.0000020141602
152,144,25805,5,4,0:0:0:0:
228,124,25971,1,4,0:0:0:0:
256,196,26137,1,4,0:0:0:0:
32,276,26634,5,2,0:0:0:0:
108,248,26800,1,2,0:0:0:0:
264,284,27131,1,4,0:0:0:0:
364,160,27463,6,4,L|328:152,4,33.0000010070801
288,132,27960,6,0,L|168:80,1,66.0000020141602
164,156,28292,2,0,L|120:232,1,66.0000020141602
200,256,28623,2,0,L|268:304,1,66.0000020141602
308,236,28955,1,0,0:0:0:0:
344,168,29120,1,0,0:0:0:0:
180,240,29783,6,0,L|92:248,2,66.0000020141602
320,316,30446,5,0,0:0:0:0:
368,252,30612,1,0,0:0:0:0:
408,184,30778,1,0,0:0:0:0:
364,116,30943,1,0,0:0:0:0:
296,76,31109,1,0,0:0:0:0:
224,116,31275,2,0,L|136:208,2,66.0000020141602
256,188,31772,5,2,0:0:0:0:
284,264,31938,1,2,0:0:0:0:
176,124,32104,6,0,L|128:192,1,60
180,232,32435,2,0,L|204:308,1,60
264,260,32767,2,0,L|348:328,1,60
356,244,33098,2,0,L|440:256,1,60
392,184,33430,6,0,L|472:132,1,60
392,100,33761,2,0,L|460:16,1,60
356,44,34093,2,0,L|272:16,1,60
320,96,34424,2,0,L|264:176,1,60
340,196,34756,2,0,L|312:272,1,60
388,232,35087,2,0,L|456:300,1,60
384,328,35419,2,0,L|292:320,1,60
280,268,35750,6,0,L|240:208,1,60
192,172,36082,2,0,L|112:84,1,60
152,56,36413,2,0,L|212:20,1,60
252,80,36745,1,0,0:0:0:0:
272,148,36910,1,0,0:0:0:0:
272,220,37076,1,0,0:0:0:0:
204,240,37242,2,0,L|104:224,1,60
120,164,37573,2,0,L|104:80,1,60
180,108,37905,2,0,L|244:144,1,60
400,148,38236,6,0,L|360:76,1,60
316,48,38568,2,0,L|256:108,1,60
240,156,38899,6,0,L|224:236,1,60
272,272,39231,2,0,L|352:300,1,60
380,240,39562,2,0,L|404:144,2,60
316,208,40060,2,0,B|248:116|248:116|220:216|216:216|152:136|152:136|56:152|56:152|72:240|68:240|-80:192|-80:192|-52:116|-52:116|-60:84,1,660
256,192,42048,12,0,47101,0:0:0:0:
