osu file format v14

[General]
AudioFilename: audio.mp3
AudioLeadIn: 0
PreviewTime: 0
Countdown: 1
SampleSet: Normal
StackLeniency: 0.7
Mode: 0
LetterboxInBreaks: 0
WidescreenStoryboard: 1

[Editor]
DistanceSpacing: 0.8
BeatDivisor: 2
GridSize: 8
TimelineZoom: 1.2

[Metadata]
Title:Granat
TitleUnicode:Granat
Artist:Drop
ArtistUnicode:Drop
Creator:hiro katsumi
Version:Error's Another
Source:
Tags:竜と炎の物語 清風明月 c85 seifuu meigetsu ryuu to honou no monogatari Dragon and Flame
BeatmapID:1385261
BeatmapSetID:650205

[Difficulty]
HPDrainRate:6.5
CircleSize:4
OverallDifficulty:8
ApproachRate:9
SliderMultiplier:2
SliderTickRate:1

[Events]
//Background and Video events
0,0,"stretched-1366-768-483924.jpg",0,0
//Break Periods
//Storyboard Layer 0 (Background)
//Storyboard Layer 1 (Fail)
//Storyboard Layer 2 (Pass)
//Storyboard Layer 3 (Foreground)
//Storyboard Sound Samples

[TimingPoints]
281,331.491712707182,3,1,0,100,1,0

[HitObjects]
128,240,281,6,0,P|80:200|80:128,1,100
152,56,612,1,0,0:0:0:0:
168,152,778,1,0,0:0:0:0:
248,216,943,2,0,B|320:216|320:216|376:192,1,100
400,32,1275,6,0,P|376:88|392:152,1,100
464,272,1606,1,0,0:0:0:0:
432,192,1772,1,0,0:0:0:0:
392,320,1938,2,0,P|424:352|496:352,1,100
368,248,2269,5,0,0:0:0:0:
272,304,2435,1,0,0:0:0:0:
184,232,2601,1,0,0:0:0:0:
368,128,2767,5,0,0:0:0:0:
368,248,2932,1,0,0:0:0:0:
272,304,3098,1,0,0:0:0:0:
184,128,3264,6,0,B|184:64|184:64|152:0,1,100
32,72,3595,2,0,P|64:88|136:64,2,66.6666666666667
0,48,3927,2,0,P|24:104|8:176,1,100
32,248,4258,6,0,B|88:232|88:232|176:232,1,100
224,384,4590,1,0,0:0:0:0:
184,304,4756,1,0,0:0:0:0:
288,216,4921,2,0,P|288:288|240:336,1,100
208,120,5253,6,0,L|328:104,1,100
400,208,5584,1,0,0:0:0:0:
472,88,5750,1,0,0:0:0:0:
368,0,5916,2,0,B|312:0|312:0|232:16,1,100
49,145,6247,6,0,P|89:177|209:113,1,200
112,40,6745,1,0,0:0:0:0:
24,224,6910,2,0,B|16:280|16:280|24:336,1,100
256,352,7242,6,0,P|216:296|56:296,1,200
136,384,7739,1,0,0:0:0:0:
312,248,7905,2,0,B|320:192|320:192|312:128,1,100
200,80,8236,6,0,B|248:112|248:112|408:96,1,200
464,32,8734,1,0,0:0:0:0:
408,184,8899,2,0,P|400:232|432:288,1,100
496,360,9231,6,0,P|448:328|304:328,1,200
192,384,9728,1,0,0:0:0:0:
240,208,9894,2,0,P|240:128|216:80,1,100
112,216,10225,6,0,B|160:248|160:248|320:248,1,200
376,176,10722,1,0,0:0:0:0:
464,272,10888,2,0,L|480:384,1,100
302,248,11220,6,0,B|278:160|278:160|286:32,1,200
400,0,11717,1,0,0:0:0:0:
470,170,11883,2,0,P|406:186|366:170,1,100
284,51,12214,6,0,B|308:112|308:112|304:248,1,200
176,304,12711,1,0,0:0:0:0:
96,192,12877,2,0,P|80:128|96:88,1,100
184,240,13209,6,0,P|128:288|16:248,1,200
90,97,13706,1,0,0:0:0:0:
264,176,13872,2,0,L|304:304,1,100
448,336,14203,5,0,0:0:0:0:
384,280,14369,1,0,0:0:0:0:
293,271,14535,1,0,0:0:0:0:
448,336,14700,5,0,0:0:0:0:
408,192,14866,1,0,0:0:0:0:
264,176,15032,1,0,0:0:0:0:
448,336,15198,5,0,0:0:0:0:
464,120,15363,1,0,0:0:0:0:
248,80,15529,1,0,0:0:0:0:
448,336,15695,5,0,0:0:0:0:
512,48,15861,1,0,0:0:0:0:
224,0,16026,1,0,0:0:0:0:
160,288,16192,6,0,B|208:328|208:328|352:328,1,200
432,224,16689,1,0,0:0:0:0:
304,136,16855,2,0,P|248:184|240:240,1,100
360,256,17187,6,0,B|368:160|368:160|336:48,1,200
208,16,17684,1,0,0:0:0:0:
72,144,17850,2,0,P|136:168|192:152,1,100
40,72,18181,6,0,B|0:112|0:112|8:280,1,200
120,352,18678,1,0,0:0:0:0:
216,264,18844,2,0,B|224:208|224:208|208:136,1,100
128,112,19176,6,0,B|184:128|184:128|336:104,1,200
416,48,19673,1,0,0:0:0:0:
432,224,19839,2,0,B|403:175|403:175|408:120,1,100
512,248,20170,6,0,B|464:296|464:296|296:304,1,200
264,192,20667,1,0,0:0:0:0:
144,280,20833,2,0,B|200:304|200:304|280:288,1,100
80,128,21164,6,0,B|48:176|48:176|24:352,1,200
112,384,21662,1,0,0:0:0:0:
176,168,21827,2,0,B|176:112|176:112|144:32,1,100
8,80,22159,5,0,0:0:0:0:
320,32,22325,1,0,0:0:0:0:
320,32,22656,5,0,0:0:0:0:
296,336,22822,1,0,0:0:0:0:
296,336,23153,5,0,0:0:0:0:
440,184,23319,1,0,0:0:0:0:
237,136,23485,1,0,0:0:0:0:
192,200,23816,5,0,0:0:0:0:
112,200,24148,5,0,0:0:0:0:
32,120,24314,1,0,0:0:0:0:
136,80,24479,1,0,0:0:0:0:
112,200,24645,5,0,0:0:0:0:
8,104,24811,1,0,0:0:0:0:
152,56,24977,1,0,0:0:0:0:
112,200,25142,6,0,P|104:256|248:336,1,200
200,344,25805,6,0,L|216:240,1,100
232,112,26137,6,0,B|288:96|288:96|472:96,1,200
480,264,26634,1,0,0:0:0:0:
400,200,26800,1,0,0:0:0:0:
328,264,27131,5,0,0:0:0:0:
256,200,27463,2,0,L|184:200,2,66.6666666666667
328,144,27794,2,0,P|328:96|280:32,1,100
128,120,28126,6,0,L|248:120,1,100
152,8,28457,1,0,0:0:0:0:
24,56,28623,1,0,0:0:0:0:
48,248,28789,2,0,B|100:246|100:246|144:208,1,100
16,176,29120,6,0,B|0:240|0:240|48:368,1,200
168,320,29618,1,0,0:0:0:0:
272,384,29783,2,0,B|328:384|328:384|384:352,1,100
304,128,30115,6,0,P|264:224|320:320,1,200
408,272,30612,1,0,0:0:0:0:
408,168,30778,1,0,0:0:0:0:
304,128,30943,1,0,0:0:0:0:
304,16,31109,6,0,B|264:8|264:8|128:8|128:8|88:16,1,200
48,72,31551,2,0,L|40:160,1,66.6666666666667
64,224,31772,1,0,0:0:0:0:
216,192,31938,1,0,0:0:0:0:
256,336,32104,6,0,P|304:352|368:312,2,100
216,192,32601,5,0,0:0:0:0:
392,96,32767,1,0,0:0:0:0:
387,296,32932,1,0,0:0:0:0:
168,128,33098,6,0,P|112:112|40:144,2,100
296,256,33595,5,0,0:0:0:0:
472,200,33761,1,0,0:0:0:0:
328,64,33927,1,0,0:0:0:0:
296,256,34093,6,0,B|296:320|296:320|248:384,2,100
192,80,34590,5,0,0:0:0:0:
64,224,34756,1,0,0:0:0:0:
253,263,34921,1,0,0:0:0:0:
192,80,35087,6,0,B|160:40|160:40|64:40,2,100
253,263,35584,5,0,0:0:0:0:
464,168,35750,1,0,0:0:0:0:
277,33,35916,1,0,0:0:0:0:
253,263,36082,6,0,B|248:320|248:320|256:384,2,100
328,136,36579,5,0,0:0:0:0:
72,144,36745,1,0,0:0:0:0:
207,362,36910,1,0,0:0:0:0:
328,136,37076,6,0,B|344:80|344:80|336:0,2,100
184,208,37573,5,0,0:0:0:0:
408,312,37739,1,0,0:0:0:0:
387,67,37905,1,0,0:0:0:0:
184,208,38071,5,0,0:0:0:0:
128,272,38236,1,0,0:0:0:0:
208,288,38402,1,0,0:0:0:0:
104,192,38568,5,0,0:0:0:0:
152,352,38734,1,0,0:0:0:0:
264,224,38899,1,0,0:0:0:0:
72,336,39065,5,0,0:0:0:0:
232,368,39231,1,0,0:0:0:0:
184,208,39397,1,0,0:0:0:0:
128,272,39562,1,0,0:0:0:0:
152,352,39728,1,0,0:0:0:0:
304,312,40060,5,0,0:0:0:0:
392,352,40391,1,0,0:0:0:0:
456,280,40722,1,0,0:0:0:0:
320,216,41054,5,0,0:0:0:0:
304,312,41385,1,0,0:0:0:0:
392,352,41717,1,0,0:0:0:0:
408,192,42048,5,0,0:0:0:0:
