osu file format v14

[General]
AudioFilename: audio.mp3
AudioLeadIn: 0
PreviewTime: 0
Countdown: 1
SampleSet: Normal
StackLeniency: 0.7
Mode: 0
LetterboxInBreaks: 0
WidescreenStoryboard: 1

[Editor]
DistanceSpacing: 1
BeatDivisor: 4
GridSize: 4
TimelineZoom: 2.7

[Metadata]
Title:Granat
TitleUnicode:Granat
Artist:Drop
ArtistUnicode:Drop
Creator:hiro katsumi
Version:-Miyashiro-'s Expert
Source:
Tags:竜と炎の物語 清風明月 c85 seifuu meigetsu ryuu to honou no monogatari Dragon and Flame
BeatmapID:1391576
BeatmapSetID:650205

[Difficulty]
HPDrainRate:6
CircleSize:4.6
OverallDifficulty:8.8
ApproachRate:9.5
SliderMultiplier:1.8
SliderTickRate:1

[Events]
//Background and Video events
0,0,"stretched-1366-768-483924.jpg",0,0
//Break Periods
//Storyboard Layer 0 (Background)
//Storyboard Layer 1 (Fail)
//Storyboard Layer 2 (Pass)
//Storyboard Layer 3 (Foreground)
//Storyboard Sound Samples

[TimingPoints]
281,331.491712707182,4,1,0,100,1,0
281,-83.3333333333333,4,1,0,100,0,0
4258,-100,4,1,0,100,0,0
27573,-100,4,1,0,100,0,0
27684,-100,4,1,0,100,0,0
31551,-100,4,1,0,100,0,0
31662,-100,4,1,0,100,0,0
32104,-133.333333333333,4,1,0,100,0,0

[HitObjects]
156,120,281,6,0,B|128:176|132:224|132:224|148:252,1,107.999996704102
204,308,612,1,0,0:0:0:0:
308,272,778,1,0,0:0:0:0:
213,184,943,2,0,P|245:132|257:64,1,107.999996704102
52,10,1275,1,0,0:0:0:0:
125,213,1441,1,0,0:0:0:0:
262,47,1606,1,0,0:0:0:0:
62,131,1772,1,0,0:0:0:0:
173,196,1938,2,0,P|227:223|303:227,1,107.999996704102
484,116,2269,5,0,0:0:0:0:
412,36,2435,1,0,0:0:0:0:
304,56,2601,1,0,0:0:0:0:
360,180,2767,1,0,0:0:0:0:
236,232,2932,1,0,0:0:0:0:
120,164,3098,1,0,0:0:0:0:
232,88,3264,2,0,P|304:92|438:191,1,215.999993408203
426,277,3761,2,0,L|471:306,2,53.9999983520508
316,212,4093,1,0,0:0:0:0:
196,164,4258,6,0,P|133:191|88:232,1,90
100,324,4590,1,0,0:0:0:0:
196,376,4756,1,0,0:0:0:0:
232,276,4921,1,0,0:0:0:0:
320,340,5087,1,0,0:0:0:0:
368,244,5253,2,0,P|386:182|376:124,1,90
288,44,5584,1,0,0:0:0:0:
208,156,5750,1,0,0:0:0:0:
320,76,5916,1,0,0:0:0:0:
192,116,6082,1,0,0:0:0:0:
328,120,6247,6,0,P|387:119|430:160,1,90
424,316,6579,2,0,P|388:334|304:306,1,90
328,120,6910,2,0,P|284:112|221:139,1,90
337,325,7242,2,0,P|248:349|145:293,1,180
72,48,7739,1,0,0:0:0:0:
152,120,7905,1,0,0:0:0:0:
68,48,8071,1,0,0:0:0:0:
176,40,8236,2,0,P|250:30|290:58,1,90
376,136,8568,5,0,0:0:0:0:
432,260,8734,1,0,0:0:0:0:
376,136,8899,1,0,0:0:0:0:
432,260,9065,1,0,0:0:0:0:
472,168,9231,1,0,0:0:0:0:
304,240,9397,1,0,0:0:0:0:
183,210,9562,5,0,0:0:0:0:
264,98,9728,1,0,0:0:0:0:
183,210,9894,1,0,0:0:0:0:
264,98,10060,1,0,0:0:0:0:
155,113,10225,1,0,0:0:0:0:
296,212,10391,1,0,0:0:0:0:
452,64,10557,5,0,0:0:0:0:
408,220,10722,1,0,0:0:0:0:
452,64,10888,1,0,0:0:0:0:
408,220,11054,1,0,0:0:0:0:
288,112,11220,6,0,P|228:111|196:124,1,90
130,173,11551,1,0,0:0:0:0:
229,173,11717,1,0,0:0:0:0:
271,266,11883,1,0,0:0:0:0:
283,113,12048,1,0,0:0:0:0:
99,99,12214,2,0,P|137:56|201:44,1,90
468,188,12546,5,0,0:0:0:0:
392,264,12711,1,0,0:0:0:0:
328,176,12877,1,0,0:0:0:0:
258,259,13043,1,0,0:0:0:0:
183,180,13209,2,0,P|200:110|245:81,1,90
314,26,13540,1,0,0:0:0:0:
407,80,13706,1,0,0:0:0:0:
404,184,13872,1,0,0:0:0:0:
296,172,14037,1,0,0:0:0:0:
344,268,14203,6,0,P|288:308|250:311,2,90
332,160,14700,2,0,B|392:128|397:53,2,90
223,155,15198,2,0,L|130:160,1,90
32,165,15529,1,0,0:0:0:0:
239,60,15695,2,0,L|340:43,1,90
451,23,16026,1,0,0:0:0:0:
364,112,16192,2,0,P|416:168|415:205,1,90
344,308,16524,1,0,0:0:0:0:
248,212,16689,1,0,0:0:0:0:
364,144,16855,1,0,0:0:0:0:
248,212,17021,1,0,0:0:0:0:
216,80,17187,2,0,P|173:87|125:134,1,90
112,260,17518,5,0,0:0:0:0:
248,248,17684,1,0,0:0:0:0:
236,112,17850,1,0,0:0:0:0:
248,248,18015,1,0,0:0:0:0:
356,168,18181,2,0,P|352:100|315:60,1,90
224,68,18513,1,0,0:0:0:0:
124,156,18678,1,0,0:0:0:0:
256,176,18844,1,0,0:0:0:0:
124,156,19010,1,0,0:0:0:0:
128,246,19176,2,0,P|226:333|375:277,1,270
416,236,19839,1,0,0:0:0:0:
432,172,20004,1,0,0:0:0:0:
440,106,20170,6,0,P|412:66|368:47,1,90
296,32,20501,1,0,0:0:0:0:
208,16,20667,1,0,0:0:0:0:
120,28,20833,1,0,0:0:0:0:
56,92,20999,1,0,0:0:0:0:
48,180,21164,2,0,P|52:248|72:272,1,90
164,312,21496,1,0,0:0:0:0:
300,328,21662,1,0,0:0:0:0:
428,288,21827,1,0,0:0:0:0:
496,172,21993,1,0,0:0:0:0:
400,80,22159,2,0,P|350:55|274:50,1,90
161,61,22490,1,0,0:0:0:0:
80,190,22656,2,0,P|141:210|205:190,1,90
292,92,22988,5,0,0:0:0:0:
399,172,23153,1,0,0:0:0:0:
417,38,23319,1,0,0:0:0:0:
321,161,23485,1,0,0:0:0:0:
445,106,23651,1,0,0:0:0:0:
340,36,23816,2,0,P|287:36|252:48,1,90
179,90,24148,5,0,0:0:0:0:
140,144,24314,1,0,0:0:0:0:
208,148,24479,1,0,0:0:0:0:
324,171,24645,1,0,0:0:0:0:
354,229,24811,1,0,0:0:0:0:
286,225,24977,1,0,0:0:0:0:
177,275,25142,1,0,0:0:0:0:
104,80,25805,5,0,0:0:0:0:
232,40,25971,1,0,0:0:0:0:
356,100,26137,1,0,0:0:0:0:
248,272,26634,5,0,0:0:0:0:
128,216,26800,1,0,0:0:0:0:
388,64,27131,1,0,0:0:0:0:
360,196,27463,5,0,0:0:0:0:
360,196,27573,1,0,0:0:0:0:
360,196,27684,1,0,0:0:0:0:
360,196,27794,1,0,0:0:0:0:
236,304,27960,1,0,0:0:0:0:
88,140,28126,5,0,0:0:0:0:
148,108,28292,1,0,0:0:0:0:
144,176,28457,1,0,0:0:0:0:
258,129,28623,1,0,0:0:0:0:
322,109,28789,1,0,0:0:0:0:
310,177,28955,1,0,0:0:0:0:
230,271,29120,1,0,0:0:0:0:
84,116,29783,5,0,0:0:0:0:
188,40,29949,1,0,0:0:0:0:
316,60,30115,1,0,0:0:0:0:
152,308,30612,1,0,0:0:0:0:
336,224,30778,1,0,0:0:0:0:
272,328,30943,1,0,0:0:0:0:
180,180,31109,1,0,0:0:0:0:
440,88,31441,1,0,0:0:0:0:
440,88,31551,1,0,0:0:0:0:
440,88,31662,1,0,0:0:0:0:
440,88,31772,1,0,0:0:0:0:
392,208,31938,1,0,0:0:0:0:
200,248,32104,6,0,L|141:284,2,67.5000025749208
412,128,32601,1,0,0:0:0:0:
176,84,32767,1,0,0:0:0:0:
320,216,32932,1,0,0:0:0:0:
360,56,33098,2,0,L|408:2,2,67.5000025749208
180,280,33595,1,0,0:0:0:0:
62,94,33761,1,0,0:0:0:0:
265,114,33927,1,0,0:0:0:0:
108,252,34093,6,0,L|44:273,2,67.5000025749208
392,176,34590,1,0,0:0:0:0:
144,68,34756,1,0,0:0:0:0:
176,248,34921,1,0,0:0:0:0:
384,76,35087,2,0,L|390:8,2,67.5000025749208
364,320,35584,1,0,0:0:0:0:
187,106,35750,1,0,0:0:0:0:
389,159,35916,1,0,0:0:0:0:
180,243,36082,6,0,L|213:309,2,67.5000025749208
100,64,36579,1,0,0:0:0:0:
176,276,36745,1,0,0:0:0:0:
304,32,36910,1,0,0:0:0:0:
120,224,37076,2,0,L|51:198,2,67.5000025749208
320,284,37573,1,0,0:0:0:0:
448,216,37739,1,0,0:0:0:0:
336,136,37905,1,0,0:0:0:0:
432,324,38071,5,0,0:0:0:0:
144,84,38236,1,0,0:0:0:0:
412,92,38402,1,0,0:0:0:0:
252,320,38568,1,0,0:0:0:0:
268,24,38734,1,0,0:0:0:0:
480,224,38899,1,0,0:0:0:0:
112,276,39065,1,0,0:0:0:0:
356,52,39231,1,0,0:0:0:0:
356,328,39397,1,0,0:0:0:0:
136,92,39562,1,0,0:0:0:0:
444,184,39728,1,0,0:0:0:0:
200,264,40060,5,0,0:0:0:0:
200,264,40391,1,0,0:0:0:0:
200,264,40722,1,0,0:0:0:0:
372,92,41054,5,0,0:0:0:0:
372,92,41385,1,0,0:0:0:0:
372,92,41717,1,0,0:0:0:0:
204,164,42048,2,0,L|224:232,1,45.0000017166138
