osu file format v14

[General]
AudioFilename: audio.mp3
AudioLeadIn: 0
PreviewTime: 0
Countdown: 1
SampleSet: None
StackLeniency: 0.7
Mode: 0
LetterboxInBreaks: 0
WidescreenStoryboard: 0

[Editor]
DistanceSpacing: 0.8
BeatDivisor: 4
GridSize: 4
TimelineZoom: 1

[Metadata]
Title:Granat
TitleUnicode:Granat
Artist:Drop
ArtistUnicode:Drop
Creator:hiro katsumi
Version:Expert
Source:
Tags:竜と炎の物語 清風明月 c85 seifuu meigetsu ryuu to honou no monogatari Dragon and Flame
BeatmapID:1377904
BeatmapSetID:650205

[Difficulty]
HPDrainRate:6
CircleSize:4
OverallDifficulty:7
ApproachRate:9.8
SliderMultiplier:1.4
SliderTickRate:1

[Events]
//Background and Video events
0,0,"stretched-1366-768-483924.jpg",0,0
//Break Periods
//Storyboard Layer 0 (Background)
//Storyboard Layer 1 (Fail)
//Storyboard Layer 2 (Pass)
//Storyboard Layer 3 (Foreground)
//Storyboard Sound Samples

[TimingPoints]
281,331.491712707182,4,1,0,40,1,0
331,-83.3333333333333,4,1,0,40,0,0
1160,-71.4285714285714,4,1,0,40,0,0
3812,-62.5,4,1,0,40,0,0
4143,-71.4285714285714,4,1,0,40,0,0
5303,-66.6666666666667,4,1,0,40,0,0
5336,-66.6666666666667,4,3,0,40,0,0
6464,-71.4285714285714,4,1,0,40,0,0
14419,-62.5,4,3,0,40,0,0
17734,-71.4285714285714,4,2,0,40,0,0
23701,-83.3333333333333,4,1,0,40,0,0
31988,-66.6666666666667,4,3,0,40,0,0
41933,-200,4,1,0,40,0,0

[HitObjects]
96,84,281,6,0,P|116:132|132:148,1,70
124,252,612,1,2,0:0:0:0:
268,208,778,1,2,0:0:0:0:
168,164,943,1,8,0:0:0:0:
72,196,1109,1,4,0:0:0:0:
140,104,1275,1,4,0:0:0:0:
104,272,1441,1,4,0:0:0:0:
216,208,1606,6,2,P|240:276|228:312,1,97.9999970092774
88,220,1938,2,2,P|80:168|108:120,1,97.9999970092774
148,60,2269,5,8,0:0:0:0:
276,180,2435,1,8,0:0:0:0:
132,204,2601,5,8,0:0:0:0:
252,276,2767,1,8,0:0:0:0:
144,320,2932,5,8,0:0:0:0:
324,352,3098,1,8,0:0:0:0:
324,188,3264,6,4,P|288:132|292:84,1,97.9999970092774
160,120,3595,2,0,L|100:156,2,48.9999985046387
168,256,3927,1,2,0:0:0:0:
376,224,4093,1,2,0:0:0:0:
284,312,4258,6,8,P|208:328|148:332,1,97.9999970092774
160,220,4590,2,0,B|112:160|112:160|128:96,1,130.666662679037
172,40,4921,1,0,0:0:0:0:
100,160,5087,5,4,0:0:0:0:
192,152,5253,1,4,0:0:0:0:
376,240,5474,1,0,0:0:0:0:
304,136,5584,1,2,0:0:0:0:
172,160,5750,2,0,P|160:244|172:280,1,105.000004005432
268,312,6082,2,2,P|336:320|392:312,1,105.000004005432
376,192,6413,5,0,0:0:0:0:
216,124,6579,1,2,0:0:0:0:
168,232,6745,6,4,L|284:248,1,97.9999970092774
348,288,7076,1,8,0:0:0:0:
116,128,7242,1,8,0:0:0:0:
344,188,7408,1,8,0:0:0:0:
156,292,7573,1,8,0:0:0:0:
88,216,7739,6,2,P|48:168|60:120,1,97.9999970092774
160,56,8071,1,4,0:0:0:0:
236,104,8236,1,2,0:0:0:0:
188,244,8402,5,8,0:0:0:0:
400,228,8568,1,8,0:0:0:0:
256,120,8734,1,12,0:0:0:0:
88,128,8899,2,2,P|80:212|96:264,1,97.9999970092774
168,252,9231,2,2,P|220:328|268:340,1,97.9999970092774
396,276,9562,2,2,L|376:136,1,97.9999970092774
296,92,9894,5,4,0:0:0:0:
172,196,10060,1,4,0:0:0:0:
328,280,10225,1,4,0:0:0:0:
384,184,10391,1,8,0:0:0:0:
208,96,10557,1,8,0:0:0:0:
392,104,10722,1,8,0:0:0:0:
208,96,10888,1,8,0:0:0:0:
112,192,11054,5,0,0:0:0:0:
268,200,11220,1,12,0:0:0:0:
172,284,11385,1,8,0:0:0:0:
208,96,11551,2,2,P|276:116|300:148,1,97.9999970092774
340,232,11883,1,4,0:0:0:0:
208,228,12048,1,4,0:0:0:0:
280,120,12214,1,4,0:0:0:0:
168,112,12380,2,2,P|144:212|152:224,2,97.9999970092774
264,240,12877,5,8,0:0:0:0:
392,136,13043,1,8,0:0:0:0:
176,92,13209,1,8,0:0:0:0:
280,228,13374,1,8,0:0:0:0:
176,220,13540,6,4,P|136:280|144:308,1,97.9999970092774
72,176,13872,1,10,0:0:0:0:
256,120,14037,1,10,0:0:0:0:
248,272,14203,1,10,0:0:0:0:
104,76,14369,1,0,0:0:0:0:
112,200,14535,5,2,0:0:0:0:
304,196,14700,1,4,0:0:0:0:
176,76,14866,1,4,0:0:0:0:
88,300,15032,5,10,0:0:0:0:
336,268,15198,1,10,0:0:0:0:
168,32,15363,1,10,0:0:0:0:
52,324,15529,5,6,0:0:0:0:
368,316,15695,1,6,0:0:0:0:
160,0,15861,1,6,0:0:0:0:
112,144,16026,5,4,0:0:0:0:
376,168,16192,1,4,0:0:0:0:
188,328,16358,1,4,0:0:0:0:
80,320,16524,6,8,P|72:224|88:180,1,112
152,112,16855,2,4,P|168:176|212:216,1,112
336,276,17187,1,2,0:0:0:0:
288,116,17352,5,4,0:0:0:0:
232,264,17518,1,4,0:0:0:0:
128,192,17684,1,0,0:0:0:0:
184,84,17850,6,0,P|212:136|264:176,1,97.9999970092774
216,272,18181,2,4,P|152:248|132:204,1,97.9999970092774
208,104,18513,1,8,0:0:0:0:
368,152,18678,1,8,0:0:0:0:
216,232,18844,1,8,0:0:0:0:
368,240,19010,1,8,0:0:0:0:
300,328,19176,6,10,P|256:264|260:216,1,97.9999970092774
216,128,19507,1,10,0:0:0:0:
324,176,19673,1,4,0:0:0:0:
264,292,19839,1,8,0:0:0:0:
136,76,20004,1,8,0:0:0:0:
136,192,20170,5,0,0:0:0:0:
364,240,20336,1,0,0:0:0:0:
216,312,20501,1,12,0:0:0:0:
240,144,20667,1,6,0:0:0:0:
248,40,20833,1,6,0:0:0:0:
144,144,20999,1,8,0:0:0:0:
296,300,21164,1,8,0:0:0:0:
144,144,21330,1,8,0:0:0:0:
80,224,21496,6,2,P|104:308|136:332,1,97.9999970092774
204,308,21827,1,2,0:0:0:0:
332,164,21993,1,0,0:0:0:0:
168,96,22159,5,4,0:0:0:0:
352,304,22325,1,4,0:0:0:0:
72,200,22656,5,4,0:0:0:0:
392,176,22822,1,4,0:0:0:0:
160,300,23153,5,6,0:0:0:0:
400,236,23319,1,6,0:0:0:0:
240,104,23485,1,6,0:0:0:0:
200,192,23816,1,6,0:0:0:0:
88,260,24148,6,2,P|140:288|172:296,1,83.9999974365235
236,224,24479,2,8,P|292:232|356:240,1,83.9999974365235
356,160,24811,5,4,0:0:0:0:
336,36,24977,1,4,0:0:0:0:
356,160,25142,1,4,0:0:0:0:
224,88,25805,5,2,0:0:0:0:
232,184,25971,1,2,0:0:0:0:
240,296,26137,1,0,0:0:0:0:
364,136,26634,5,8,0:0:0:0:
176,160,26800,1,8,0:0:0:0:
192,264,27131,1,0,0:0:0:0:
288,156,27463,1,4,0:0:0:0:
288,156,27546,1,4,0:0:0:0:
288,156,27629,1,4,0:0:0:0:
288,156,27711,1,8,0:0:0:0:
288,156,27794,1,8,0:0:0:0:
256,248,27960,1,0,0:0:0:0:
144,144,28126,1,0,0:0:0:0:
72,196,28292,6,0,P|100:256|132:284,1,83.9999974365235
228,268,28679,2,4,P|280:304|312:320,1,83.9999974365235
368,208,28955,5,12,0:0:0:0:
112,72,29120,1,12,0:0:0:0:
160,144,29783,5,0,0:0:0:0:
260,88,29949,1,0,0:0:0:0:
304,164,30116,1,0,0:0:0:0:
356,248,30612,5,0,0:0:0:0:
192,248,30778,1,2,0:0:0:0:
192,248,30943,1,2,0:0:0:0:
192,248,31109,1,2,0:0:0:0:
184,88,31441,5,2,0:0:0:0:
184,88,31524,1,2,0:0:0:0:
184,88,31606,1,2,0:0:0:0:
184,88,31689,1,2,0:0:0:0:
184,88,31883,1,2,0:0:0:0:
120,144,32104,5,4,0:0:0:0:
256,92,32269,1,4,0:0:0:0:
176,304,32435,1,4,0:0:0:0:
336,264,32601,6,4,P|360:316|404:352,1,105.000004005432
444,300,32932,1,0,0:0:0:0:
472,152,33098,1,4,0:0:0:0:
368,24,33264,1,4,0:0:0:0:
236,128,33430,1,4,0:0:0:0:
416,212,33595,1,2,0:0:0:0:
136,252,33761,1,2,0:0:0:0:
396,312,33927,1,2,0:0:0:0:
220,264,34093,1,0,0:0:0:0:
76,216,34258,6,0,P|104:144|96:112,1,105.000004005432
152,56,34590,1,0,0:0:0:0:
224,308,34756,1,4,0:0:0:0:
428,168,34921,1,4,0:0:0:0:
104,176,35087,1,4,0:0:0:0:
348,280,35253,1,4,0:0:0:0:
272,36,35419,1,4,0:0:0:0:
164,280,35584,1,4,0:0:0:0:
396,168,35750,1,4,0:0:0:0:
200,200,35916,5,4,0:0:0:0:
408,124,36082,1,0,0:0:0:0:
120,108,36247,1,0,0:0:0:0:
252,308,36413,1,0,0:0:0:0:
380,68,36579,1,0,0:0:0:0:
152,220,36745,1,0,0:0:0:0:
220,216,36910,2,0,P|264:256|324:256,1,105.000004005432
408,220,37242,1,0,0:0:0:0:
304,120,37408,5,0,0:0:0:0:
200,268,37573,1,4,0:0:0:0:
420,280,37739,1,4,0:0:0:0:
116,96,37905,1,4,0:0:0:0:
440,216,38071,1,4,0:0:0:0:
176,64,38236,1,4,0:0:0:0:
392,168,38402,1,4,0:0:0:0:
280,24,38568,1,4,0:0:0:0:
408,120,38734,5,4,0:0:0:0:
172,140,38899,1,4,0:0:0:0:
304,292,39065,1,8,0:0:0:0:
304,96,39231,1,8,0:0:0:0:
176,268,39397,1,8,0:0:0:0:
104,216,39562,1,8,0:0:0:0:
392,208,39728,1,8,0:0:0:0:
304,192,40060,5,0,0:0:0:0:
264,108,40391,1,0,0:0:0:0:
144,88,40722,1,0,0:0:0:0:
96,224,41054,1,8,0:0:0:0:
248,228,41385,1,8,0:0:0:0:
368,188,41717,1,8,0:0:0:0:
256,192,41883,12,8,47021,0:0:0:0:
