osu file format v14

[General]
AudioFilename: audio.mp3
AudioLeadIn: 0
PreviewTime: 115
Countdown: 0
SampleSet: Soft
StackLeniency: 0.2
Mode: 0
LetterboxInBreaks: 0
EpilepsyWarning: 1
WidescreenStoryboard: 1

[Editor]
Bookmarks: 6249,16196,24153,32111,40068
DistanceSpacing: 1.6
BeatDivisor: 2
GridSize: 16
TimelineZoom: 1

[Metadata]
Title:Granat
TitleUnicode:Granat
Artist:Drop
ArtistUnicode:Drop
Creator:diraimur
Version:Rohit's Insane
Source:
Tags:Mkguh Akali Kyshiro Rohit6 Antares- Arphimigon Starrodkirby86 seifuu meigetsu ryuu to honoo no monogatari dragon and flame 竜と炎の物語清風明月
BeatmapID:1073711
BeatmapSetID:501992

[Difficulty]
HPDrainRate:5
CircleSize:3.5
OverallDifficulty:8
ApproachRate:8.5
SliderMultiplier:1.6
SliderTickRate:1

[Events]
//Background and Video events
0,0,"bg.jpg",0,0
//Break Periods
//Storyboard Layer 0 (Background)
//Storyboard Layer 1 (Fail)
//Storyboard Layer 2 (Pass)
//Storyboard Layer 3 (Foreground)
//Storyboard Sound Samples

[TimingPoints]
281,331.5649867374,3,2,1,50,1,0
40068,-133.333333333333,3,2,1,50,0,0

[Colours]
Combo1 : 217,55,192
Combo2 : 117,117,223
Combo3 : 39,130,173
Combo4 : 39,173,130
Combo5 : 117,223,117
SliderBorder : 128,160,192
SliderTrackOverride : 64,80,96

[HitObjects]
67,72,281,5,4,0:2:0:0:
67,72,612,1,2,0:2:0:0:
162,81,778,1,8,0:2:0:0:
257,90,944,1,2,0:2:0:0:
205,170,1109,1,2,0:2:0:0:
310,10,1275,5,8,0:1:0:0:
310,10,1607,1,2,0:2:0:0:
353,95,1773,1,8,0:2:0:0:
396,179,1938,1,2,0:2:0:0:
297,178,2104,1,2,0:2:0:0:
492,181,2270,5,2,0:2:0:0:
445,265,2436,1,2,0:2:0:0:
396,179,2601,1,0,0:1:0:0:
293,346,2767,5,2,0:2:0:0:
243,263,2933,1,2,0:2:0:0:
342,264,3098,1,0,0:0:0:0:
92,181,3265,5,8,0:1:0:0:
92,181,3596,1,2,0:2:0:0:
145,175,3707,1,2,0:2:0:0:
197,169,3817,1,2,0:2:0:0:
213,118,3928,2,0,L|207:37,1,80,2|0,0:2|0:0,0:0:0:0:
59,267,4259,5,4,0:2:0:0:
59,267,4590,1,2,0:2:0:0:
154,258,4756,1,8,0:2:0:0:
249,249,4922,1,2,0:2:0:0:
197,169,5087,1,2,0:2:0:0:
302,329,5254,5,8,0:1:0:0:
302,329,5586,1,2,0:2:0:0:
345,244,5751,1,8,0:2:0:0:
388,160,5917,1,2,0:2:0:0:
289,161,6083,1,2,0:2:0:0:
437,242,6249,6,0,P|468:208|458:94,1,160,2|2,0:2|0:2,0:0:0:0:
372,66,6746,1,8,0:2:0:0:
388,160,6912,1,2,0:2:0:0:
289,161,7078,1,2,0:2:0:0:
437,242,7243,6,0,B|383:248|383:248|351:279|351:279|274:285,1,160,8|0,0:1|0:0,0:0:0:0:
210,228,7741,1,8,0:2:0:0:
74,319,7906,2,0,L|153:313,1,80,2|0,0:2|0:0,0:0:0:0:
129,174,8238,6,0,P|109:249|154:313,1,160,4|2,0:2|0:2,0:0:0:0:
210,228,8735,1,8,0:2:0:0:
215,132,8901,1,2,0:2:0:0:
137,75,9067,1,2,0:2:0:0:
243,322,9233,6,0,L|428:305,1,160,8|0,0:1|0:0,0:0:0:0:
429,205,9730,1,8,0:2:0:0:
254,225,9896,2,0,L|333:217,1,80,2|0,0:2|0:0,0:0:0:0:
464,50,10227,6,0,B|424:18|424:18|304:29,1,160,2|2,0:2|0:2,0:0:0:0:
235,136,10725,1,8,0:2:0:0:
329,125,10891,1,2,0:2:0:0:
218,41,11056,1,2,0:2:0:0:
101,198,11222,6,0,B|147:182|176:211|205:239|253:224,1,160,8|0,0:1|0:0,0:0:0:0:
235,136,11719,1,8,0:2:0:0:
121,288,11885,2,0,P|113:323|127:377,1,80,2|0,0:2|0:0,0:0:0:0:
218,324,12217,6,0,L|31:328,1,160,2|0,0:2|0:0,0:0:0:0:
21,238,12714,1,8,0:2:0:0:
34,142,12880,1,2,0:2:0:0:
48,46,13046,1,2,0:2:0:0:
245,212,13212,6,0,B|197:246|129:215|129:215|164:175,1,160,8|0,0:1|0:0,0:0:0:0:
226,115,13709,1,8,0:2:0:0:
406,108,13875,2,0,L|293:111,1,80,2|0,0:2|0:0,0:0:0:0:
61,22,14206,5,10,0:2:0:0:
51,141,14372,1,2,0:2:0:0:
41,260,14538,1,2,0:2:0:0:
177,2,14704,1,10,0:2:0:0:
167,121,14870,1,2,0:2:0:0:
157,240,15036,1,2,0:2:0:0:
381,89,15201,5,10,0:2:0:0:
391,208,15367,1,2,0:2:0:0:
401,327,15533,1,2,0:2:0:0:
265,69,15699,1,10,0:2:0:0:
275,188,15865,1,2,0:2:0:0:
285,307,16031,1,2,0:2:0:0:
477,32,16196,6,0,L|305:61,1,160,4|2,0:2|0:2,0:0:0:0:
226,31,16693,1,8,0:2:0:0:
148,87,16859,1,2,0:2:0:0:
63,40,17025,1,2,0:2:0:0:
274,147,17190,6,0,B|300:184|300:184|274:331,1,160,8|0,0:1|0:0,0:0:0:0:
354,358,17688,1,8,0:2:0:0:
386,186,17853,2,0,L|372:264,1,80,2|0,0:2|0:0,0:0:0:0:
106,363,18185,6,0,B|73:347|73:347|207:348,1,160,4|2,0:2|0:2,0:0:0:0:
280,297,18682,1,8,0:2:0:0:
193,254,18848,1,2,0:2:0:0:
273,201,19014,1,2,0:2:0:0:
30,83,19180,6,0,L|10:254,1,160,8|0,0:1|0:0,0:0:0:0:
101,275,19677,1,8,0:2:0:0:
120,97,19843,2,0,L|110:182,1,80,2|0,0:2|0:0,0:0:0:0:
388,137,20174,5,6,0:2:0:0:
299,98,20340,1,2,0:2:0:0:
211,138,20505,1,0,0:0:0:0:
493,110,20672,5,2,0:2:0:0:
424,16,20838,1,2,0:2:0:0:
309,5,21003,1,0,0:0:0:0:
464,340,21169,6,0,P|435:323|298:336,1,160,8|0,0:1|0:0,0:0:0:0:
223,361,21666,1,2,0:2:0:0:
239,266,21832,1,2,0:2:0:0:
256,171,21998,1,2,0:2:0:0:
95,33,22164,5,8,0:1:0:0:
167,202,22330,1,4,0:2:0:0:
167,202,22661,5,8,0:1:0:0:
458,75,22827,1,4,0:2:0:0:
458,75,23158,5,8,0:1:0:0:
328,234,23324,1,8,0:1:0:0:
188,104,23490,1,2,0:2:0:0:
228,17,23656,1,0,0:2:0:0:
321,31,23822,1,2,0:2:0:0:
340,126,23987,1,0,0:2:0:0:
66,225,24153,5,6,0:2:0:0:
204,188,24319,1,0,0:2:0:0:
156,294,24485,1,10,0:2:0:0:
109,117,24651,1,2,0:2:0:0:
162,321,24816,1,10,0:2:0:0:
101,89,24982,1,10,0:2:0:0:
23,354,25148,6,0,L|137:370,1,80,4|0,0:2|0:0,0:0:0:0:
156,295,25479,2,0,L|270:311,1,80
500,227,25811,1,10,0:2:0:0:
354,73,25977,1,10,0:2:0:0:
321,319,26143,6,0,L|345:146,1,160,4|0,0:2|0:0,0:0:0:0:
449,80,26640,1,10,0:2:0:0:
412,271,26806,1,10,0:2:0:0:
80,113,27137,5,4,0:2:0:0:
80,113,27469,1,2,0:2:0:0:
132,102,27579,1,2,0:2:0:0:
185,91,27690,1,2,0:2:0:0:
237,80,27800,1,10,0:2:0:0:
355,0,27966,1,10,0:2:0:0:
475,262,28132,5,4,0:2:0:0:
337,225,28298,1,2,0:2:0:0:
385,323,28464,1,10,0:2:0:0:
428,160,28630,1,2,0:2:0:0:
379,349,28795,1,10,0:2:0:0:
435,133,28961,1,10,0:2:0:0:
251,301,29127,5,4,0:2:0:0:
251,301,29790,1,10,0:2:0:0:
99,213,29956,1,10,0:2:0:0:
251,124,30121,6,0,B|306:112|330:139|350:165|425:136,1,160,4|0,0:2|0:0,0:0:0:0:
496,43,30619,1,2,0:2:0:0:
455,263,30784,1,10,0:2:0:0:
370,64,30950,1,10,0:2:0:0:
274,206,31116,5,4,0:2:0:0:
274,206,31448,1,2,0:2:0:0:
220,202,31558,1,2,0:2:0:0:
180,166,31669,1,2,0:2:0:0:
172,112,31779,1,10,0:2:0:0:
134,258,31945,1,10,0:2:0:0:
156,28,32111,5,10,0:2:0:0:
81,126,32277,1,2,0:2:0:0:
156,28,32442,1,10,0:2:0:0:
81,126,32608,1,10,0:2:0:0:
172,112,32774,1,2,0:2:0:0:
68,40,32940,1,2,0:2:0:0:
77,251,33105,5,10,0:2:0:0:
152,349,33271,1,2,0:2:0:0:
77,251,33436,1,10,0:2:0:0:
152,349,33602,1,10,0:2:0:0:
61,335,33768,1,2,0:2:0:0:
165,263,33934,1,2,0:2:0:0:
356,356,34100,5,10,0:2:0:0:
431,258,34266,1,2,0:2:0:0:
356,356,34431,1,10,0:2:0:0:
431,258,34597,1,10,0:2:0:0:
340,272,34763,1,2,0:2:0:0:
444,344,34929,1,2,0:2:0:0:
431,126,35094,5,10,0:2:0:0:
356,28,35260,1,2,0:2:0:0:
431,126,35425,1,10,0:2:0:0:
356,28,35591,1,10,0:2:0:0:
447,42,35757,1,2,0:2:0:0:
343,114,35923,1,2,0:2:0:0:
156,28,36090,5,10,0:2:0:0:
68,40,36256,1,2,0:2:0:0:
156,28,36421,1,10,0:2:0:0:
68,40,36587,1,10,0:2:0:0:
172,112,36753,1,2,0:2:0:0:
81,126,36919,1,2,0:2:0:0:
356,28,37084,5,10,0:2:0:0:
447,42,37250,1,2,0:2:0:0:
356,28,37415,1,10,0:2:0:0:
447,42,37582,1,10,0:2:0:0:
343,114,37747,1,2,0:2:0:0:
431,126,37913,1,2,0:2:0:0:
77,251,38079,5,10,0:2:0:0:
165,213,38245,1,2,0:2:0:0:
189,305,38410,1,2,0:2:0:0:
435,251,38576,5,10,0:2:0:0:
347,213,38742,1,2,0:2:0:0:
323,305,38907,1,2,0:2:0:0:
446,44,39074,5,10,0:2:0:0:
340,112,39239,1,2,0:2:0:0:
256,38,39405,1,10,0:2:0:0:
172,112,39571,1,2,0:2:0:0:
66,44,39736,1,10,0:2:0:0:
446,44,40068,6,0,B|425:80|425:80|437:159,2,120.000004577637,2|2|8,0:2|0:2|0:0,0:0:0:0:
66,44,41063,2,0,B|87:80|87:80|75:159,2,120.000004577637,2|2|8,0:2|0:2|0:0,0:0:0:0:
256,272,42058,5,12,0:2:0:0:
