osu file format v14

[General]
AudioFilename: audio.mp3
AudioLeadIn: 0
PreviewTime: 115
Countdown: 0
SampleSet: Soft
StackLeniency: 0.3
Mode: 0
LetterboxInBreaks: 0
EpilepsyWarning: 1
WidescreenStoryboard: 1

[Editor]
DistanceSpacing: 0.9
BeatDivisor: 2
GridSize: 4
TimelineZoom: 1

[Metadata]
Title:Granat
TitleUnicode:Granat
Artist:Drop
ArtistUnicode:Drop
Creator:diraimur
Version:Mk's Normal
Source:
Tags:Mkguh Akali Kyshiro Rohit6 Antares- Arphimigon Starrodkirby86 seifuu meigetsu ryuu to honoo no monogatari dragon and flame 竜と炎の物語清風明月
BeatmapID:1072786
BeatmapSetID:501992

[Difficulty]
HPDrainRate:2.5
CircleSize:3.5
OverallDifficulty:3.5
ApproachRate:4
SliderMultiplier:1.06
SliderTickRate:1

[Events]
//Background and Video events
0,0,"bg.jpg",0,0
//Break Periods
//Storyboard Layer 0 (Background)
//Storyboard Layer 1 (Fail)
//Storyboard Layer 2 (Pass)
//Storyboard Layer 3 (Foreground)
//Storyboard Sound Samples

[TimingPoints]
281,331.5649867374,3,2,1,50,1,0

[Colours]
Combo1 : 217,55,192
Combo2 : 117,117,223
Combo3 : 39,130,173
Combo4 : 39,173,130
Combo5 : 117,223,117
SliderBorder : 128,160,192
SliderTrackOverride : 64,80,96

[HitObjects]
44,76,281,6,0,P|92:92|144:76,1,106,4|0,0:0|0:0,0:0:0:0:
228,36,944,1,2,0:0:0:0:
292,108,1275,1,8,0:0:0:0:
240,188,1607,2,0,P|192:172|140:188,1,106,2|0,0:0|0:0,0:0:0:0:
52,224,2270,6,0,B|28:180|64:124|64:124|28:68|52:24,1,212,2|0,0:0|0:0,0:0:0:0:
140,60,3265,2,0,L|272:52,1,106,8|2,0:0|0:0,0:0:0:0:
340,44,3928,1,0,0:0:0:0:
420,96,4259,6,0,P|432:144|412:204,1,106,4|0,0:0|0:0,0:0:0:0:
372,284,4922,1,2,0:0:0:0:
284,252,5254,1,8,0:0:0:0:
204,304,5586,2,0,L|92:292,1,106,2|0,0:0|0:0,0:0:0:0:
20,240,6249,6,0,B|28:164|28:164|68:120|68:120|80:44,1,212,2|0,0:0|0:0,0:0:0:0:
172,64,7243,2,0,P|236:112|324:24,1,212,8|0,0:0|0:0,0:0:0:0:
416,12,8238,6,0,L|432:128,1,106,4|0,0:0|0:0,0:0:0:0:
448,212,8901,1,0,0:0:0:0:
360,252,9233,2,0,B|308:268|256:248|256:248|208:228|152:244,1,212,8|0,0:0|0:0,0:0:0:0:
88,316,10227,6,0,P|60:276|132:148,1,212,2|0,0:0|0:0,0:0:0:0:
220,132,11222,2,0,P|196:80|136:56,2,106,8|2|0,0:0|0:0|0:0,0:0:0:0:
228,228,12217,6,0,L|340:216,1,106,2|0,0:0|0:0,0:0:0:0:
428,204,12880,1,0,0:0:0:0:
411,109,13212,2,0,B|304:120|304:120|300:64|263:23,1,212,8|0,0:0|0:0,0:0:0:0:
184,76,14206,6,0,P|104:108|61:214,2,159,2|2|8,0:0|0:0|0:0,0:0:0:0:
256,140,15532,1,0,0:0:0:0:
328,80,15864,1,0,0:0:0:0:
392,152,16196,6,0,P|420:232|300:284,1,212,4|0,0:0|0:0,0:0:0:0:
248,348,17190,2,0,B|216:304|240:248|240:248|200:216|132:236,1,212,8|0,0:0|0:0,0:0:0:0:
73,164,18185,6,0,B|117:136|173:136|173:136|171:81|208:37,1,212,4|0,0:0|0:0,0:0:0:0:
304,37,19180,2,0,B|341:81|339:136|339:136|395:136|439:164,1,212,8|0,0:0|0:0,0:0:0:0:
416,256,20174,6,0,P|360:232|304:232,1,106,4|2,0:0|0:0,0:0:0:0:
224,264,20838,1,0,0:0:0:0:
132,292,21169,2,0,P|72:264|76:104,1,212,8|0,0:0|0:0,0:0:0:0:
120,64,22164,6,0,L|192:72,1,53,4|8,0:0|0:0,0:0:0:0:
252,120,22661,2,0,L|324:128,1,53,4|8,0:0|0:0,0:0:0:0:
392,168,23158,2,0,P|404:216|392:272,1,106,8|2,0:0|0:0,0:0:0:0:
320,332,23822,1,0,0:0:0:0:
224,320,24153,6,0,P|160:308|94:309,1,106,2|0,0:0|0:0,0:0:0:0:
53,237,24816,1,0,0:0:0:0:
135,188,25148,1,2,0:0:0:0:
301,95,25811,1,2,0:0:0:0:
389,131,26143,6,0,P|401:195|377:343,1,212,2|0,0:0|0:0,0:0:0:0:
284,326,27137,2,0,P|232:318|176:326,1,106,2|0,0:0|0:0,0:0:0:0:
87,352,27800,1,0,0:0:0:0:
15,288,28132,6,0,P|7:232|-5:164,1,106,2|0,0:0|0:0,0:0:0:0:
20,90,28795,1,0,0:0:0:0:
115,90,29127,1,2,0:0:0:0:
296,148,29790,1,2,0:0:0:0:
369,86,30121,6,0,P|393:166|297:250,1,212,2|0,0:0|0:0,0:0:0:0:
218,220,31116,2,0,P|178:196|114:200,1,106,2|0,0:0|0:0,0:0:0:0:
152,288,31779,1,0,0:0:0:0:
220,356,32111,6,0,L|364:348,1,106,2|0,0:0|0:0,0:0:0:0:
404,296,32774,1,0,0:0:0:0:
348,220,33105,2,0,B|340:168|340:168|352:112,1,106,2|0,0:0|0:0,0:0:0:0:
384,28,33769,1,0,0:0:0:0:
288,40,34100,6,0,P|224:48|176:36,1,106,2|0,0:0|0:0,0:0:0:0:
92,20,34763,1,0,0:0:0:0:
28,92,35095,2,0,L|32:208,1,106,2|0,0:0|0:0,0:0:0:0:
40,292,35758,1,0,0:0:0:0:
132,264,36090,6,0,B|192:264|176:288|236:288,1,106,2|0,0:0|0:0,0:0:0:0:
316,324,36753,1,0,0:0:0:0:
396,272,37084,2,0,B|396:212|420:228|420:168,1,106,2|0,0:0|0:0,0:0:0:0:
420,76,37747,1,0,0:0:0:0:
340,20,38079,6,0,B|272:16|240:60|240:60|180:8|80:0|12:76|16:192|76:272|240:264|256:152,1,636,2|2,0:0|0:0,0:0:0:0:
256,192,40234,12,2,42058,0:0:0:0:
