osu file format v14

[General]
AudioFilename: audio.mp3
AudioLeadIn: 0
PreviewTime: 115
Countdown: 0
SampleSet: Soft
StackLeniency: 0.3
Mode: 0
LetterboxInBreaks: 0
EpilepsyWarning: 1
WidescreenStoryboard: 1

[Editor]
Bookmarks: 36421
DistanceSpacing: 1.2
BeatDivisor: 3
GridSize: 4
TimelineZoom: 1

[Metadata]
Title:Granat
TitleUnicode:Granat
Artist:Drop
ArtistUnicode:Drop
Creator:diraimur
Version:Mk's Hard
Source:
Tags:Mkguh Akali Kyshiro Rohit6 Antares- Arphimigon Starrodkirby86 seifuu meigetsu ryuu to honoo no monogatari dragon and flame 竜と炎の物語清風明月
BeatmapID:1068384
BeatmapSetID:501992

[Difficulty]
HPDrainRate:4.5
CircleSize:4
OverallDifficulty:6
ApproachRate:7.5
SliderMultiplier:1.55
SliderTickRate:1

[Events]
//Background and Video events
0,0,"bg.jpg",0,0
//Break Periods
//Storyboard Layer 0 (Background)
//Storyboard Layer 1 (Fail)
//Storyboard Layer 2 (Pass)
//Storyboard Layer 3 (Foreground)
//Storyboard Sound Samples

[TimingPoints]
281,331.5649867374,3,2,1,50,1,0
8238,-133.333333333333,3,2,1,50,0,0
14206,-100,3,2,1,50,0,0
16196,-133.333333333333,3,2,1,50,0,0
20174,-100,3,2,1,50,0,0
28132,-100,3,2,1,50,0,0

[Colours]
Combo1 : 217,55,192
Combo2 : 117,117,223
Combo3 : 39,130,173
Combo4 : 39,173,130
Combo5 : 117,223,117
SliderBorder : 128,160,192
SliderTrackOverride : 64,80,96

[HitObjects]
24,120,281,6,0,B|76:132|76:132|192:92,1,155,4|2,0:0|0:0,0:0:0:0:
260,64,778,1,0,0:0:0:0:
260,64,944,2,0,P|284:124|244:212,1,155,2|8,0:0|0:0,0:0:0:0:
96,304,1607,1,2,0:0:0:0:
44,228,1773,1,0,0:0:0:0:
92,148,1938,1,2,0:0:0:0:
280,152,2270,6,0,P|328:160|360:152,1,77.5,2|0,0:0|0:0,0:0:0:0:
196,108,2601,2,0,P|188:156|196:188,1,77.5
236,24,2933,2,0,P|188:16|156:24,1,77.5,2|0,0:0|0:0,0:0:0:0:
84,76,3265,2,0,P|68:148|100:256,1,155,8|0,0:0|0:0,0:0:0:0:
121,275,3707,2,0,L|167:315,2,51.6666666666667,0|0|2,0:0|0:0|0:0,0:0:0:0:
216,172,4259,6,0,B|272:220|272:220|292:176|332:156,1,155,4|2,0:0|0:0,0:0:0:0:
404,212,4757,1,0,0:0:0:0:
404,212,4922,2,0,P|348:260|380:332,1,155,2|8,0:0|0:0,0:0:0:0:
188,360,5586,1,2,0:0:0:0:
124,292,5751,1,0,0:0:0:0:
64,220,5917,1,2,0:0:0:0:
148,60,6249,6,0,L|304:44,1,155,2|0,0:0|0:0,0:0:0:0:
428,180,6912,2,0,L|272:196,1,155,0|8,0:0|0:0,0:0:0:0:
88,208,7575,2,0,P|56:152|56:108,1,77.5,2|0,0:0|0:0,0:0:0:0:
54,47,7906,1,2,0:0:0:0:
190,78,8238,6,0,B|259:88|250:51|324:62,1,116.250004434586,4|0,0:0|0:0,0:0:0:0:
413,145,8901,1,0,0:0:0:0:
354,272,9233,2,0,P|248:300|184:203,1,232.500008869171,8|0,0:0|0:0,0:0:0:0:
68,133,10227,6,0,B|117:82|205:90|205:90|201:49|157:16,1,232.500008869171,2|0,0:0|0:0,0:0:0:0:
290,77,11222,2,0,P|279:142|234:175,1,116.250004434586,8|0,0:0|0:0,0:0:0:0:
172,172,11719,1,0,0:0:0:0:
172,172,11885,1,0,0:0:0:0:
95,293,12217,6,0,P|252:353|425:286,1,348.750013303757,2|8,0:0|0:0,0:0:0:0:
468,165,13543,1,0,0:0:0:0:
382,54,13875,1,0,0:0:0:0:
252,105,14206,6,0,L|164:105,1,77.5,2|0,0:0|0:0,0:0:0:0:
140,192,14538,2,0,L|228:192,1,77.5,0|2,0:0|0:0,0:0:0:0:
404,192,15035,1,0,0:0:0:0:
447,274,15201,2,0,B|387:309|366:252|295:285,1,155,8|0,0:0|0:0,0:0:0:0:
206,307,15698,1,0,0:0:0:0:
206,307,15864,1,0,0:0:0:0:
130,203,16196,6,0,P|82:149|192:81,1,232.500008869171,4|0,0:0|0:0,0:0:0:0:
382,203,17190,2,0,P|430:149|320:81,1,232.500008869171,8|0,0:0|0:0,0:0:0:0:
288,209,18185,6,0,P|311:265|471:237,1,232.500008869171,4|0,0:0|0:0,0:0:0:0:
482,120,19180,2,0,P|448:73|368:62,1,116.250004434586,8|0,0:0|0:0,0:0:0:0:
324,56,19677,1,0,0:0:0:0:
324,56,19843,1,2,0:0:0:0:
78,84,20174,6,0,P|52:126|54:170,1,77.5,4|0,0:0|0:0,0:0:0:0:
143,165,20506,2,0,P|150:213|179:246,1,77.5,2|0,0:0|0:0,0:0:0:0:
252,199,20838,2,0,P|287:233|331:240,1,77.5
392,191,21169,2,0,P|442:141|380:75,1,155,8|0,0:0|0:0,0:0:0:0:
326,26,21666,1,0,0:0:0:0:
326,26,21832,1,2,0:0:0:0:
158,107,22164,6,0,L|61:100,1,77.5,4|8,0:0|0:0,0:0:0:0:
179,133,22661,2,0,L|82:126,1,77.5,0|8,0:0|0:0,0:0:0:0:
179,296,23158,1,8,0:0:0:0:
269,273,23324,1,8,0:0:0:0:
357,244,23490,2,0,P|375:161|321:92,1,155,2|2,0:0|0:0,0:0:0:0:
163,46,24153,6,0,P|120:84|115:122,1,77.5,4|0,0:0|0:0,0:0:0:0:
103,194,24485,1,2,0:0:0:0:
141,278,24651,1,0,0:0:0:0:
225,315,24816,1,2,0:0:0:0:
317,307,24982,1,0,0:0:0:0:
391,251,25148,1,2,0:0:0:0:
442,76,25811,1,2,0:0:0:0:
354,107,25977,1,0,0:0:0:0:
260,70,26143,6,0,P|176:69|176:200,1,232.5,2|2,0:0|0:0,0:0:0:0:
224,264,26806,1,2,0:0:0:0:
224,264,27137,1,2,0:0:0:0:
398,330,27469,6,0,L|387:279,3,51.6666666666667,2|0|0|2,0:0|0:0|0:0|0:0,0:0:0:0:
366,188,27966,1,2,0:0:0:0:
201,213,28132,6,0,P|161:254|162:286,1,77.5,2|0,0:0|0:0,0:0:0:0:
216,345,28464,2,0,P|256:304|255:272,1,77.5,2|0,0:0|0:0,0:0:0:0:
282,196,28795,1,2,0:0:0:0:
282,196,28961,1,0,0:0:0:0:
303,105,29127,1,2,0:0:0:0:
101,25,29790,1,2,0:0:0:0:
28,84,29956,1,0,0:0:0:0:
40,176,30121,6,0,L|256:272,1,232.5,2|0,0:0|0:0,0:0:0:0:
332,320,30784,2,0,P|344:288|332:232,1,77.5,2|0,0:0|0:0,0:0:0:0:
268,188,31116,2,0,P|348:156|408:192,1,155,2|0,0:0|0:0,0:0:0:0:
476,244,31613,1,0,0:0:0:0:
504,156,31779,2,0,B|504:76,1,77.5,2|0,0:0|0:0,0:0:0:0:
348,40,32111,6,0,L|264:40,1,77.5,2|0,0:0|0:0,0:0:0:0:
188,132,32442,2,0,L|272:132,1,77.5,2|0,0:0|0:0,0:0:0:0:
348,224,32774,2,0,L|264:224,1,77.5,2|0,0:0|0:0,0:0:0:0:
196,280,33105,6,0,P|196:332|236:364,1,77.5,2|0,0:0|0:0,0:0:0:0:
112,232,33437,2,0,P|83:275|99:324,1,77.5,2|0,0:0|0:0,0:0:0:0:
72,144,33769,2,0,P|32:152|4:184,1,77.5,2|0,0:0|0:0,0:0:0:0:
132,56,34100,6,0,L|216:68,1,77.5,2|0,0:0|0:0,0:0:0:0:
300,80,34432,1,2,0:0:0:0:
392,92,34597,1,0,0:0:0:0:
372,184,34763,2,0,B|416:196|452:168|452:168,1,77.5,2|0,0:0|0:0,0:0:0:0:
316,264,35095,6,0,L|328:352,1,77.5,2|0,0:0|0:0,0:0:0:0:
208,232,35426,2,0,L|220:320,1,77.5,2|0,0:0|0:0,0:0:0:0:
100,192,35758,2,0,L|112:280,1,77.5,2|0,0:0|0:0,0:0:0:0:
60,96,36090,6,0,P|112:88|148:100,1,77.5,2|0,0:0|0:0,0:0:0:0:
216,48,36421,2,0,P|253:54|292:48,1,77.5,2|0,0:0|0:0,0:0:0:0:
376,93,36753,2,0,P|414:87|452:96,1,77.5,2|0,0:0|0:0,0:0:0:0:
412,180,37084,6,0,B|400:216|400:216|416:256,1,77.5,2|0,0:0|0:0,0:0:0:0:
328,336,37416,2,0,B|340:300|340:300|324:260,1,77.5,2|0,0:0|0:0,0:0:0:0:
276,184,37747,1,2,0:0:0:0:
276,184,37913,1,0,0:0:0:0:
140,240,38079,6,0,P|100:248|56:236,1,77.5,2|2,0:0|0:0,0:0:0:0:
64,112,38410,2,0,P|104:104|148:116,1,77.5,2|0,0:0|0:0,0:0:0:0:
276,184,38742,2,0,P|316:192|360:180,1,77.5,2|0,0:0|0:0,0:0:0:0:
352,56,39073,2,0,P|312:48|268:60,2,77.5,2|0|2,0:0|0:0|0:0,0:0:0:0:
440,84,39571,1,0,0:0:0:0:
440,84,39737,1,2,0:0:0:0:
256,192,40068,12,0,42058,0:0:0:0:
