osu file format v14

[General]
AudioFilename: audio.mp3
AudioLeadIn: 0
PreviewTime: 115
Countdown: 0
SampleSet: Soft
StackLeniency: 0.5
Mode: 0
LetterboxInBreaks: 0
EpilepsyWarning: 1
WidescreenStoryboard: 1

[Editor]
Bookmarks: 8238,24153,32111
DistanceSpacing: 1.2
BeatDivisor: 2
GridSize: 4
TimelineZoom: 0.9

[Metadata]
Title:Granat
TitleUnicode:Granat
Artist:Drop
ArtistUnicode:Drop
Creator:diraimur
Version:Arphimigon's Insane
Source:
Tags:Mkguh Akali Kyshiro Rohit6 Antares- Arphimigon Starrodkirby86 seifuu meigetsu ryuu to honoo no monogatari dragon and flame 竜と炎の物語清風明月
BeatmapID:1077686
BeatmapSetID:501992

[Difficulty]
HPDrainRate:5
CircleSize:5
OverallDifficulty:8
ApproachRate:9
SliderMultiplier:2
SliderTickRate:1

[Events]
//Background and Video events
0,0,"bg.jpg",0,0
//Break Periods
//Storyboard Layer 0 (Background)
//Storyboard Layer 1 (Fail)
//Storyboard Layer 2 (Pass)
//Storyboard Layer 3 (Foreground)
//Storyboard Sound Samples

[TimingPoints]
281,331.5649867374,3,2,1,50,1,0

[Colours]
Combo1 : 217,55,192
Combo2 : 117,117,223
Combo3 : 39,130,173
Combo4 : 39,173,130
Combo5 : 117,223,117
SliderBorder : 128,160,192
SliderTrackOverride : 64,80,96

[HitObjects]
100,124,281,6,0,L|204:116,1,100,8|0,0:0|0:0,0:0:0:0:
159,208,612,1,8,0:0:0:0:
141,34,778,1,8,0:0:0:0:
159,208,944,2,0,L|170:314,1,100,8|0,0:0|0:0,0:0:0:0:
441,181,1275,6,0,P|441:113|416:82,1,100,8|0,0:0|0:0,0:0:0:0:
326,238,1607,1,8,0:0:0:0:
477,252,1773,1,8,0:0:0:0:
371,145,1938,2,0,P|323:133|276:148,1,100,8|0,0:0|0:0,0:0:0:0:
177,265,2270,5,4,0:3:0:0:
34,227,2436,1,0,0:0:0:0:
124,305,2601,5,4,0:3:0:0:
48,158,2767,1,0,0:0:0:0:
76,352,2933,5,4,0:3:0:0:
105,130,3099,1,0,0:0:0:0:
255,355,3265,6,0,P|304:358|356:322,1,100,8|0,0:3|0:0,0:0:0:0:
342,157,3596,5,4,0:3:0:0:
310,167,3707,1,0,0:0:0:0:
277,165,3817,1,0,0:0:0:0:
246,152,3928,1,4,0:3:0:0:
295,70,4093,1,4,0:3:0:0:
266,247,4259,6,0,L|154:252,1,100,8|0,0:0|0:0,0:0:0:0:
58,259,4591,1,8,0:0:0:0:
208,156,4757,1,8,0:0:0:0:
221,336,4922,2,0,L|110:343,1,100,8|0,0:0|0:0,0:0:0:0:
12,134,5254,6,0,P|26:90|86:60,1,100,8|0,0:0|0:0,0:0:0:0:
224,74,5586,1,8,0:0:0:0:
87,135,5751,1,8,0:0:0:0:
250,155,5917,2,0,P|291:129|307:82,1,100,8|0,0:0|0:0,0:0:0:0:
138,200,6249,6,0,L|147:309,1,100,4|0,0:3|0:0,0:0:0:0:
326,280,6580,2,0,L|243:336,1,100,4|0,0:3|0:0,0:0:0:0:
219,141,6912,2,0,L|309:183,1,100,4|0,0:3|0:0,0:0:0:0:
62,356,7243,6,0,L|51:156,1,200,8|0,0:3|0:0,0:0:0:0:
128,63,7741,1,0,0:0:0:0:
219,141,7906,2,0,P|267:152|316:143,1,100,0|0,0:0|0:0,0:0:0:0:
412,63,8238,5,2,0:0:0:0:
361,275,8570,1,2,0:0:0:0:
361,275,8735,2,0,L|261:266,1,100,2|0,0:0|0:0,0:0:0:0:
162,257,9067,1,2,0:0:0:0:
332,369,9233,6,0,L|387:177,1,200,2|0,0:0|0:0,0:0:0:0:
420,61,9730,1,2,0:0:0:0:
312,116,9896,2,0,P|264:126|215:115,1,100,2|0,0:0|0:0,0:0:0:0:
106,66,10227,5,2,0:0:0:0:
14,288,10559,1,2,0:0:0:0:
14,288,10725,2,0,P|77:275|131:298,1,100,2|0,0:0|0:0,0:0:0:0:
212,347,11056,1,2,0:0:0:0:
14,288,11222,6,0,P|6:199|90:111,1,200,2|0,0:0|0:0,0:0:0:0:
252,131,11719,1,2,0:0:0:0:
252,130,11885,2,0,P|203:139|156:124,1,100,2|0,0:0|0:0,0:0:0:0:
277,26,12217,6,0,L|485:47,1,200,2|0,0:0|0:0,0:0:0:0:
497,164,12714,1,2,0:0:0:0:
377,153,12880,2,0,L|277:143,1,100,2|0,0:0|0:0,0:0:0:0:
147,240,13212,6,0,P|243:231|315:297,2,200,2|0|0,0:0|0:0|0:0,0:0:0:0:
58,97,14206,5,4,0:3:0:0:
140,81,14372,1,0,0:0:0:0:
111,160,14538,1,0,0:0:0:0:
67,100,14704,5,4,0:3:0:0:
132,87,14870,1,0,0:0:0:0:
109,150,15036,1,0,0:0:0:0:
296,71,15201,5,8,0:3:0:0:
214,55,15367,1,0,0:0:0:0:
243,134,15533,1,0,0:0:0:0:
287,74,15699,5,8,0:3:0:0:
221,61,15865,1,0,0:0:0:0:
244,124,16031,1,0,0:0:0:0:
423,30,16196,6,0,L|436:135,1,100,2|0,0:0|0:0,0:0:0:0:
461,334,16527,1,2,0:0:0:0:
461,334,16693,2,0,L|448:229,1,100,2|0,0:0|0:0,0:0:0:0:
358,190,17025,1,2,0:0:0:0:
241,309,17190,6,0,P|150:317|84:236,2,200,2|0|0,0:0|0:0|0:0,0:0:0:0:
273,46,18185,6,0,P|212:38|166:58,1,100,2|0,0:0|0:0,0:0:0:0:
34,128,18517,1,2,0:0:0:0:
34,128,18682,2,0,P|95:136|141:116,1,100,2|0,0:0|0:0,0:0:0:0:
77,31,19014,1,2,0:0:0:0:
1,205,19180,6,0,P|99:218|192:185,1,200,2|0,0:0|0:0,0:0:0:0:
359,261,19677,1,2,0:0:0:0:
358,260,19843,2,0,P|312:243|262:242,1,100,2|0,0:0|0:0,0:0:0:0:
411,348,20174,6,0,P|456:279|409:171,1,200,2|0,0:0|0:0,0:0:0:0:
300,143,20672,1,2,0:0:0:0:
300,143,20838,2,0,L|186:155,1,100,2|0,0:0|0:0,0:0:0:0:
256,33,21169,6,0,L|466:56,1,200,2|0,0:0|0:0,0:0:0:0:
509,161,21666,1,2,0:0:0:0:
389,151,21832,1,2,0:0:0:0:
93,17,22164,5,4,0:3:0:0:
15,169,22330,2,0,L|30:375,1,200,4|0,0:0|0:0,0:0:0:0:
101,121,22827,2,0,L|112:271,1,150,4|0,0:0|0:0,0:0:0:0:
118,335,23158,5,4,0:0:0:0:
236,349,23324,1,0,0:0:0:0:
354,368,23490,2,0,P|399:325|342:362,1,200,0|0,0:0|0:0,0:0:0:0:
426,133,24153,5,8,0:0:0:0:
307,111,24319,1,8,0:0:0:0:
423,69,24485,5,8,0:0:0:0:
325,183,24651,1,8,0:0:0:0:
370,33,24816,5,8,0:0:0:0:
387,227,24982,1,8,0:0:0:0:
256,32,25148,5,8,0:0:0:0:
64,194,25811,5,8,0:0:0:0:
176,152,25977,1,8,0:0:0:0:
85,294,26143,5,8,0:0:0:0:
427,294,26640,5,8,0:0:0:0:
336,152,26806,1,8,0:0:0:0:
256,348,27137,5,8,0:0:0:0:
256,127,27469,1,8,0:0:0:0:
256,160,27579,1,8,0:0:0:0:
256,193,27690,1,8,0:0:0:0:
256,227,27800,1,8,0:0:0:0:
256,348,27966,1,8,0:0:0:0:
10,122,28132,5,8,0:0:0:0:
79,53,28297,1,8,0:0:0:0:
177,47,28463,1,8,0:0:0:0:
255,107,28629,1,8,0:0:0:0:
334,164,28795,1,8,0:0:0:0:
432,158,28960,1,8,0:0:0:0:
500,88,29126,1,8,0:0:0:0:
200,292,29790,5,8,0:0:0:0:
256,163,29956,1,8,0:0:0:0:
256,347,30121,5,8,0:0:0:0:
256,37,30619,5,8,0:0:0:0:
176,126,30784,1,8,0:0:0:0:
336,126,30950,1,8,0:0:0:0:
256,216,31116,1,8,0:0:0:0:
71,61,31448,1,8,0:0:0:0:
53,89,31558,1,8,0:0:0:0:
47,122,31669,1,8,0:0:0:0:
52,154,31779,1,8,0:0:0:0:
115,257,31945,1,8,0:0:0:0:
254,117,32111,5,4,0:3:0:0:
372,138,32277,1,0,0:0:0:0:
263,161,32442,5,4,0:3:0:0:
362,93,32608,1,0,0:0:0:0:
302,186,32774,5,4,0:3:0:0:
323,68,32940,1,0,0:0:0:0:
331,329,33105,5,8,0:3:0:0:
352,211,33271,1,0,0:0:0:0:
375,319,33436,5,4,0:3:0:0:
307,220,33602,1,0,0:0:0:0:
400,280,33768,5,4,0:3:0:0:
282,259,33934,1,0,0:0:0:0:
106,340,34100,5,4,0:3:0:0:
85,222,34266,1,0,0:0:0:0:
62,331,34431,5,4,0:3:0:0:
130,232,34597,1,0,0:0:0:0:
37,292,34763,5,4,0:3:0:0:
155,271,34929,1,0,0:0:0:0:
232,110,35095,5,8,0:3:0:0:
114,131,35261,1,0,0:0:0:0:
222,154,35426,5,4,0:3:0:0:
123,86,35592,1,0,0:0:0:0:
183,179,35758,5,4,0:3:0:0:
162,61,35924,1,0,0:0:0:0:
371,91,36090,5,4,0:3:0:0:
251,81,36255,1,0,0:0:0:0:
300,190,36421,1,4,0:3:0:0:
371,91,36587,5,4,0:3:0:0:
251,81,36752,1,0,0:0:0:0:
300,190,36918,1,4,0:3:0:0:
114,164,37084,5,8,0:3:0:0:
234,154,37249,1,0,0:0:0:0:
185,263,37415,1,4,0:3:0:0:
114,164,37581,5,4,0:3:0:0:
234,154,37746,1,0,0:3:0:0:
185,263,37912,1,4,0:3:0:0:
267,47,38079,5,8,0:0:0:0:
369,102,38244,1,0,0:0:0:0:
397,215,38410,1,8,0:0:0:0:
331,311,38576,1,0,0:0:0:0:
216,327,38742,1,8,0:0:0:0:
127,251,38907,1,0,0:0:0:0:
140,133,39074,5,8,0:0:0:0:
258,107,39240,1,8,0:0:0:0:
317,210,39406,1,8,0:0:0:0:
237,301,39572,1,8,0:0:0:0:
127,251,39738,1,8,0:0:0:0:
375,26,40068,5,2,0:0:0:0:
368,145,40400,1,2,0:0:0:0:
362,265,40731,1,2,0:0:0:0:
137,26,41063,5,2,0:0:0:0:
147,183,41395,1,2,0:0:0:0:
155,341,41726,1,2,0:0:0:0:
256,53,42058,5,2,0:0:0:0:
