osu file format v14

[General]
AudioFilename: audio.mp3
AudioLeadIn: 0
PreviewTime: 115
Countdown: 0
SampleSet: Soft
StackLeniency: 0.5
Mode: 0
LetterboxInBreaks: 0
EpilepsyWarning: 1
WidescreenStoryboard: 1

[Editor]
DistanceSpacing: 0.9
BeatDivisor: 4
GridSize: 32
TimelineZoom: 1.2

[Metadata]
Title:Granat
TitleUnicode:Granat
Artist:Drop
ArtistUnicode:Drop
Creator:diraimur
Version:Antares' Light Insane
Source:
Tags:Mkguh Akali Kyshiro Rohit6 Antares- Arphimigon Starrodkirby86 seifuu meigetsu ryuu to honoo no monogatari dragon and flame 竜と炎の物語清風明月
BeatmapID:1071565
BeatmapSetID:501992

[Difficulty]
HPDrainRate:5
CircleSize:3
OverallDifficulty:7.7
ApproachRate:8.7
SliderMultiplier:2.2
SliderTickRate:1

[Events]
//Background and Video events
0,0,"bg.jpg",0,0
//Break Periods
//Storyboard Layer 0 (Background)
//Storyboard Layer 1 (Fail)
//Storyboard Layer 2 (Pass)
//Storyboard Layer 3 (Foreground)
//Storyboard Sound Samples

[TimingPoints]
281,331.5649867374,3,2,1,60,1,0
22661,-66.6666666666667,3,2,1,60,0,0
22827,-100,3,2,1,60,0,0
23158,-50,3,2,1,60,0,0
23490,-66.6666666666667,3,2,1,60,0,0
23822,-100,3,2,1,60,0,0
24153,-100,3,2,1,45,0,0
38079,-80,3,2,1,45,0,0
38742,-100,3,2,1,45,0,0
39405,-133.333333333333,3,2,1,45,0,0

[Colours]
Combo1 : 217,55,192
Combo2 : 117,117,223
Combo3 : 39,130,173
Combo4 : 39,173,130
Combo5 : 117,223,117
SliderBorder : 128,160,192
SliderTrackOverride : 64,80,96

[HitObjects]
101,167,281,6,0,P|164:81|275:97,1,220,6|0,0:0|0:0,0:0:0:0:
365,224,778,1,2,0:0:0:0:
206,178,944,1,8,0:0:0:0:
470,213,1275,6,0,P|407:127|296:143,1,220,2|0,0:0|0:0,0:0:0:0:
206,270,1773,1,2,0:0:0:0:
365,224,1938,1,8,0:0:0:0:
365,224,2270,6,0,L|350:115,1,110,2|0,0:0|0:0,0:0:0:0:
268,41,2601,2,0,L|181:108,1,110,10|0,0:0|0:0,0:0:0:0:
158,217,2933,2,0,L|259:258,1,110,10|0,0:0|0:0,0:0:0:0:
344,334,3265,5,8,0:0:0:0:
403,149,3596,2,0,L|427:80,2,73.3333333333333,2|2|2,0:0|0:0|0:0,0:0:0:0:
489,172,3928,2,0,L|446:309,1,110,2|0,0:0|0:0,0:0:0:0:
341,84,4259,6,0,P|250:32|157:83,1,220,6|0,0:0|0:0,0:0:0:0:
70,243,4757,1,2,0:0:0:0:
249,140,4922,1,8,0:0:0:0:
157,83,5254,6,0,P|250:32|341:84,1,220,2|0,0:0|0:0,0:0:0:0:
428,243,5752,1,2,0:0:0:0:
249,140,5917,1,8,0:0:0:0:
249,140,6249,6,0,L|128:163,1,110,2|0,0:0|0:0,0:0:0:0:
57,203,6580,2,0,L|178:226,1,110,10|0,0:0|0:0,0:0:0:0:
263,260,6912,2,0,L|154:280,1,110,10|0,0:0|0:0,0:0:0:0:
49,359,7243,6,0,L|282:359,1,220,2|0,0:0|0:0,0:0:0:0:
357,313,7741,1,2,0:0:0:0:
283,248,7906,2,0,P|252:194|263:131,1,110,8|0,0:0|0:0,0:0:0:0:
279,38,8238,5,6,0:0:0:0:
279,38,8570,2,0,L|381:79,1,110,10|0,0:0|0:0,0:0:0:0:
303,139,8901,2,0,L|201:98,1,110,10|0,0:0|0:0,0:0:0:0:
394,177,9233,5,2,0:0:0:0:
394,177,9564,1,10,0:0:0:0:
317,239,9730,1,0,0:0:0:0:
225,202,9896,1,10,0:0:0:0:
132,169,10062,1,0,0:0:0:0:
49,223,10227,6,0,P|37:148|149:70,1,220,2|10,0:0|0:0,0:0:0:0:
132,169,10725,1,0,0:0:0:0:
225,202,10891,1,10,0:0:0:0:
150,268,11056,1,0,0:0:0:0:
208,104,11222,6,0,P|303:142|306:258,1,220,2|0,0:0|0:0,0:0:0:0:
225,202,11719,1,2,0:0:0:0:
308,149,11885,2,0,P|360:129|418:143,1,110,8|0,0:0|0:0,0:0:0:0:
503,188,12217,5,2,0:0:0:0:
503,188,12548,2,0,L|471:300,1,110,10|0,0:0|0:0,0:0:0:0:
412,139,12880,2,0,L|442:33,1,110,10|0,0:0|0:0,0:0:0:0:
381,246,13212,5,2,0:0:0:0:
381,246,13543,1,10,0:0:0:0:
325,338,13709,1,0,0:0:0:0:
222,299,13875,2,0,P|157:280|98:308,1,110,10|0,0:0|0:0,0:0:0:0:
30,358,14206,5,14,0:0:0:0:
17,248,14372,1,2,0:0:0:0:
118,292,14538,1,10,0:0:0:0:
56,299,14704,1,0,0:0:0:0:
181,218,14869,2,0,P|231:203|286:216,1,110,10|0,0:0|0:0,0:0:0:0:
437,356,15201,5,14,0:0:0:0:
450,246,15367,1,2,0:0:0:0:
349,290,15533,1,10,0:0:0:0:
411,297,15699,1,0,0:0:0:0:
286,216,15864,2,0,P|231:203|181:218,1,110,10|0,0:0|0:0,0:0:0:0:
71,343,16196,6,0,L|27:105,1,220,6|0,0:0|0:0,0:0:0:0:
76,37,16693,1,2,0:0:0:0:
179,75,16859,2,0,P|242:90|288:67,1,110,8|0,0:0|0:0,0:0:0:0:
377,16,17190,6,0,L|455:244,1,220,2|0,0:0|0:0,0:0:0:0:
416,320,17688,1,2,0:0:0:0:
319,269,17853,2,0,P|260:254|216:271,1,110,8|0,0:0|0:0,0:0:0:0:
132,345,18185,6,0,P|105:254|189:163,1,220,6|0,0:0|0:0,0:0:0:0:
216,271,18682,1,2,0:0:0:0:
141,189,18848,2,0,P|113:127|136:70,1,110,8|0,0:0|0:0,0:0:0:0:
251,164,19180,6,0,P|327:244|280:363,1,220,2|0,0:0|0:0,0:0:0:0:
216,271,19677,1,2,0:0:0:0:
329,249,19843,2,0,L|442:249,1,110,8|0,0:0|0:0,0:0:0:0:
216,271,20174,5,6,0:0:0:0:
216,271,20506,1,10,0:0:0:0:
241,94,20672,1,0,0:0:0:0:
329,249,20838,1,10,0:0:0:0:
165,173,21004,1,0,0:0:0:0:
339,139,21169,5,6,0:0:0:0:
339,139,21501,1,10,0:0:0:0:
165,173,21666,1,0,0:0:0:0:
329,249,21832,1,10,0:0:0:0:
241,94,21998,1,0,0:0:0:0:
216,271,22164,6,0,L|207:380,1,110,14|0,0:0|0:0,0:0:0:0:
454,290,22661,6,0,L|469:120,1,165.000006294251,10|0,0:0|0:0,0:0:0:0:
140,64,23158,6,0,L|120:283,1,220,10|0,0:0|0:0,0:0:0:0:
216,271,23490,2,0,L|231:104,1,165.000006294251,10|0,0:0|0:0,0:0:0:0:
322,141,23822,2,0,L|313:251,1,110,10|0,0:0|0:0,0:0:0:0:
426,79,24153,6,0,P|440:127|411:191,1,110,6|0,0:0|0:0,0:0:0:0:
307,354,24485,2,0,P|294:304|313:251,1,110,10|0,0:0|0:0,0:0:0:0:
212,66,24816,2,0,P|226:119|207:169,1,110,10|0,0:0|0:0,0:0:0:0:
128,287,25148,5,10,0:0:0:0:
128,287,25811,1,10,0:0:0:0:
234,194,25977,1,0,0:0:0:0:
128,287,26143,6,0,P|63:303|8:277,2,110,10|0|2,0:0|0:0|0:0,0:0:0:0:
234,194,26640,1,2,0:0:0:0:
339,288,26806,1,8,0:0:0:0:
339,288,27137,5,10,0:0:0:0:
327,110,27469,2,0,L|325:37,2,73.3333333333333,2|2|2,0:0|0:0|0:0,0:0:0:0:
241,68,27800,2,0,P|183:48|119:81,1,110,2|0,0:0|0:0,0:0:0:0:
48,160,28132,5,10,0:0:0:0:
121,77,28298,1,0,0:0:0:0:
156,181,28464,2,0,L|189:287,1,110,10|0,0:0|0:0,0:0:0:0:
253,376,28795,1,10,0:0:0:0:
299,275,28961,1,0,0:0:0:0:
361,365,29127,5,10,0:0:0:0:
361,365,29790,1,10,0:0:0:0:
425,230,29956,1,0,0:0:0:0:
181,275,30121,5,10,0:0:0:0:
181,275,30619,5,2,0:0:0:0:
240,186,30784,2,0,P|257:133|230:77,1,110,10|0,0:0|0:0,0:0:0:0:
167,0,31116,5,10,0:0:0:0:
375,99,31448,2,0,L|442:131,2,73.3333333333333,2|2|2,0:0|0:0|0:0,0:0:0:0:
385,206,31779,2,0,L|262:148,1,110,2|0,0:0|0:0,0:0:0:0:
97,222,32111,5,14,0:0:0:0:
169,152,32277,1,0,0:0:0:0:
192,250,32442,1,10,0:0:0:0:
152,208,32608,1,0,0:0:0:0:
285,159,32774,2,0,P|351:143|397:180,1,110,10|0,0:0|0:0,0:0:0:0:
379,288,33105,5,14,0:0:0:0:
285,232,33271,1,0,0:0:0:0:
281,348,33437,1,10,0:0:0:0:
314,291,33603,1,0,0:0:0:0:
166,240,33769,2,0,P|108:223|36:268,1,110,10|0,0:0|0:0,0:0:0:0:
375,59,34100,6,0,L|255:103,1,110,14|0,0:0|0:0,0:0:0:0:
195,161,34432,1,10,0:0:0:0:
288,193,34597,1,0,0:0:0:0:
261,91,34763,2,0,P|199:66|125:97,1,110,10|0,0:0|0:0,0:0:0:0:
61,187,35095,6,0,L|163:249,1,110,14|0,0:0|0:0,0:0:0:0:
257,285,35426,1,10,0:0:0:0:
241,174,35592,1,0,0:0:0:0:
181,332,35758,2,0,P|231:370|299:364,1,110,10|0,0:0|0:0,0:0:0:0:
399,306,36090,5,14,0:0:0:0:
488,156,36255,1,0,0:0:0:0:
470,247,36421,1,10,0:0:0:0:
443,75,36587,1,0,0:0:0:0:
312,176,36753,2,0,P|258:198|200:172,1,110,10|0,0:0|0:0,0:0:0:0:
75,75,37084,5,14,0:0:0:0:
57,251,37250,1,0,0:0:0:0:
44,161,37416,1,10,0:0:0:0:
112,326,37582,1,0,0:0:0:0:
228,237,37747,2,0,P|279:213|352:223,1,110,10|0,0:0|0:0,0:0:0:0:
474,298,38079,6,0,L|310:325,1,137.5,14|0,0:0|0:0,0:0:0:0:
190,140,38410,2,0,L|354:113,1,137.5,10|0,0:0|0:0,0:0:0:0:
384,290,38742,6,0,L|259:310,1,110,10|0,0:0|0:0,0:0:0:0:
280,148,39073,2,0,L|405:128,1,110,10|0,0:0|0:0,0:0:0:0:
296,279,39405,6,0,L|208:292,1,82.5000031471254,10|0,0:0|0:0,0:0:0:0:
368,159,39736,2,0,L|456:146,1,82.5000031471254,10|0,0:0|0:0,0:0:0:0:
347,368,40068,5,10,0:0:0:0:
296,279,40400,1,0,0:0:0:0:
327,184,40731,1,2,0:0:0:0:
207,31,41063,5,2,0:0:0:0:
254,113,41395,1,0,0:0:0:0:
212,201,41726,1,2,0:0:0:0:
384,263,42058,5,6,0:0:0:0:
