osu file format v14

[General]
AudioFilename: audio.mp3
AudioLeadIn: 0
PreviewTime: 115
Countdown: 0
SampleSet: Soft
StackLeniency: 0.3
Mode: 0
LetterboxInBreaks: 0
EpilepsyWarning: 1
WidescreenStoryboard: 1

[Editor]
Bookmarks: 8238,16196,24153,32111,40068
DistanceSpacing: 1
BeatDivisor: 4
GridSize: 8
TimelineZoom: 1.5

[Metadata]
Title:Granat
TitleUnicode:Granat
Artist:Drop
ArtistUnicode:Drop
Creator:diraimur
Version:Expert
Source:
Tags:Mkguh Akali Kyshiro Rohit6 Antares- Arphimigon Starrodkirby86 seifuu meigetsu ryuu to honoo no monogatari dragon and flame 竜と炎の物語清風明月
BeatmapID:1068383
BeatmapSetID:501992

[Difficulty]
HPDrainRate:5.5
CircleSize:4
OverallDifficulty:8.5
ApproachRate:9
SliderMultiplier:1.92
SliderTickRate:1

[Events]
//Background and Video events
0,0,"bg.jpg",0,0
//Break Periods
//Storyboard Layer 0 (Background)
//Storyboard Layer 1 (Fail)
//Storyboard Layer 2 (Pass)
//Storyboard Layer 3 (Foreground)
//Storyboard Sound Samples

[TimingPoints]
281,331.5649867374,3,2,0,60,1,0

[Colours]
Combo1 : 217,55,192
Combo2 : 117,117,223
Combo3 : 39,130,173
Combo4 : 39,173,130
Combo5 : 117,223,117
SliderBorder : 128,160,192
SliderTrackOverride : 64,80,96

[HitObjects]
260,179,281,5,4,1:2:0:0:
279,184,612,1,0,0:0:0:0:
137,159,778,1,0,0:0:0:0:
298,189,944,2,0,L|392:205,1,96
240,48,1275,5,8,0:0:0:0:
221,51,1607,1,0,0:0:0:0:
363,25,1773,1,0,3:0:0:0:
202,54,1938,2,0,L|107:70,1,96,0|0,0:0|3:0,0:0:0:0:
8,246,2270,6,0,P|70:251|114:235,1,96,2|0,1:2|0:0,0:0:0:0:
221,142,2601,2,0,P|185:194|177:239,1,96,2|2,0:0|0:0,0:0:0:0:
205,379,2933,2,0,P|178:322|142:292,1,96,2|0,0:0|0:0,0:0:0:0:
325,259,3265,5,8,0:0:0:0:
340,248,3596,2,0,P|354:215|354:170,2,64,2|2|0,0:0|0:0|3:0,0:0:0:0:
253,285,3928,2,0,P|252:213|273:180,1,96,2|0,0:0|3:0,0:0:0:0:
369,44,4259,5,0,1:0:0:0:
350,39,4592,1,0,0:0:0:0:
492,64,4758,1,0,0:0:0:0:
328,34,4922,2,0,L|234:18,1,96,0|0,0:0|0:0,0:0:0:0:
125,197,5254,5,8,0:0:0:0:
106,202,5586,1,0,0:0:0:0:
248,177,5752,1,0,3:0:0:0:
87,207,5917,2,0,L|-7:223,1,96,0|0,0:0|3:0,0:0:0:0:
106,82,6249,6,0,P|166:101|200:138,1,96,2|0,1:2|0:0,0:0:0:0:
178,291,6580,2,0,P|164:229|179:181,1,96
325,125,6912,2,0,P|280:167|248:177,1,96,2|0,0:0|0:0,0:0:0:0:
348,12,7243,6,0,P|397:37|432:168,1,192,10|0,0:0|0:0,0:0:0:0:
338,228,7741,1,0,3:0:0:0:
248,177,7906,2,0,P|294:135|325:125,1,96,2|0,0:0|3:0,0:0:0:0:
472,232,8238,5,4,1:2:0:0:
480,250,8570,1,0,0:0:0:0:
338,228,8735,1,0,0:0:0:0:
466,161,8901,1,0,0:0:0:0:
401,290,9067,1,0,0:0:0:0:
378,148,9233,5,8,0:0:0:0:
396,156,9564,2,0,P|366:209|338:228,1,96,0|0,0:0|3:0,0:0:0:0:
231,203,9896,2,0,P|261:150|289:131,1,96,0|0,0:0|3:0,0:0:0:0:
424,278,10228,5,0,1:0:0:0:
418,297,10559,1,0,0:0:0:0:
269,304,10725,1,0,0:0:0:0:
386,211,10891,1,0,0:0:0:0:
346,354,11056,1,0,0:0:0:0:
294,214,11222,6,0,P|313:154|431:130,1,192,10|0,0:0|0:0,0:0:0:0:
492,241,11719,1,0,3:2:0:0:
399,303,11885,2,0,P|382:256|386:211,1,96,2|0,0:0|3:0,0:0:0:0:
458,33,12217,5,2,1:2:0:0:
475,40,12548,1,0,0:0:0:0:
494,159,12714,1,0,0:0:0:0:
386,211,12880,1,0,0:0:0:0:
301,126,13046,1,0,0:0:0:0:
357,20,13212,5,8,0:0:0:0:
372,31,13543,2,0,P|408:78|417:113,1,96,0|0,0:0|3:0,0:0:0:0:
346,208,13876,2,0,P|310:161|301:126,1,96,0|0,0:0|3:0,0:0:0:0:
512,224,14206,5,2,1:2:0:0:
312,320,14372,1,2,0:0:0:0:
500,342,14538,1,0,0:0:0:0:
402,132,14704,1,2,0:0:0:0:
334,340,14870,1,0,0:0:0:0:
488,244,15035,1,2,0:0:0:0:
242,232,15201,5,10,0:0:0:0:
406,104,15367,1,2,0:0:0:0:
357,272,15532,1,0,0:0:0:0:
228,90,15698,1,2,3:2:0:0:
424,132,15864,1,0,0:0:0:0:
272,216,16030,1,2,3:2:0:0:
96,32,16196,5,6,1:2:0:0:
88,50,16528,1,0,0:0:0:0:
100,202,16693,1,0,0:0:0:0:
239,116,16859,1,0,0:0:0:0:
96,220,17025,1,0,0:0:0:0:
192,20,17190,5,8,0:0:0:0:
206,6,17522,2,0,P|258:3|317:31,1,96,0|0,0:0|3:0,0:0:0:0:
332,128,17853,2,0,P|280:131|221:103,1,96,0|0,0:0|3:0,0:0:0:0:
488,49,18185,6,0,P|503:102|502:161,1,96,6|0,1:2|0:0,0:0:0:0:
413,187,18517,1,0,0:0:0:0:
332,128,18682,1,0,0:0:0:0:
504,143,18848,1,0,0:0:0:0:
403,287,19014,1,0,0:0:0:0:
424,64,19180,6,0,P|350:16|256:44,1,192,10|0,0:0|0:0,0:0:0:0:
208,224,19677,1,0,3:0:0:0:
364,216,19843,2,0,P|356:168|332:128,1,96,2|0,0:0|3:0,0:0:0:0:
98,205,20174,5,4,1:2:0:0:
208,224,20340,1,0,0:0:0:0:
136,309,20506,1,0,0:0:0:0:
166,134,20672,1,0,0:0:0:0:
234,320,20838,1,0,0:0:0:0:
40,286,21003,1,0,0:0:0:0:
256,160,21169,6,0,P|235:70|145:42,1,192,8|0,0:0|0:0,0:0:0:0:
2,104,21666,1,2,3:2:0:0:
166,134,21832,1,0,0:0:0:0:
0,12,21998,1,2,3:2:0:0:
136,248,22164,6,0,P|193:247|243:224,1,96,6|8,1:2|0:0,0:0:0:0:
244,220,22661,2,0,P|302:215|347:234,1,96,4|8,0:0|0:0,0:0:0:0:
352,240,23158,5,8,0:0:0:0:
512,192,23324,1,8,0:0:0:0:
470,86,23491,2,0,P|437:106|402:160,1,96,0|0,0:0|0:0,0:0:0:0:
368,332,23823,2,0,P|368:279|352:240,1,96,0|0,0:0|0:0,0:0:0:0:
192,144,24153,5,2,3:2:0:0:
256,288,24319,1,0,0:0:0:0:
320,144,24485,1,0,0:0:0:0:
160,240,24651,1,2,0:0:0:0:
352,240,24816,1,2,0:0:0:0:
256,56,24982,1,2,0:0:0:0:
256,288,25148,6,0,P|217:330|182:345,1,96,2|0,3:2|0:0,0:0:0:0:
86,297,25479,2,0,P|125:255|160:240,1,96,0|0,0:0|0:0,0:0:0:0:
110,370,25811,1,2,0:0:0:0:
48,216,25977,1,0,0:0:0:0:
256,288,26143,6,0,P|292:261|311:213,1,96,2|0,3:2|0:0,0:0:0:0:
225,200,26474,1,0,0:0:0:0:
344,320,26640,1,0,0:0:0:0:
288,126,26806,2,0,P|237:104|175:115,1,96,2|0,0:0|0:0,0:0:0:0:
48,260,27137,5,2,3:2:0:0:
43,278,27469,2,0,P|51:317|74:349,2,64,2|2|0,0:0|0:0|0:0,0:0:0:0:
93,198,27800,2,0,P|132:249|136:295,1,96,2|0,0:0|0:0,0:0:0:0:
256,144,28132,5,2,3:2:0:0:
328,40,28298,1,0,0:0:0:0:
184,40,28464,1,0,0:0:0:0:
384,104,28629,1,2,0:0:0:0:
128,104,28795,1,2,0:0:0:0:
412,24,28961,1,2,0:0:0:0:
100,24,29127,5,2,3:2:0:0:
84,16,29790,1,2,0:0:0:0:
42,212,29956,1,0,0:0:0:0:
236,72,30121,6,0,B|197:52|152:70|152:70|115:114|54:100,1,192,2|0,3:2|0:0,0:0:0:0:
193,158,30619,1,0,0:0:0:0:
84,16,30784,1,2,0:0:0:0:
140,228,30950,1,0,0:0:0:0:
299,25,31116,5,2,3:2:0:0:
317,33,31448,2,0,P|340:65|349:107,2,64,2|2|0,0:0|0:0|0:0,0:0:0:0:
225,17,31779,2,0,P|227:55|256:104,1,96,2|0,0:0|0:0,0:0:0:0:
368,272,32111,5,2,3:2:0:0:
144,272,32277,1,2,0:0:0:0:
256,104,32442,1,0,0:0:0:0:
256,320,32608,1,0,0:0:0:0:
168,144,32774,1,2,0:0:0:0:
344,144,32940,1,0,0:0:0:0:
104,80,33105,5,2,3:2:0:0:
216,232,33271,1,0,0:0:0:0:
332,48,33437,1,2,0:0:0:0:
180,48,33603,1,0,0:0:0:0:
296,232,33769,1,0,0:0:0:0:
408,80,33934,1,0,0:0:0:0:
256,320,34100,5,2,3:2:0:0:
256,88,34266,1,2,0:0:0:0:
344,304,34432,1,0,0:0:0:0:
128,192,34597,1,0,0:0:0:0:
384,192,34763,1,2,0:0:0:0:
168,304,34929,1,0,0:0:0:0:
448,296,35095,5,2,3:2:0:0:
336,120,35261,1,0,0:0:0:0:
344,304,35426,1,2,0:0:0:0:
488,144,35592,1,0,0:0:0:0:
256,88,35758,1,0,0:0:0:0:
384,192,35924,1,0,0:0:0:0:
128,192,36090,5,2,3:2:0:0:
256,88,36255,1,2,0:0:0:0:
168,304,36421,1,0,0:0:0:0:
24,144,36587,1,0,0:0:0:0:
176,120,36753,1,2,0:0:0:0:
64,296,36918,1,0,0:0:0:0:
344,304,37084,5,2,3:2:0:0:
256,88,37250,1,0,0:0:0:0:
168,304,37416,1,2,0:0:0:0:
356,202,37582,1,0,0:0:0:0:
156,202,37747,1,0,0:0:0:0:
256,376,37913,1,0,0:0:0:0:
134,94,38079,5,2,3:2:0:0:
378,94,38245,1,2,0:0:0:0:
256,304,38410,1,0,0:0:0:0:
256,20,38576,1,2,0:0:0:0:
368,214,38742,1,2,0:0:0:0:
144,214,38908,1,0,0:0:0:0:
352,376,39074,5,2,0:0:0:0:
256,192,39239,1,2,0:0:0:0:
160,376,39405,1,2,0:0:0:0:
336,288,39571,1,0,0:0:0:0:
176,288,39737,1,2,0:0:0:0:
496,304,40068,5,2,0:0:0:0:
256,336,40399,1,0,0:0:0:0:
392,136,40731,1,2,0:0:0:0:
120,136,41064,5,2,0:0:0:0:
256,336,41395,1,0,0:0:0:0:
16,304,41726,1,2,0:0:0:0:
256,64,42059,5,2,0:0:0:0:
