osu file format v14

[General]
AudioFilename: audio.mp3
AudioLeadIn: 0
PreviewTime: 115
Countdown: 0
SampleSet: Soft
StackLeniency: 0.7
Mode: 0
LetterboxInBreaks: 0
EpilepsyWarning: 1
WidescreenStoryboard: 1

[Editor]
DistanceSpacing: 1
BeatDivisor: 2
GridSize: 8
TimelineZoom: 2

[Metadata]
Title:Granat
TitleUnicode:Granat
Artist:Drop
ArtistUnicode:Drop
Creator:diraimur
Version:Advanced
Source:
Tags:Mkguh Akali Kyshiro Rohit6 Antares- Arphimigon Starrodkirby86 seifuu meigetsu ryuu to honoo no monogatari dragon and flame 竜と炎の物語清風明月
BeatmapID:1072802
BeatmapSetID:501992

[Difficulty]
HPDrainRate:3.5
CircleSize:3.5
OverallDifficulty:5
ApproachRate:5.5
SliderMultiplier:1.28000000596046
SliderTickRate:1

[Events]
//Background and Video events
0,0,"bg.jpg",0,0
//Break Periods
//Storyboard Layer 0 (Background)
//Storyboard Layer 1 (Fail)
//Storyboard Layer 2 (Pass)
//Storyboard Layer 3 (Foreground)
//Storyboard Sound Samples

[TimingPoints]
281,331.5649867374,3,2,0,50,1,0

[Colours]
Combo1 : 217,55,192
Combo2 : 117,117,223
Combo3 : 39,130,173
Combo4 : 39,173,130
Combo5 : 117,223,117
SliderBorder : 128,160,192
SliderTrackOverride : 64,80,96

[HitObjects]
336,116,281,6,0,B|384:52|384:52|384:4,2,128.000000596046,4|0|0,1:0|0:0|0:0,0:0:0:0:
176,116,1275,2,0,B|128:52|128:52|128:4,2,128.000000596046,8|0|0,0:0|0:0|0:0,0:0:0:0:
256,256,2270,6,0,L|256:320,1,64.000000298023,2|0,1:2|0:0,0:0:0:0:
192,368,2601,2,0,B|160:344|160:344|136:344,1,64.000000298023,2|0,0:0|0:0,0:0:0:0:
56,344,2933,2,0,L|56:264,1,64.000000298023,2|0,0:0|0:0,0:0:0:0:
56,200,3265,1,8,0:0:0:0:
160,80,3596,2,0,L|160:208,1,128.000000596046,2|2,0:0|0:0,0:0:0:0:
224,256,4093,1,0,0:0:0:0:
288,208,4259,6,0,B|352:160|352:160|400:160,2,128.000000596046,0|0|0,1:0|0:0|0:0,0:0:0:0:
160,304,5254,2,0,B|96:352|96:352|48:352,2,128.000000596046,8|0|0,0:0|0:0|0:0,0:0:0:0:
160,144,6249,5,2,1:2:0:0:
256,272,6580,1,2,0:0:0:0:
352,144,6912,1,2,0:0:0:0:
256,16,7243,2,0,B|144:16|144:16|80:64,1,192.000000894069,8|2,0:0|0:0,0:0:0:0:
32,128,7906,1,0,0:0:0:0:
136,248,8238,6,0,B|176:261|216:248|216:248|256:272|256:272|296:248|296:248|336:261|376:248,1,256.000001192092,4|0,1:0|0:0,0:0:0:0:
316,100,9233,2,0,B|282:97|256:80|256:80|230:97|196:100,2,128.000000596046,8|0|0,0:0|0:0|0:0,0:0:0:0:
460,32,10227,6,0,B|490:93|460:155|460:155|403:183|376:248,1,256.000001192092,0|0,1:0|0:0,0:0:0:0:
256,352,11222,2,0,B|240:288|272:288|256:224,2,128.000000596046,8|0|0,0:0|0:0|0:0,0:0:0:0:
136,248,12217,6,0,B|109:183|52:155|52:155|22:93|52:32,1,256.000001192092,0|0,1:0|0:0,0:0:0:0:
194,107,13212,2,0,P|246:120|318:107,2,128.000000596046,8|0|0,0:0|0:0|0:0,0:0:0:0:
256,256,14206,6,0,P|287:256|321:273,2,64.000000298023,2|0|0,1:2|0:0|0:0,0:0:0:0:
192,304,14704,2,0,P|192:336|174:369,2,64.000000298023,2|0|0,0:0|0:0|0:0,0:0:0:0:
144,240,15201,2,0,P|112:240|78:222,2,64.000000298023,10|0|0,0:0|0:0|0:0,0:0:0:0:
208,192,15698,2,0,P|208:159|225:126,2,64.000000298023,2|0|0,0:0|0:0|0:0,0:0:0:0:
256,256,16196,6,0,P|356:254|461:128,1,256.000001192092,4|0,1:0|0:0,0:0:0:0:
304,102,17190,2,0,B|317:57|352:31|352:31|415:28,2,128.000000596046,8|0|0,0:0|0:0|0:0,0:0:0:0:
256,256,18185,6,0,P|156:254|51:128,1,256.000001192092,4|0,1:0|0:0,0:0:0:0:
208,102,19180,2,0,B|195:57|160:31|160:31|97:28,2,128.000000596046,8|0|0,0:0|0:0|0:0,0:0:0:0:
256,256,20174,6,0,P|335:200|358:46,1,256.000001192092,4|0,1:0|0:0,0:0:0:0:
208,102,21169,1,8,0:0:0:0:
256,336,21666,6,0,P|217:326|188:300,2,64.000000298023,2|0|2,0:0|0:0|0:0,0:0:0:0:
336,336,22164,2,0,L|400:336,1,64.000000298023,4|8,1:0|0:0,0:0:0:0:
512,224,22661,2,0,L|512:160,1,64.000000298023,0|8,1:0|0:0,0:0:0:0:
400,48,23158,2,0,L|336:48,1,64.000000298023,8|8,0:0|0:0,0:0:0:0:
40,312,24153,6,0,L|104:312,1,64.000000298023,2|0,1:2|0:0,0:0:0:0:
152,248,24485,2,0,B|128:232|128:232|88:232,1,64.000000298023,2|2,0:0|0:0,0:0:0:0:
44,168,24816,2,0,B|68:152|68:152|108:152,1,64.000000298023,2|0,0:0|0:0,0:0:0:0:
184,152,25148,1,2,1:2:0:0:
408,380,25811,6,0,L|408:316,1,64.000000298023,2|0,0:0|0:0,0:0:0:0:
340,272,26143,2,0,B|268:328|268:328|164:328,1,192.000000894069,2|0,1:2|0:0,0:0:0:0:
87,328,26805,1,2,0:0:0:0:
2,192,27137,1,2,1:2:0:0:
124,89,27469,2,0,B|188:89|188:89|252:137,1,128.000000596046,2|2,0:0|0:0,0:0:0:0:
240,208,27966,1,0,0:0:0:0:
304,256,28132,6,0,L|368:256,1,64.000000298023,2|0,1:2|0:0,0:0:0:0:
368,176,28464,2,0,L|432:176,1,64.000000298023,2|2,0:0|0:0,0:0:0:0:
486,118,28795,2,0,B|462:98|462:98|422:98,1,64.000000298023,2|0,0:0|0:0,0:0:0:0:
349,98,29127,1,2,1:2:0:0:
32,112,29790,6,0,L|96:112,1,64.000000298023,2|0,0:0|0:0,0:0:0:0:
144,48,30121,2,0,B|188:80|188:144|144:176|144:176|144:224,1,192.000000894069,2|0,1:2|0:0,0:0:0:0:
78,264,30784,2,0,P|107:289|138:298,1,64.000000298023,2|0,0:0|0:0,0:0:0:0:
207,272,31116,1,2,1:2:0:0:
304,144,31448,2,0,B|368:96|368:96|416:96,1,128.000000596046,2|2,0:0|0:0,0:0:0:0:
472,152,31945,1,0,0:0:0:0:
424,216,32111,6,0,L|360:216,1,64.000000298023,2|0,1:2|0:0,0:0:0:0:
308,277,32442,2,0,P|285:244|283:200,1,64.000000298023,2|0,0:0|0:0,0:0:0:0:
304,144,32774,1,2,0:0:0:0:
144,144,33105,6,0,L|144:208,1,64.000000298023,2|0,1:2|0:0,0:0:0:0:
86,264,33437,2,0,B|65:237|65:237|65:197,1,64.000000298023,2|0,0:0|0:0,0:0:0:0:
65,127,33769,1,2,0:0:0:0:
202,44,34100,6,0,P|231:66|250:104,1,64.000000298023,2|0,1:2|0:0,0:0:0:0:
264,168,34432,2,0,P|296:192|344:192,1,64.000000298023,2|0,0:0|0:0,0:0:0:0:
398,180,34763,1,2,0:0:0:0:
390,340,35095,6,0,P|359:365|294:364,1,64.000000298023,2|0,1:2|0:0,0:0:0:0:
326,292,35426,2,0,P|357:267|422:268,1,64.000000298023,2|0,0:0|0:0,0:0:0:0:
454,292,35758,1,2,0:0:0:0:
512,143,36090,6,0,B|486:123|486:123|451:123,1,64.000000298023,2|0,1:2|0:0,0:0:0:0:
377,145,36421,2,0,P|382:88|408:59,1,64.000000298023,2|0,0:0|0:0,0:0:0:0:
455,44,36753,1,2,0:0:0:0:
294,44,37084,6,0,L|214:44,1,64.000000298023,2|0,1:2|0:0,0:0:0:0:
164,90,37416,2,0,P|184:110|243:122,1,64.000000298023,2|0,0:0|0:0,0:0:0:0:
297,124,37747,1,2,0:0:0:0:
440,200,38079,6,0,B|400:224|392:272|392:272|320:184|160:208|96:320|256:526|416:320|352:208|192:184|120:272|120:272|112:224|72:200,1,768.000003576276,2|2,1:2|0:2,0:0:0:0:
256,192,40234,12,2,42058,0:0:0:0:
