osu file format v14

[General]
AudioFilename: DropGranat.mp3
AudioLeadIn: 0
PreviewTime: 281
Countdown: 0
SampleSet: Soft
StackLeniency: 1
Mode: 2
LetterboxInBreaks: 0
WidescreenStoryboard: 0

[Editor]
Bookmarks: 281
DistanceSpacing: 1
BeatDivisor: 6
GridSize: 16
TimelineZoom: 2.4

[Metadata]
Title:Granat
TitleUnicode:Granat
Artist:Drop
ArtistUnicode:Drop
Creator:Zoe
Version:Rain
Source:
Tags:竜と炎の物語 清風明月 c85 seifuu meigetsu ryuu to honou no monogatari dragon and flame Magic Bomb murutattack
BeatmapID:737862
BeatmapSetID:333426

[Difficulty]
HPDrainRate:6
CircleSize:4
OverallDifficulty:9
ApproachRate:9
SliderMultiplier:1.8
SliderTickRate:2

[Events]
//Background and Video events
0,0,"GranatBG.png",0,0
//Break Periods
//Storyboard Layer 0 (Background)
//Storyboard Layer 1 (Fail)
//Storyboard Layer 2 (Pass)
//Storyboard Layer 3 (Foreground)
//Storyboard Sound Samples

[TimingPoints]
281,331.5649867374,3,2,1,45,1,0
446,-100,3,2,0,45,0,0
4259,-100,3,2,1,45,0,0
4425,-100,3,2,0,45,0,0
8238,-100,3,2,1,45,0,0
8404,-100,3,2,0,45,0,0
12217,-100,3,2,1,45,0,0
14206,-100,3,2,0,35,0,0
14704,-100,3,2,0,38,0,0
15201,-100,3,2,0,41,0,0
15698,-100,3,2,0,45,0,0
16196,-100,3,2,1,45,0,0
16361,-100,3,2,0,45,0,0
20119,-100,3,2,0,5,0,0
20174,-100,3,2,1,45,0,0
20340,-100,3,2,0,45,0,0
22330,-100,3,2,0,30,0,0
22661,-100,3,2,0,45,0,0
22827,-100,3,2,0,30,0,0
23158,-100,3,2,0,45,0,0
24153,-100,3,2,1,40,0,1
24319,-100,3,2,0,40,0,1
26143,-100,3,2,1,40,0,1
26308,-100,3,2,0,40,0,1
28132,-100,3,2,1,40,0,1
28298,-100,3,2,0,40,0,1
30121,-100,3,2,1,40,0,1
30287,-100,3,2,0,40,0,1
31116,-100,3,2,1,40,0,1
31282,-100,3,2,0,40,0,1
31945,-100,3,2,0,40,0,0
32111,-100,3,2,1,40,0,1
32277,-100,3,2,0,40,0,1
33105,-100,3,2,1,40,0,1
33271,-100,3,2,0,40,0,1
34100,-100,3,2,1,40,0,1
34266,-100,3,2,0,40,0,1
35095,-100,3,2,1,40,0,1
35261,-100,3,2,0,40,0,1
36090,-100,3,2,1,40,0,1
36255,-100,3,2,0,40,0,1
37084,-100,3,2,1,40,0,1
37250,-100,3,2,0,40,0,1
38079,-100,3,2,1,40,0,1
38245,-100,3,2,0,40,0,1
39074,-100,3,2,1,40,0,1
39239,-100,3,2,0,40,0,1
40068,-100,3,2,0,40,0,0
42058,-100,3,2,1,25,0,0
43052,-100,3,2,1,20,0,0
43384,-100,3,2,1,15,0,0
43716,-100,3,2,1,10,0,0
44047,-100,3,2,0,5,0,0

[Colours]
Combo1 : 0,234,0
Combo2 : 128,128,255
Combo3 : 0,128,192
Combo4 : 0,213,106

[HitObjects]
160,32,281,6,0,L|288:160,1,180,4|0,0:0|0:0,0:0:0:0:
144,128,778,1,0,0:0:0:0:
6,64,944,2,0,L|96:64,1,90,2|0,0:0|0:0,0:0:0:0:
224,96,1275,2,0,L|96:224,1,180,8|2,0:0|0:0,0:0:0:0:
240,192,1773,1,0,0:0:0:0:
384,160,1938,2,0,L|480:160,1,90,2|0,0:0|0:0,0:0:0:0:
144,192,2270,6,0,L|48:192,1,90,2|0,0:0|0:0,0:0:0:0:
288,224,2601,2,0,L|352:288,1,90,2|0,0:0|0:0,0:0:0:0:
208,288,2933,2,0,L|272:352,1,90,2|2,0:0|0:0,0:0:0:0:
96,352,3265,2,0,P|48:320|48:208,1,180,8|2,0:0|0:0,0:0:0:0:
176,192,3762,1,0,0:0:0:0:
112,160,3872,1,0,0:0:0:0:
48,128,3983,1,0,0:0:0:0:
112,96,4093,1,0,0:0:0:0:
272,32,4259,6,0,P|320:64|272:160,1,180,4|0,0:0|0:0,0:0:0:0:
112,192,4756,1,0,0:0:0:0:
256,192,4922,2,0,L|320:256,1,90,2|0,0:0|0:0,0:0:0:0:
176,224,5254,2,0,P|128:256|176:352,1,180,8|2,0:0|0:0,0:0:0:0:
320,352,5750,1,0,0:0:0:0:
464,352,5917,2,0,L|368:352,1,90,2|0,0:0|0:0,0:0:0:0:
208,320,6249,6,0,L|16:320,2,180,2|0|2,0:0|0:0|0:0,0:0:0:0:
416,288,7243,2,0,P|496:192|416:96,1,270,8|2,0:0|0:0,0:0:0:0:
144,32,7906,1,0,0:0:0:0:
400,32,8238,1,4,0:0:0:0:
256,192,8404,12,0,10891,0:0:0:0:
352,160,11222,6,0,B|464:64|464:64|320:128,1,270,8|2,0:0|0:0,0:0:0:0:
176,128,11885,1,8,0:0:0:0:
304,192,12050,1,0,0:0:0:0:
160,224,12217,2,0,L|352:224,1,180,2|0,0:0|0:0,0:0:0:0:
224,256,12714,1,0,0:0:0:0:
368,288,12880,2,0,L|272:288,2,90,0|0|8,0:0|0:0|0:0,0:0:0:0:
112,288,13543,5,0,0:0:0:0:
240,288,13709,1,0,0:0:0:0:
368,288,13875,1,0,0:0:0:0:
240,320,14040,1,0,0:0:0:0:
96,352,14206,5,2,0:0:0:0:
208,336,14372,1,0,0:0:0:0:
320,320,14538,1,2,0:0:0:0:
464,304,14704,1,0,0:0:0:0:
352,272,14869,1,2,0:0:0:0:
464,256,15035,1,0,0:0:0:0:
64,256,15201,5,2,0:0:0:0:
176,240,15367,1,0,0:0:0:0:
64,208,15533,1,0,0:0:0:0:
176,192,15699,1,2,0:0:0:0:
288,176,15864,1,0,0:0:0:0:
400,160,16030,1,0,0:0:0:0:
112,128,16196,6,0,P|64:176|128:256,1,180,4|0,0:0|0:0,0:0:0:0:
256,288,16693,2,0,L|144:288,1,90
304,320,17025,1,0,0:0:0:0:
64,320,17190,1,0,0:0:0:0:
288,320,17522,1,0,0:0:0:0:
176,336,17688,1,0,0:0:0:0:
320,336,17853,1,0,0:0:0:0:
208,352,18019,1,0,0:0:0:0:
448,352,18185,6,0,P|496:304|432:224,1,180,4|0,0:0|0:0,0:0:0:0:
336,224,18682,2,0,L|240:224,1,90
144,224,19014,1,0,0:0:0:0:
320,288,19180,6,0,B|432:192|432:192|320:241,1,270,8|2,0:0|0:0,0:0:0:0:
144,224,19843,2,0,L|64:144,1,90,8|0,0:0|0:0,0:0:0:0:
352,160,20174,1,4,0:0:0:0:
240,128,20340,1,0,0:0:0:0:
128,128,20506,2,0,L|224:128,1,90,8|0,0:0|0:0,0:0:0:0:
384,96,20838,2,0,L|288:96,1,90
48,64,21169,6,0,P|16:128|64:240,1,180,8|0,0:0|0:0,0:0:0:0:
192,224,21666,2,0,L|288:224,2,90
320,160,22164,5,2,0:0:0:0:
64,192,22330,1,4,0:0:0:0:
224,224,22661,1,2,0:0:0:0:
480,256,22827,1,4,0:0:0:0:
288,288,23158,2,0,L|192:288,1,90,8|8,0:0|0:0,0:0:0:0:
336,320,23490,1,2,0:0:0:0:
80,352,23822,1,0,0:0:0:0:
304,352,24153,6,0,L|400:352,1,90,2|0,0:0|0:0,0:0:0:0:
144,320,24485,2,0,L|80:256,1,90,2|2,0:0|0:0,0:0:0:0:
208,256,24816,1,0,0:0:0:0:
112,224,24982,1,2,0:0:0:0:
416,256,25148,2,0,P|480:160|416:32,1,270,2|0,0:0|0:0,0:0:0:0:
272,32,25811,5,2,0:0:0:0:
128,64,25977,1,2,0:0:0:0:
368,64,26143,2,0,P|416:128|368:208,1,180,2|0,0:0|0:0,0:0:0:0:
224,192,26640,1,2,0:0:0:0:
80,160,26806,2,0,P|32:224|80:304,1,180,2|2,0:0|0:0,0:0:0:0:
368,352,27469,5,2,0:0:0:0:
418,320,27579,1,2,0:0:0:0:
447,269,27690,1,2,0:0:0:0:
448,208,27800,2,0,L|352:176,1,90,2|2,0:0|0:0,0:0:0:0:
112,224,28132,5,2,0:0:0:0:
0,256,28298,1,0,0:0:0:0:
160,288,28464,1,2,0:0:0:0:
272,256,28629,1,0,0:0:0:0:
448,224,28795,1,2,0:0:0:0:
320,192,28961,1,0,0:0:0:0:
96,176,29127,1,2,0:0:0:0:
432,160,29790,5,2,0:0:0:0:
336,128,29956,1,0,0:0:0:0:
64,96,30121,2,0,P|16:176|64:240,1,180,2|0,0:0|0:0,0:0:0:0:
208,256,30619,1,2,0:0:0:0:
352,288,30784,2,0,L|448:288,1,90,2|0,0:0|0:0,0:0:0:0:
160,320,31116,6,0,B|80:272|80:272|160:240,1,180,2|2,0:0|0:0,0:0:0:0:
240,192,31558,1,2,0:0:0:0:
320,160,31669,1,2,0:0:0:0:
400,128,31779,1,2,0:0:0:0:
176,80,31945,1,2,0:0:0:0:
320,32,32111,6,0,L|416:32,2,90,2|0|2,0:0|0:0|0:0,0:0:0:0:
176,64,32608,1,2,0:0:0:0:
304,80,32774,1,0,0:0:0:0:
432,96,32940,1,0,0:0:0:0:
160,128,33105,6,0,L|64:128,2,90,2|0|2,0:0|0:0|0:0,0:0:0:0:
304,160,33603,1,0,0:0:0:0:
176,176,33769,1,2,0:0:0:0:
48,192,33935,1,0,0:0:0:0:
288,224,34100,6,0,L|384:224,1,90,2|0,0:0|0:0,0:0:0:0:
224,224,34432,2,0,L|128:224,1,90,2|2,0:0|0:0,0:0:0:0:
304,256,34763,1,0,0:0:0:0:
160,288,34929,1,0,0:0:0:0:
400,320,35095,6,0,L|310:320,1,90,2|0,0:0|0:0,0:0:0:0:
224,352,35426,2,0,L|128:352,1,90,2|0,0:0|0:0,0:0:0:0:
304,320,35757,1,2,0:0:0:0:
160,288,35923,1,0,0:0:0:0:
400,256,36090,5,2,0:0:0:0:
304,240,36256,1,0,0:0:0:0:
200,224,36421,1,0,0:0:0:0:
328,208,36587,1,0,0:0:0:0:
456,192,36753,1,0,0:0:0:0:
368,160,36919,1,0,0:0:0:0:
112,160,37084,5,2,0:0:0:0:
24,144,37250,1,0,0:0:0:0:
152,128,37416,1,2,0:0:0:0:
240,112,37582,1,0,0:0:0:0:
136,96,37747,1,2,0:0:0:0:
48,80,37913,1,0,0:0:0:0:
416,352,38079,5,2,0:0:0:0:
304,320,38244,1,0,0:0:0:0:
192,288,38410,1,2,0:0:0:0:
80,256,38576,1,2,0:0:0:0:
368,224,38742,1,0,0:0:0:0:
480,192,38907,1,0,0:0:0:0:
256,160,39074,5,2,0:0:0:0:
144,128,39239,1,0,0:0:0:0:
32,96,39405,1,2,0:0:0:0:
176,64,39570,1,0,0:0:0:0:
288,32,39737,1,2,0:0:0:0:
96,64,40068,6,0,P|48:144|112:208,1,180,2|0,0:0|0:0,0:0:0:0:
352,352,40731,1,0,0:0:0:0:
128,320,41063,1,0,0:0:0:0:
368,288,41395,1,0,0:0:0:0:
64,256,41726,1,0,0:0:0:0:
464,224,42058,1,2,0:0:0:0:
256,192,42389,12,0,44047,0:0:0:0:
