osu file format v14

[General]
AudioFilename: audio.mp3
AudioLeadIn: 0
PreviewTime: 281
Countdown: 0
SampleSet: Normal
StackLeniency: 0.2
Mode: 1
LetterboxInBreaks: 0
WidescreenStoryboard: 1

[Editor]
DistanceSpacing: 2
BeatDivisor: 4
GridSize: 32
TimelineZoom: 3.299999

[Metadata]
Title:Granat
TitleUnicode:Granat
Artist:Drop
ArtistUnicode:Drop
Creator:Vulkin
Version:Skull Kid's MANIERA
Source:
Tags:竜と炎の物語 清風明月 c85 seifuu meigetsu ryuu to honou no monogatari Dragon and Flame Skull Kid Nao Tomori Naotoshi
BeatmapID:1779230
BeatmapSetID:851062

[Difficulty]
HPDrainRate:4
CircleSize:4
OverallDifficulty:6
ApproachRate:9
SliderMultiplier:1.4
SliderTickRate:1

[Events]
//Background and Video events
0,0,"__rainy_season___by_saku666.jpg",0,0
//Break Periods
//Storyboard Layer 0 (Background)
//Storyboard Layer 1 (Fail)
//Storyboard Layer 2 (Pass)
//Storyboard Layer 3 (Foreground)
//Storyboard Sound Samples

[TimingPoints]
281,331.5649867374,3,1,0,70,1,0
24236,-102.040816326531,3,1,0,50,0,0
24485,-104.166666666667,3,1,0,50,0,0
24651,-106.382978723404,3,1,0,50,0,0
24816,-108.695652173913,3,1,0,50,0,0
24982,-111.111111111111,3,1,0,50,0,0
30619,-109.89010989011,3,1,0,50,0,0
30784,-108.695652173913,3,1,0,50,0,0
30950,-107.52688172043,3,1,0,50,0,0
31116,-106.382978723404,3,1,0,50,0,0
31448,-105.263157894737,3,1,0,50,0,0
31558,-104.166666666667,3,1,0,50,0,0
31669,-103.092783505155,3,1,0,50,0,0
31779,-102.040816326531,3,1,0,50,0,0
31945,-101.010101010101,3,1,0,50,0,0
32028,-100,3,1,0,60,0,0

[HitObjects]
256,192,281,5,4,0:0:0:0:
256,192,446,1,8,0:0:0:0:
256,192,529,1,8,0:0:0:0:
256,192,612,1,0,0:0:0:0:
256,192,778,1,8,0:0:0:0:
256,192,944,1,0,0:0:0:0:
256,192,1109,1,0,0:0:0:0:
256,192,1275,1,8,0:0:0:0:
256,192,1441,1,0,0:0:0:0:
256,192,1524,1,0,0:0:0:0:
256,192,1607,1,0,0:0:0:0:
256,192,1773,1,8,0:0:0:0:
256,192,1938,1,0,0:0:0:0:
256,192,2021,1,0,0:0:0:0:
256,192,2104,1,8,0:0:0:0:
256,192,2187,1,8,0:0:0:0:
256,192,2270,1,0,0:0:0:0:
256,192,2436,1,0,0:0:0:0:
256,192,2601,1,8,0:0:0:0:
256,192,2767,1,0,0:0:0:0:
256,192,2850,1,0,0:0:0:0:
256,192,2933,1,8,0:0:0:0:
256,192,3099,1,8,0:0:0:0:
256,192,3265,1,0,0:0:0:0:
256,192,3430,1,8,0:0:0:0:
256,192,3513,1,0,0:0:0:0:
256,192,3596,1,8,0:0:0:0:
256,192,3707,1,8,0:0:0:0:
256,192,3817,1,0,0:0:0:0:
256,192,3928,1,0,0:0:0:0:
256,192,4093,1,8,0:0:0:0:
256,192,4259,1,0,0:0:0:0:
256,192,4425,1,8,0:0:0:0:
256,192,4508,1,8,0:0:0:0:
256,192,4591,1,0,0:0:0:0:
256,192,4757,1,8,0:0:0:0:
256,192,4922,1,0,0:0:0:0:
256,192,5088,1,0,0:0:0:0:
256,192,5254,1,8,0:0:0:0:
256,192,5420,1,0,0:0:0:0:
256,192,5503,1,0,0:0:0:0:
256,192,5586,1,0,0:0:0:0:
256,192,5751,1,8,0:0:0:0:
256,192,5917,1,0,0:0:0:0:
256,192,6000,1,0,0:0:0:0:
256,192,6083,1,8,0:0:0:0:
256,192,6166,1,8,0:0:0:0:
256,192,6249,1,0,0:0:0:0:
256,192,6414,1,0,0:0:0:0:
256,192,6580,1,8,0:0:0:0:
256,192,6746,1,0,0:0:0:0:
256,192,6829,1,0,0:0:0:0:
256,192,6912,1,8,0:0:0:0:
256,192,6995,1,0,0:0:0:0:
256,192,7078,1,8,0:0:0:0:
256,192,7160,1,8,0:0:0:0:
256,192,7243,1,0,0:0:0:0:
256,192,7409,1,8,0:0:0:0:
256,192,7575,1,0,0:0:0:0:
256,192,7741,1,8,0:0:0:0:
256,192,7824,1,0,0:0:0:0:
256,192,7906,1,8,0:0:0:0:
256,192,8072,1,8,0:0:0:0:
256,192,8238,1,4,0:0:0:0:
256,192,8404,1,8,0:0:0:0:
256,192,8487,1,8,0:0:0:0:
256,192,8570,1,0,0:0:0:0:
256,192,8735,1,8,0:0:0:0:
256,192,8901,1,0,0:0:0:0:
256,192,9067,1,0,0:0:0:0:
256,192,9233,1,8,0:0:0:0:
256,192,9399,1,0,0:0:0:0:
256,192,9481,1,0,0:0:0:0:
256,192,9564,1,8,0:0:0:0:
256,192,9730,1,0,0:0:0:0:
256,192,9896,1,8,0:0:0:0:
256,192,10062,1,8,0:0:0:0:
256,192,10227,1,0,0:0:0:0:
256,192,10393,1,8,0:0:0:0:
256,192,10476,1,8,0:0:0:0:
256,192,10559,1,0,0:0:0:0:
256,192,10725,1,8,0:0:0:0:
256,192,10891,1,0,0:0:0:0:
256,192,11056,1,0,0:0:0:0:
256,192,11222,1,8,0:0:0:0:
256,192,11305,1,8,0:0:0:0:
256,192,11388,1,0,0:0:0:0:
256,192,11471,1,0,0:0:0:0:
256,192,11554,1,8,0:0:0:0:
256,192,11719,1,8,0:0:0:0:
256,192,11885,1,0,0:0:0:0:
256,192,12051,1,8,0:0:0:0:
256,192,12217,1,0,0:0:0:0:
256,192,12383,1,8,0:0:0:0:
256,192,12466,1,8,0:0:0:0:
256,192,12548,1,0,0:0:0:0:
256,192,12714,1,8,0:0:0:0:
256,192,12880,1,0,0:0:0:0:
256,192,13046,1,0,0:0:0:0:
256,192,13212,1,8,0:0:0:0:
256,192,13377,1,0,0:0:0:0:
256,192,13460,1,0,0:0:0:0:
256,192,13543,1,8,0:0:0:0:
256,192,13709,1,8,0:0:0:0:
256,192,13875,1,0,0:0:0:0:
256,192,14040,1,8,0:0:0:0:
256,192,14206,1,0,0:0:0:0:
256,192,14248,1,0,0:0:0:0:
256,192,14372,1,8,0:0:0:0:
256,192,14413,1,8,0:0:0:0:
256,192,14538,1,8,0:0:0:0:
256,192,14579,1,8,0:0:0:0:
256,192,14704,1,0,0:0:0:0:
256,192,14745,1,0,0:0:0:0:
256,192,14869,1,0,0:0:0:0:
256,192,14911,1,0,0:0:0:0:
256,192,15035,1,8,0:0:0:0:
256,192,15077,1,8,0:0:0:0:
256,192,15201,1,0,0:0:0:0:
256,192,15242,1,0,0:0:0:0:
256,192,15367,1,8,0:0:0:0:
256,192,15408,1,8,0:0:0:0:
256,192,15532,1,8,0:0:0:0:
256,192,15574,1,8,0:0:0:0:
256,192,15698,1,0,0:0:0:0:
256,192,15740,1,0,0:0:0:0:
256,192,15864,1,0,0:0:0:0:
256,192,15905,1,0,0:0:0:0:
256,192,16030,1,8,0:0:0:0:
256,192,16071,1,8,0:0:0:0:
256,192,16196,1,4,0:0:0:0:
256,192,16361,1,8,0:0:0:0:
256,192,16444,1,8,0:0:0:0:
256,192,16527,1,0,0:0:0:0:
256,192,16693,1,8,0:0:0:0:
256,192,16859,1,0,0:0:0:0:
256,192,17025,1,0,0:0:0:0:
256,192,17190,1,8,0:0:0:0:
256,192,17356,1,0,0:0:0:0:
256,192,17439,1,0,0:0:0:0:
256,192,17522,1,8,0:0:0:0:
256,192,17688,1,0,0:0:0:0:
256,192,17853,1,8,0:0:0:0:
256,192,18019,1,8,0:0:0:0:
256,192,18185,1,4,0:0:0:0:
256,192,18351,1,8,0:0:0:0:
256,192,18434,1,8,0:0:0:0:
256,192,18517,1,0,0:0:0:0:
256,192,18682,1,8,0:0:0:0:
256,192,18848,1,0,0:0:0:0:
256,192,19014,1,0,0:0:0:0:
256,192,19180,1,8,0:0:0:0:
256,192,19345,1,0,0:0:0:0:
256,192,19428,1,0,0:0:0:0:
256,192,19511,1,8,0:0:0:0:
256,192,19594,1,0,0:0:0:0:
256,192,19677,1,8,0:0:0:0:
256,192,19760,1,8,0:0:0:0:
256,192,19843,1,0,0:0:0:0:
256,192,20009,1,8,0:0:0:0:
256,192,20174,1,4,0:0:0:0:
256,192,20340,1,8,0:0:0:0:
256,192,20423,1,8,0:0:0:0:
256,192,20506,1,0,0:0:0:0:
256,192,20672,1,8,0:0:0:0:
256,192,20838,1,0,0:0:0:0:
256,192,21003,1,0,0:0:0:0:
256,192,21169,1,8,0:0:0:0:
256,192,21335,1,0,0:0:0:0:
256,192,21418,1,0,0:0:0:0:
256,192,21501,1,8,0:0:0:0:
256,192,21666,1,0,0:0:0:0:
256,192,21832,1,8,0:0:0:0:
256,192,21998,1,8,0:0:0:0:
256,192,22164,1,0,0:0:0:0:
256,192,22330,1,12,0:0:0:0:
256,192,22495,1,0,0:0:0:0:
256,192,22661,1,0,0:0:0:0:
256,192,22827,1,12,0:0:0:0:
256,192,22993,1,0,0:0:0:0:
256,192,23076,1,0,0:0:0:0:
256,192,23158,1,8,0:0:0:0:
256,192,23324,1,8,0:0:0:0:
256,192,23490,1,0,0:0:0:0:
256,192,23656,1,8,0:0:0:0:
256,192,23822,1,0,0:0:0:0:
256,192,23987,1,0,0:0:0:0:
256,192,24153,1,12,0:0:0:0:
256,192,24319,1,8,0:0:0:0:
256,192,24485,1,0,0:0:0:0:
256,192,24651,1,8,0:0:0:0:
256,192,24816,1,0,0:0:0:0:
256,192,24982,1,0,0:0:0:0:
256,192,25148,1,8,0:0:0:0:
256,192,25811,1,0,0:0:0:0:
256,192,25977,1,8,0:0:0:0:
256,192,26143,1,0,0:0:0:0:
256,192,26640,1,8,0:0:0:0:
256,192,26806,1,8,0:0:0:0:
256,192,27137,1,0,0:0:0:0:
256,192,27469,1,8,0:0:0:0:
256,192,27579,1,8,0:0:0:0:
256,192,27690,1,0,0:0:0:0:
256,192,27800,1,8,0:0:0:0:
256,192,27966,1,0,0:0:0:0:
256,192,28132,1,8,0:0:0:0:
256,192,28298,1,8,0:0:0:0:
256,192,28464,1,0,0:0:0:0:
256,192,28629,1,8,0:0:0:0:
256,192,28795,1,0,0:0:0:0:
256,192,28961,1,0,0:0:0:0:
256,192,29127,1,8,0:0:0:0:
256,192,29790,1,0,0:0:0:0:
256,192,29956,1,8,0:0:0:0:
256,192,30121,1,0,0:0:0:0:
256,192,30619,1,8,0:0:0:0:
256,192,30784,1,0,0:0:0:0:
256,192,30950,1,8,0:0:0:0:
256,192,31116,1,8,0:0:0:0:
256,192,31448,1,8,0:0:0:0:
256,192,31558,1,8,0:0:0:0:
256,192,31669,1,0,0:0:0:0:
256,192,31779,1,8,0:0:0:0:
256,192,31945,1,0,0:0:0:0:
256,192,32111,1,8,0:0:0:0:
256,192,32152,1,8,0:0:0:0:
256,192,32277,1,0,0:0:0:0:
256,192,32318,1,0,0:0:0:0:
256,192,32442,1,0,0:0:0:0:
256,192,32484,1,0,0:0:0:0:
256,192,32608,1,8,0:0:0:0:
256,192,32650,1,8,0:0:0:0:
256,192,32774,1,8,0:0:0:0:
256,192,32815,1,8,0:0:0:0:
256,192,32940,1,0,0:0:0:0:
256,192,32981,1,0,0:0:0:0:
256,192,33105,1,8,0:0:0:0:
256,192,33147,1,8,0:0:0:0:
256,192,33271,1,0,0:0:0:0:
256,192,33313,1,0,0:0:0:0:
256,192,33437,1,8,0:0:0:0:
256,192,33478,1,8,0:0:0:0:
256,192,33603,1,8,0:0:0:0:
256,192,33644,1,8,0:0:0:0:
256,192,33769,1,0,0:0:0:0:
256,192,33810,1,0,0:0:0:0:
256,192,33934,1,0,0:0:0:0:
256,192,33976,1,0,0:0:0:0:
256,192,34100,1,8,0:0:0:0:
256,192,34142,1,8,0:0:0:0:
256,192,34266,1,0,0:0:0:0:
256,192,34307,1,0,0:0:0:0:
256,192,34432,1,0,0:0:0:0:
256,192,34473,1,0,0:0:0:0:
256,192,34597,1,8,0:0:0:0:
256,192,34639,1,8,0:0:0:0:
256,192,34763,1,8,0:0:0:0:
256,192,34805,1,8,0:0:0:0:
256,192,34929,1,0,0:0:0:0:
256,192,34970,1,0,0:0:0:0:
256,192,35095,1,8,0:0:0:0:
256,192,35136,1,8,0:0:0:0:
256,192,35261,1,0,0:0:0:0:
256,192,35302,1,0,0:0:0:0:
256,192,35426,1,8,0:0:0:0:
256,192,35468,1,8,0:0:0:0:
256,192,35592,1,8,0:0:0:0:
256,192,35634,1,8,0:0:0:0:
256,192,35758,1,0,0:0:0:0:
256,192,35799,1,0,0:0:0:0:
256,192,35924,1,0,0:0:0:0:
256,192,35965,1,0,0:0:0:0:
256,192,36090,1,8,0:0:0:0:
256,192,36131,1,8,0:0:0:0:
256,192,36255,1,0,0:0:0:0:
256,192,36297,1,0,0:0:0:0:
256,192,36421,1,0,0:0:0:0:
256,192,36463,1,0,0:0:0:0:
256,192,36587,1,8,0:0:0:0:
256,192,36628,1,8,0:0:0:0:
256,192,36753,1,8,0:0:0:0:
256,192,36794,1,8,0:0:0:0:
256,192,36918,1,0,0:0:0:0:
256,192,36960,1,0,0:0:0:0:
256,192,37084,1,8,0:0:0:0:
256,192,37126,1,8,0:0:0:0:
256,192,37250,1,0,0:0:0:0:
256,192,37291,1,0,0:0:0:0:
256,192,37416,1,8,0:0:0:0:
256,192,37457,1,8,0:0:0:0:
256,192,37582,1,8,0:0:0:0:
256,192,37623,1,8,0:0:0:0:
256,192,37747,1,0,0:0:0:0:
256,192,37789,1,0,0:0:0:0:
256,192,37913,1,0,0:0:0:0:
256,192,37955,1,0,0:0:0:0:
256,192,38079,1,8,0:0:0:0:
256,192,38120,1,8,0:0:0:0:
256,192,38245,1,0,0:0:0:0:
256,192,38286,1,0,0:0:0:0:
256,192,38410,1,8,0:0:0:0:
256,192,38452,1,8,0:0:0:0:
256,192,38576,1,8,0:0:0:0:
256,192,38618,1,8,0:0:0:0:
256,192,38742,1,0,0:0:0:0:
256,192,38783,1,0,0:0:0:0:
256,192,38908,1,8,0:0:0:0:
256,192,38949,1,8,0:0:0:0:
256,192,39074,1,0,0:0:0:0:
256,192,39115,1,0,0:0:0:0:
256,192,39239,1,0,0:0:0:0:
256,192,39281,1,0,0:0:0:0:
256,192,39405,1,8,0:0:0:0:
256,192,39447,1,8,0:0:0:0:
256,192,39571,1,8,0:0:0:0:
256,192,39612,1,8,0:0:0:0:
256,192,39737,1,0,0:0:0:0:
256,192,39903,1,8,0:0:0:0:
256,192,40068,1,0,0:0:0:0:
256,192,40400,1,0,0:0:0:0:
256,192,40731,1,8,0:0:0:0:
256,192,41063,1,0,0:0:0:0:
256,192,41395,1,8,0:0:0:0:
256,192,41726,1,8,0:0:0:0:
256,192,42058,1,0,0:0:0:0:
