osu file format v14

[General]
AudioFilename: audio.mp3
AudioLeadIn: 0
PreviewTime: 281
Countdown: 0
SampleSet: Normal
StackLeniency: 0.2
Mode: 1
LetterboxInBreaks: 0
WidescreenStoryboard: 1

[Editor]
Bookmarks: 24153
DistanceSpacing: 2
BeatDivisor: 4
GridSize: 32
TimelineZoom: 2

[Metadata]
Title:Granat
TitleUnicode:Granat
Artist:Drop
ArtistUnicode:Drop
Creator:Vulkin
Version:Oni
Source:
Tags:竜と炎の物語 清風明月 c85 seifuu meigetsu ryuu to honou no monogatari Dragon and Flame Skull Kid Nao Tomori Naotoshi
BeatmapID:1779162
BeatmapSetID:851062

[Difficulty]
HPDrainRate:7
CircleSize:5
OverallDifficulty:6
ApproachRate:10
SliderMultiplier:1.4
SliderTickRate:1

[Events]
//Background and Video events
0,0,"anime_flowers_dance_night_girl_moon_27627_1920x1080.jpg",0,0
//Break Periods
//Storyboard Layer 0 (Background)
//Storyboard Layer 1 (Fail)
//Storyboard Layer 2 (Pass)
//Storyboard Layer 3 (Foreground)
//Storyboard Sound Samples

[TimingPoints]
281,331.5649867374,3,1,0,100,1,0

[HitObjects]
256,192,281,5,12,0:0:0:0:
256,192,612,1,0,0:0:0:0:
256,192,778,1,8,0:0:0:0:
256,192,944,1,8,0:0:0:0:
256,192,1109,1,0,0:0:0:0:
256,192,1275,1,8,0:0:0:0:
256,192,1607,1,0,0:0:0:0:
256,192,1773,1,8,0:0:0:0:
256,192,1855,1,8,0:0:0:0:
256,192,1938,1,0,0:0:0:0:
256,192,2104,1,8,0:0:0:0:
256,192,2270,1,0,0:0:0:0:
256,192,2601,1,0,0:0:0:0:
256,192,2767,1,0,0:0:0:0:
256,192,2933,1,8,0:0:0:0:
256,192,3099,1,0,0:0:0:0:
256,192,3265,1,8,0:0:0:0:
256,192,3596,1,0,0:0:0:0:
256,192,3707,1,8,0:0:0:0:
256,192,3817,1,8,0:0:0:0:
256,192,3928,1,0,0:0:0:0:
256,192,4093,1,0,0:0:0:0:
256,192,4259,1,8,0:0:0:0:
256,192,4591,1,0,0:0:0:0:
256,192,4757,1,8,0:0:0:0:
256,192,4922,1,8,0:0:0:0:
256,192,5088,1,0,0:0:0:0:
256,192,5254,1,8,0:0:0:0:
256,192,5586,1,0,0:0:0:0:
256,192,5751,1,8,0:0:0:0:
256,192,5834,1,8,0:0:0:0:
256,192,5917,1,0,0:0:0:0:
256,192,6083,1,8,0:0:0:0:
256,192,6249,1,0,0:0:0:0:
256,192,6580,1,0,0:0:0:0:
256,192,6746,1,0,0:0:0:0:
256,192,6912,1,8,0:0:0:0:
256,192,7243,1,8,0:0:0:0:
256,192,7575,1,8,0:0:0:0:
256,192,7741,1,8,0:0:0:0:
256,192,7906,1,0,0:0:0:0:
256,192,8238,1,12,0:0:0:0:
256,192,8570,1,0,0:0:0:0:
256,192,8735,1,0,0:0:0:0:
256,192,8818,1,0,0:0:0:0:
256,192,8901,1,8,0:0:0:0:
256,192,9067,1,0,0:0:0:0:
256,192,9233,1,8,0:0:0:0:
256,192,9564,1,8,0:0:0:0:
256,192,9730,1,8,0:0:0:0:
256,192,9896,1,0,0:0:0:0:
256,192,10227,1,0,0:0:0:0:
256,192,10559,1,0,0:0:0:0:
256,192,10725,1,0,0:0:0:0:
256,192,10808,1,0,0:0:0:0:
256,192,10891,1,8,0:0:0:0:
256,192,11056,1,0,0:0:0:0:
256,192,11222,1,8,0:0:0:0:
256,192,11554,1,0,0:0:0:0:
256,192,11719,1,8,0:0:0:0:
256,192,11885,1,8,0:0:0:0:
256,192,12051,1,8,0:0:0:0:
256,192,12217,1,0,0:0:0:0:
256,192,12548,1,0,0:0:0:0:
256,192,12714,1,8,0:0:0:0:
256,192,12797,1,0,0:0:0:0:
256,192,12880,1,8,0:0:0:0:
256,192,13046,1,0,0:0:0:0:
256,192,13212,1,8,0:0:0:0:
256,192,13543,1,0,0:0:0:0:
256,192,13709,1,8,0:0:0:0:
256,192,13875,1,8,0:0:0:0:
256,192,14040,1,0,0:0:0:0:
256,192,14206,1,8,0:0:0:0:
256,192,14538,1,8,0:0:0:0:
256,192,14704,1,0,0:0:0:0:
256,192,15035,1,0,0:0:0:0:
256,192,15201,1,8,0:0:0:0:
256,192,15367,1,8,0:0:0:0:
256,192,15532,1,0,0:0:0:0:
256,192,15698,1,8,0:0:0:0:
256,192,15864,1,0,0:0:0:0:
256,192,16030,1,0,0:0:0:0:
256,192,16196,1,12,0:0:0:0:
256,192,16693,1,0,0:0:0:0:
256,192,17025,1,0,0:0:0:0:
256,192,17190,1,8,0:0:0:0:
256,192,17522,1,8,0:0:0:0:
256,192,17688,1,8,0:0:0:0:
256,192,17853,1,0,0:0:0:0:
256,192,18185,1,12,0:0:0:0:
256,192,18517,1,8,0:0:0:0:
256,192,18682,1,0,0:0:0:0:
256,192,19014,1,0,0:0:0:0:
256,192,19180,1,8,0:0:0:0:
256,192,19511,1,0,0:0:0:0:
256,192,19677,1,8,0:0:0:0:
256,192,19843,1,0,0:0:0:0:
256,192,20009,1,0,0:0:0:0:
256,192,20174,1,12,0:0:0:0:
256,192,20672,1,0,0:0:0:0:
256,192,21003,1,0,0:0:0:0:
256,192,21169,1,8,0:0:0:0:
256,192,21501,1,0,0:0:0:0:
256,192,21666,1,0,0:0:0:0:
256,192,21749,1,8,0:0:0:0:
256,192,21832,1,8,0:0:0:0:
256,192,21998,1,8,0:0:0:0:
256,192,22164,1,4,0:0:0:0:
256,192,22330,1,12,0:0:0:0:
256,192,22661,1,4,0:0:0:0:
256,192,22827,1,12,0:0:0:0:
256,192,22993,1,0,0:0:0:0:
256,192,23076,1,8,0:0:0:0:
256,192,23158,1,8,0:0:0:0:
256,192,23324,1,8,0:0:0:0:
256,192,23490,1,0,0:0:0:0:
256,192,23822,1,0,0:0:0:0:
256,192,24153,1,8,0:0:0:0:
256,192,24485,1,8,0:0:0:0:
256,192,24651,1,0,0:0:0:0:
256,192,24816,1,8,0:0:0:0:
256,192,24982,1,8,0:0:0:0:
256,192,25148,1,0,0:0:0:0:
256,192,25645,1,0,0:0:0:0:
256,192,25811,1,8,0:0:0:0:
256,192,26143,1,0,0:0:0:0:
256,192,26474,1,0,0:0:0:0:
256,192,26640,1,0,0:0:0:0:
256,192,26806,1,8,0:0:0:0:
256,192,27137,1,0,0:0:0:0:
256,192,27469,1,8,0:0:0:0:
256,192,27579,1,8,0:0:0:0:
256,192,27690,1,8,0:0:0:0:
256,192,27800,1,0,0:0:0:0:
256,192,27966,1,0,0:0:0:0:
256,192,28132,1,8,0:0:0:0:
256,192,28464,1,0,0:0:0:0:
256,192,28629,1,8,0:0:0:0:
256,192,28795,1,8,0:0:0:0:
256,192,28961,1,0,0:0:0:0:
256,192,29127,1,8,0:0:0:0:
256,192,29624,1,0,0:0:0:0:
256,192,29790,1,8,0:0:0:0:
256,192,29956,1,8,0:0:0:0:
256,192,30122,1,0,0:0:0:0:
256,192,30453,1,0,0:0:0:0:
256,192,30619,1,0,0:0:0:0:
256,192,30785,1,8,0:0:0:0:
256,192,30950,1,8,0:0:0:0:
256,192,31116,1,0,0:0:0:0:
256,192,31448,1,8,0:0:0:0:
256,192,31558,1,8,0:0:0:0:
256,192,31669,1,8,0:0:0:0:
256,192,31779,1,0,0:0:0:0:
256,192,31945,1,0,0:0:0:0:
256,192,32111,1,8,0:0:0:0:
256,192,32442,1,8,0:0:0:0:
256,192,32608,1,0,0:0:0:0:
256,192,32774,1,0,0:0:0:0:
256,192,32940,1,0,0:0:0:0:
256,192,33105,1,8,0:0:0:0:
256,192,33437,1,8,0:0:0:0:
256,192,33603,1,0,0:0:0:0:
256,192,33934,1,0,0:0:0:0:
256,192,34100,1,8,0:0:0:0:
256,192,34432,1,8,0:0:0:0:
256,192,34597,1,0,0:0:0:0:
256,192,34763,1,0,0:0:0:0:
256,192,34929,1,0,0:0:0:0:
256,192,35095,1,8,0:0:0:0:
256,192,35426,1,0,0:0:0:0:
256,192,35758,1,0,0:0:0:0:
256,192,36090,1,8,0:0:0:0:
256,192,36421,1,8,0:0:0:0:
256,192,36587,1,0,0:0:0:0:
256,192,36753,1,0,0:0:0:0:
256,192,36918,1,0,0:0:0:0:
256,192,37084,1,8,0:0:0:0:
256,192,37416,1,0,0:0:0:0:
256,192,37582,1,0,0:0:0:0:
256,192,37664,1,0,0:0:0:0:
256,192,37747,1,8,0:0:0:0:
256,192,37913,1,0,0:0:0:0:
256,192,38079,1,8,0:0:0:0:
256,192,38245,1,8,0:0:0:0:
256,192,38410,1,0,0:0:0:0:
256,192,38576,1,8,0:0:0:0:
256,192,38908,1,8,0:0:0:0:
256,192,39074,1,8,0:0:0:0:
256,192,39239,1,8,0:0:0:0:
256,192,39405,1,8,0:0:0:0:
256,192,39571,1,0,0:0:0:0:
256,192,39903,1,0,0:0:0:0:
256,192,40068,1,8,0:0:0:0:
256,192,40400,1,0,0:0:0:0:
256,192,40566,1,0,0:0:0:0:
256,192,40731,1,0,0:0:0:0:
256,192,41063,1,8,0:0:0:0:
256,192,41395,1,0,0:0:0:0:
256,192,41726,1,0,0:0:0:0:
256,192,42058,1,8,0:0:0:0:
